osu file format v14

[General]
AudioFilename: audio.mp3
AudioLeadIn: 0
PreviewTime: 73872
Countdown: 0
SampleSet: Normal
StackLeniency: 0.7
Mode: 0
LetterboxInBreaks: 0
WidescreenStoryboard: 0

[Editor]
DistanceSpacing: 0.8
BeatDivisor: 4
GridSize: 8
TimelineZoom: 1.2

[Metadata]
Title:An I For An I
TitleUnicode:An I For An I
Artist:IAMX
ArtistUnicode:IAMX
Creator:PandaHero
Version:Hard
Source:
Tags:Kingdom Of Welcome Addiction Chris Corner synthpop dark cabaret alternative industrial electronica experimental
BeatmapID:1802969
BeatmapSetID:851768

[Difficulty]
HPDrainRate:5
CircleSize:4
OverallDifficulty:7
ApproachRate:7.5
SliderMultiplier:1.3
SliderTickRate:1

[Events]
//Background and Video events
0,0,"background-1487545_1920.jpg",0,0
//Break Periods
//Storyboard Layer 0 (Background)
//Storyboard Layer 1 (Fail)
//Storyboard Layer 2 (Pass)
//Storyboard Layer 3 (Foreground)
//Storyboard Sound Samples

[TimingPoints]
8284,392.156862745098,3,2,0,35,1,0
8284,-142.857142857143,3,2,0,35,0,0
12989,-117.647058823529,3,2,0,40,0,0
17695,-100,3,1,1,40,0,0
36519,-100,3,1,1,45,0,0
74166,-83.3333333333333,3,1,1,60,0,1
78872,-100,3,1,1,45,0,0
82989,-100,3,1,1,45,0,1
83578,-100,3,1,1,45,0,0
84362,-100,3,1,1,45,0,1
84754,-100,3,1,1,45,0,0
86519,-100,3,1,1,35,0,0
87107,-100,3,1,1,45,0,0
88284,-100,3,1,1,50,0,0
105538,-100,3,1,1,35,0,0
105931,-100,3,1,1,50,0,0
125931,-83.3333333333333,3,1,1,65,0,1
130636,-100,3,1,1,45,0,0
140048,-100,3,2,2,25,0,0
142401,-83.3333333333333,3,1,1,60,0,1
142793,-83.3333333333333,3,1,1,60,0,0
156917,-83.3333333333333,3,2,1,60,0,0
157499,-83.3333333333333,3,1,1,60,0,0
161225,-76.9230769230769,3,1,1,70,0,1
165833,-76.9230769230769,3,1,1,70,0,0
165931,-83.3333333333333,3,1,1,70,0,1
166127,-83.3333333333333,3,1,1,70,0,0
168283,-83.3333333333333,3,1,1,70,0,1
168676,-83.3333333333333,3,1,1,70,0,0
170636,-83.3333333333333,3,1,1,70,0,1
170833,-83.3333333333333,3,1,1,70,0,0
172989,-83.3333333333333,3,1,1,70,0,1
173382,-83.3333333333333,3,1,1,70,0,0
175342,-83.3333333333333,3,1,1,70,0,1
175440,-83.3333333333333,3,1,1,70,0,0
177695,-83.3333333333333,3,1,1,70,0,1
177793,-83.3333333333333,3,1,1,70,0,0
180048,-83.3333333333333,3,1,1,70,0,1
180146,-83.3333333333333,3,1,1,70,0,0
182401,-83.3333333333333,3,1,1,70,0,1
182499,-83.3333333333333,3,1,1,70,0,0
184754,-76.9230769230769,3,1,1,75,0,1
194068,-76.9230769230769,3,1,1,75,0,0
194166,-76.9230769230769,3,1,1,75,0,1
194264,-76.9230769230769,3,1,1,35,0,0

[Colours]
Combo1 : 9,157,247
Combo2 : 141,216,220
Combo3 : 32,136,136
Combo4 : 237,80,100
Combo5 : 148,16,33
Combo6 : 233,233,233

[HitObjects]
30,148,8284,6,0,L|43:238,1,90.9999972229005,4|4,1:3|0:3,0:0:0:0:
151,60,9460,2,0,L|151:206,1,136.499995834351,4|8,1:3|0:3,0:0:0:0:
452,284,10636,2,0,L|439:374,1,90.9999972229005,4|4,1:3|0:3,0:0:0:0:
331,196,11813,2,0,L|331:342,1,136.499995834351,4|8,1:3|0:3,0:0:0:0:
344,88,12989,6,0,L|416:84,2,55.2500010538101,0|2|8,1:0|0:0|1:3,0:0:0:0:
200,29,13774,1,0,0:0:0:0:
117,159,14166,2,0,L|50:151,2,55.2500010538101,4|2|0,1:3|0:0|0:0,0:0:0:0:
175,209,14754,2,0,L|161:336,1,110.50000210762,8|2,1:3|0:0,0:0:0:0:
233,351,15342,70,0,L|298:344,2,55.2500010538101,4|2|8,1:3|0:0|1:3,0:0:0:0:
81,318,16127,1,0,0:0:0:0:
109,166,16519,2,0,L|119:100,2,55.2500010538101,4|2|0,1:3|0:0|0:0,0:0:0:0:
185,174,17107,2,0,L|315:164,1,110.50000210762,8|0,1:3|0:0,0:0:0:0:
385,176,17695,5,4,0:3:0:0:
350,369,18087,1,10,0:0:0:0:
171,331,18480,1,2,0:0:0:0:
210,153,18872,2,0,L|229:80,2,65,4|2|2,0:3|2:0|0:0,0:0:0:0:
129,194,19460,1,8,0:0:0:0:
48,151,19656,2,0,B|50:95|32:109|34:37,1,97.5,2|0,0:0|2:0,0:0:0:0:
73,33,20048,69,4,0:3:0:0:
210,153,20440,1,10,0:0:0:0:
86,287,20833,1,2,0:0:0:0:
261,229,21225,2,0,L|347:243,2,65,4|2|2,0:3|2:0|0:0,0:0:0:0:
210,153,21813,2,0,L|127:165,2,65,8|2|0,0:0|0:0|0:0,0:0:0:0:
287,105,22401,5,4,0:3:0:0:
457,168,22793,1,10,0:0:0:0:
353,18,23185,1,2,0:0:0:0:
345,200,23578,2,0,L|343:279,2,65,4|2|2,0:3|2:0|0:0,0:0:0:0:
264,158,24166,1,8,0:0:0:0:
211,232,24362,2,0,B|195:290|220:282|201:356,1,97.5,2|0,0:0|2:0,0:0:0:0:
196,372,24754,69,4,0:3:0:0:
25,309,25146,1,10,0:0:0:0:
143,171,25538,1,2,0:0:0:0:
308,247,25931,2,0,L|306:322,1,65,4|2,0:3|2:0,0:0:0:0:
382,362,26323,1,2,0:0:0:0:
450,249,26519,2,0,L|452:174,1,65,8|2,0:0|0:0,0:0:0:0:
376,134,26911,1,2,0:3:0:0:
281,158,27107,5,4,0:3:0:0:
182,363,27499,2,2,B|165:315|165:315|195:215,1,130,10|2,0:0|2:0,0:0:0:0:
295,76,28284,2,0,L|204:93,1,65,4|2,0:3|2:0,0:0:0:0:
134,102,28676,1,2,0:0:0:0:
65,32,28872,2,0,L|147:13,2,65,8|2|2,0:0|0:0|0:3,0:0:0:0:
28,122,29460,69,4,0:3:0:0:
108,299,29852,2,2,B|125:251|125:251|95:151,1,130,10|2,0:0|2:0,0:0:0:0:
213,335,30636,2,0,L|239:256,2,65,4|2|2,0:3|2:0|0:0,0:0:0:0:
308,356,31225,1,8,0:0:0:0:
361,274,31421,2,0,L|331:196,1,65,2|2,0:0|0:3,0:0:0:0:
433,229,31813,5,4,0:3:0:0:
397,37,32205,2,2,B|380:85|380:85|410:185,1,130,10|2,0:0|2:0,0:0:0:0:
214,110,32989,2,0,L|198:35,1,65,4|2,0:3|2:0,0:0:0:0:
105,23,33382,1,2,0:0:0:0:
76,116,33578,2,0,L|88:201,2,65,8|2|2,0:0|0:0|0:3,0:0:0:0:
160,165,34166,69,4,0:3:0:0:
340,238,34558,2,2,B|304:222|304:222|197:251,1,130,10|2,0:0|2:0,0:0:0:0:
26,289,35342,2,0,L|107:257,2,65,4|2|2,0:3|2:0|0:0,0:0:0:0:
144,348,35931,1,8,0:0:0:0:
229,300,36127,1,10,0:0:0:0:
186,212,36323,1,2,0:3:0:0:
307,196,36519,6,0,P|388:207|448:203,2,130,4|8|0,0:0|0:0|3:0,0:0:0:0:
230,59,37695,2,0,P|147:56|87:89,1,130,4|0,0:3|0:0,0:0:0:0:
47,127,38284,2,0,L|57:270,1,130,8|2,0:0|0:0,0:0:0:0:
117,323,38872,69,4,0:3:0:0:
248,238,39264,1,8,0:0:0:0:
381,318,39656,1,0,3:0:0:0:
248,238,40048,2,0,P|251:160|267:95,1,130,4|0,0:3|0:0,0:0:0:0:
318,55,40636,1,8,0:0:0:0:
395,67,40833,2,0,P|427:71|484:88,1,65,0|2,0:0|0:0,0:0:0:0:
471,168,41225,6,0,P|409:160|331:133,2,130,4|8|0,0:3|0:0|3:0,0:0:0:0:
389,300,42401,2,0,P|279:288|233:300,1,130,4|0,0:3|0:0,0:0:0:0:
195,333,42989,2,0,P|150:337|112:336,2,65,8|0|2,0:0|3:0|0:0,0:0:0:0:
198,241,43578,70,0,P|180:142|163:107,1,130,4|8,0:3|0:0,0:0:0:0:
49,14,44362,1,0,3:0:0:0:
27,168,44754,2,0,P|20:232|29:296,1,130,4|0,0:3|0:0,0:0:0:0:
103,321,45342,2,0,P|133:310|179:308,1,65,8|0,0:0|3:0,0:0:0:0:
241,326,45734,1,2,0:0:0:0:
325,361,45931,6,0,P|413:343|469:315,2,130,4|8|0,0:3|0:0|3:0,0:0:0:0:
231,236,47107,2,0,P|244:160|243:84,1,130,4|0,0:3|0:0,0:0:0:0:
171,81,47695,1,8,0:0:0:0:
100,115,47891,2,0,P|68:122|20:122,1,65,0|2,3:0|0:0,0:0:0:0:
28,214,48284,70,0,P|104:214|168:255,1,130,4|8,0:3|0:0,0:0:0:0:
257,352,49068,1,0,3:0:0:0:
302,202,49460,2,0,P|346:208|381:224,2,65,4|0|0,0:3|3:0|0:0,0:0:0:0:
235,161,50048,2,0,P|236:125|250:71,2,65,8|0|2,0:0|3:0|0:0,0:0:0:0:
186,238,50636,6,0,P|130:242|44:218,1,130,4|8,0:3|0:0,0:0:0:0:
151,350,51421,2,0,P|179:329|229:315,1,65,0|0,3:0|0:0,0:0:0:0:
273,277,51813,1,4,0:3:0:0:
346,303,52009,1,0,0:0:0:0:
285,351,52205,1,0,0:0:0:0:
273,277,52401,2,0,P|278:233|288:201,1,65,8|0,0:0|3:0,0:0:0:0:
325,147,52793,1,2,0:0:0:0:
415,151,52989,70,0,P|437:211|448:291,2,130,4|8|0,0:3|0:0|3:0,0:0:0:0:
300,44,54166,2,0,L|209:55,2,65,4|0|0,0:3|3:0|0:0,0:0:0:0:
352,118,54754,1,8,0:0:0:0:
281,151,54950,1,0,3:0:0:0:
347,192,55146,1,2,0:0:0:0:
264,230,55342,6,0,P|190:225|124:239,1,130,4|8,0:0|0:0,0:0:0:0:
235,356,56127,2,0,L|307:350,1,65,0|0,0:0|3:0,0:0:0:0:
376,363,56519,2,0,P|382:287|389:223,1,130,4|0,0:3|0:0,0:0:0:0:
362,159,57107,1,8,0:0:0:0:
284,148,57303,2,0,L|210:161,1,65,0|2,3:0|0:0,0:0:0:0:
151,219,57695,70,0,P|85:211|6:209,2,130,4|8|0,0:3|0:0|3:0,0:0:0:0:
171,64,58872,2,0,L|81:52,1,65,4|0,0:3|3:0,0:0:0:0:
39,95,59264,1,0,0:0:0:0:
99,144,59460,1,8,0:0:0:0:
176,147,59656,2,0,L|254:133,1,65,0|2,3:0|0:0,0:0:0:0:
316,184,60048,6,0,P|325:258|323:340,1,130,4|8,0:3|0:0,0:0:0:0:
447,215,60833,2,0,P|447:185|449:140,1,65,0|0,0:0|3:0,0:0:0:0:
420,77,61225,2,0,P|355:85|275:81,1,130,4|0,0:3|0:0,0:0:0:0:
217,58,61813,1,8,0:0:0:0:
169,119,62009,2,0,L|176:193,1,65,0|2,3:0|0:0,0:0:0:0:
228,257,62401,70,0,P|300:244|365:246,2,130,4|8|0,0:3|0:0|3:0,0:0:0:0:
98,343,63578,2,0,L|166:351,2,65,4|0|0,0:3|3:0|0:0,0:0:0:0:
44,286,64166,1,8,0:0:0:0:
75,214,64362,1,0,3:0:0:0:
147,243,64558,1,2,0:0:0:0:
204,172,64754,6,0,P|167:82|131:39,1,130,4|8,0:3|0:0,0:0:0:0:
305,80,65538,2,0,P|317:104|334:139,1,65,0|0,0:0|3:0,0:0:0:0:
401,177,65931,2,0,P|430:168|468:171,2,65,4|0|0,0:3|3:0|0:0,0:0:0:0:
337,221,66519,1,8,0:0:0:0:
337,221,66715,2,0,P|308:230|270:227,1,65,0|2,3:0|0:0,0:0:0:0:
182,228,67107,70,0,P|168:288|162:377,2,130,4|8|0,0:3|0:0|3:0,0:0:0:0:
242,84,68284,2,0,P|177:89|113:104,1,130,4|0,0:3|0:0,0:0:0:0:
47,145,68872,1,8,0:0:0:0:
116,179,69068,2,0,P|108:213|105:256,1,65,0|2,3:0|0:0,0:0:0:0:
173,303,69460,6,0,B|248:282|231:328|311:304,1,130,4|8,0:3|0:0,0:0:0:0:
441,240,70244,2,0,P|399:230|374:226,1,65,0|0,0:0|3:0,0:0:0:0:
299,231,70636,1,4,0:3:0:0:
258,163,70833,1,0,0:0:0:0:
335,161,71029,1,0,0:0:0:0:
356,86,71225,2,0,P|280:79|211:90,1,130,8|2,0:0|0:0,0:0:0:0:
152,138,71813,70,0,P|92:132|70:124,1,65,4|0,0:3|0:0,0:0:0:0:
15,158,72205,2,0,P|25:235|26:306,1,130,8|0,0:0|3:0,0:0:0:0:
176,328,72989,2,0,P|207:319|257:325,2,65,4|0|0,0:3|3:0|0:0,0:0:0:0:
144,242,73578,1,8,0:0:0:0:
209,198,73774,1,0,3:0:0:0:
293,216,73970,1,8,0:0:0:0:
293,216,74068,1,8,0:0:0:0:
293,216,74166,22,0,B|303:153|303:153|274:56,1,155.999995239258,4|8,0:0|0:0,0:0:0:0:
178,17,74754,1,2,0:3:0:0:
109,102,74950,2,0,L|26:111,1,77.999997619629,4|2,0:2|0:3,0:0:0:0:
94,196,75342,2,0,L|183:187,2,77.999997619629,12|4|0,0:0|0:2|0:0,0:0:0:0:
35,288,75931,1,12,0:0:0:0:
135,330,76127,2,0,L|224:320,1,77.999997619629,4|0,0:2|0:0,0:0:0:0:
315,359,76519,6,0,B|369:340|369:340|494:359,1,155.999995239258,4|10,0:0|0:0,0:0:0:0:
490,249,77107,1,2,0:3:0:0:
384,219,77303,2,0,B|356:246|356:246|284:251,1,77.999997619629,2|2,0:0|0:3,0:0:0:0:
227,184,77695,69,12,0:0:0:0:
294,97,77891,2,0,B|336:138|336:138|453:145,1,155.999995239258,4|12,0:2|0:0,0:0:0:0:
480,44,78480,1,4,0:2:0:0:
374,15,78676,1,8,0:0:0:0:
374,15,78774,1,8,0:0:0:0:
374,15,78872,1,4,0:0:0:0:
222,109,79264,54,0,P|237:200|231:259,1,130,8|2,0:2|3:0,0:0:0:0:
58,281,80048,2,0,P|43:190|49:131,1,130,4|0,0:3|0:0,0:0:0:0:
135,144,80636,2,0,L|139:219,1,65,8|2,0:0|0:3,0:0:0:0:
170,294,81029,1,2,0:0:0:0:
260,289,81225,6,0,P|321:279|395:292,2,130,4|8|2,0:3|0:2|3:0,0:0:0:0:
126,165,82401,2,0,P|160:108|232:53,1,130,4|0,0:3|0:0,0:0:0:0:
286,111,82989,38,0,B|321:131|321:131|430:116,1,130,10|2,0:0|0:0,0:0:0:0:
486,69,83578,21,4,0:3:0:0:
309,31,83970,1,8,0:2:0:0:
361,205,84362,70,2,L|364:295,1,65,2|0,0:0|3:0,0:0:0:0:
407,349,84754,22,0,P|442:338|490:333,2,65,4|2|0,0:3|0:3|0:0,0:0:0:0:
317,332,85342,2,0,P|251:357|172:357,1,130,8|2,0:0|0:0,0:0:0:0:
126,296,85931,70,0,L|133:162,1,130,4|8,0:3|0:2,0:0:0:0:
48,131,86519,2,0,L|42:206,2,65,2|0|2,0:0|3:0|0:0,0:0:0:0:
122,78,87107,2,0,L|203:99,2,65,4|0|2,0:3|3:0|0:3,0:0:0:0:
182,10,87695,1,8,0:0:0:0:
270,28,87891,1,2,0:3:0:0:
280,118,88087,1,2,0:0:0:0:
369,100,88284,6,0,P|434:87|519:97,2,130,4|8|0,0:0|0:2|3:0,0:0:0:0:
292,117,89264,1,0,0:0:0:0:
272,192,89460,2,0,P|266:256|279:331,1,130,4|0,0:3|0:0,0:0:0:0:
348,349,90048,2,0,P|398:331|437:328,2,65,8|0|2,0:0|3:0|0:0,0:0:0:0:
258,363,90636,70,0,P|192:347|123:345,1,130,4|8,0:3|0:2,0:0:0:0:
28,227,91421,2,0,P|72:222|115:213,1,65,0|0,0:0|3:0,0:0:0:0:
149,165,91813,2,0,P|193:170|236:179,2,65,4|0|0,0:3|3:0|0:0,0:0:0:0:
94,109,92401,1,8,0:0:0:0:
160,68,92597,2,0,P|192:73|224:76,1,65,0|2,0:0|0:0,0:0:0:0:
307,38,92989,5,4,0:3:0:0:
399,163,93382,1,8,0:2:0:0:
314,294,93774,2,0,L|301:218,1,65,0|0,0:0|3:0,0:0:0:0:
225,230,94166,2,0,P|210:311|211:373,1,130,4|0,0:3|0:0,0:0:0:0:
287,354,94754,2,0,B|328:336|328:336|425:343,1,130,8|2,0:0|0:0,0:0:0:0:
472,273,95342,70,0,P|469:216|449:141,2,130,4|8|0,0:3|0:2|3:0,0:0:0:0:
348,177,96519,2,0,L|352:96,1,65,4|0,0:3|3:0,0:0:0:0:
389,44,96911,2,0,L|469:53,2,65,0|8|0,0:0|0:0|3:0,0:0:0:0:
311,37,97499,1,2,0:0:0:0:
231,80,97695,6,0,P|165:91|80:78,1,130,4|8,0:3|0:2,0:0:0:0:
21,218,98480,2,0,P|59:219|111:220,1,65,0|0,0:0|3:0,0:0:0:0:
161,201,98872,2,0,P|215:215|299:207,1,130,4|0,0:3|0:0,0:0:0:0:
361,238,99460,1,8,0:0:0:0:
361,238,99656,2,0,P|357:286|360:311,1,65,0|2,3:0|0:0,0:0:0:0:
281,350,100048,70,0,P|227:336|143:344,2,130,4|8|0,0:3|0:2|3:0,0:0:0:0:
437,354,101225,2,0,P|441:314|456:275,2,65,4|0|0,0:3|3:0|0:0,0:0:0:0:
362,331,101813,2,0,B|351:296|351:296|382:191,1,130,8|2,0:0|0:0,0:0:0:0:
385,128,102401,6,0,P|448:153|520:134,1,130,4|8,0:3|0:2,0:0:0:0:
397,30,103185,2,0,P|363:24|314:24,1,65,0|0,0:0|3:0,0:0:0:0:
256,40,103578,1,4,0:3:0:0:
196,90,103774,1,0,0:0:0:0:
135,40,103970,1,0,0:0:0:0:
73,88,104166,2,0,P|117:142|119:210,1,130,8|2,0:0|0:0,0:0:0:0:
47,253,104754,70,0,P|34:321|82:365,1,130,4|8,0:3|0:2,0:0:0:0:
145,334,105342,2,0,P|176:329|214:334,2,65,0|2|0,0:0|0:0|0:0,0:0:0:0:
150,255,105931,2,0,L|159:174,1,65,4|2,0:3|3:1,0:0:0:0:
209,132,106323,1,0,0:0:0:0:
286,138,106519,1,8,0:0:0:0:
330,202,106715,1,8,0:0:0:0:
298,273,106911,1,2,0:0:0:0:
356,342,107107,6,0,P|421:334|490:344,2,130,4|8|0,0:0|0:2|3:0,0:0:0:0:
200,325,108284,2,0,P|120:343|49:341,1,130,4|0,0:3|0:0,0:0:0:0:
30,277,108872,2,0,P|55:260|102:243,1,65,8|0,0:0|3:0,0:0:0:0:
164,234,109264,1,2,0:0:0:0:
217,160,109460,70,0,P|210:71|188:20,1,130,4|8,0:3|0:2,0:0:0:0:
341,89,110244,2,0,P|336:126|336:171,1,65,0|0,0:0|3:0,0:0:0:0:
394,204,110636,2,0,P|433:192|476:191,2,65,4|0|0,0:3|0:0|0:0,0:0:0:0:
320,231,111225,1,8,0:0:0:0:
270,291,111421,2,0,P|275:328|275:373,1,65,0|2,0:0|0:0,0:0:0:0:
184,353,111813,6,0,P|107:345|31:353,2,130,4|8|0,0:3|0:2|0:0,0:0:0:0:
231,204,112989,2,0,P|157:186|97:182,1,130,4|0,0:3|0:0,0:0:0:0:
25,176,113578,1,8,0:0:0:0:
57,105,113774,2,0,P|94:89|145:81,1,65,0|2,3:0|0:0,0:0:0:0:
179,35,114166,69,4,0:3:0:0:
327,82,114558,1,8,0:2:0:0:
188,152,114950,1,0,0:0:0:0:
341,181,115342,2,0,P|372:173|415:176,2,65,4|0|0,0:3|3:0|0:0,0:0:0:0:
280,231,115931,2,0,L|279:300,1,65,8|0,0:0|3:0,0:0:0:0:
206,324,116323,1,2,0:0:0:0:
161,244,116519,6,0,P|160:172|176:110,2,130,4|8|0,0:3|0:2|0:0,0:0:0:0:
62,364,117695,2,0,P|63:292|47:230,1,130,4|0,0:3|0:0,0:0:0:0:
21,162,118284,1,8,0:0:0:0:
94,135,118480,2,0,P|122:141|172:149,1,65,0|2,0:0|0:0,0:0:0:0:
220,213,118872,70,0,P|309:192|357:190,1,130,4|8,0:3|0:2,0:0:0:0:
482,266,119656,1,0,0:0:0:0:
342,336,120048,2,0,P|299:340|262:341,2,65,4|0|0,0:3|3:0|0:0,0:0:0:0:
392,276,120636,1,8,0:0:0:0:
333,224,120833,2,0,P|301:217|255:212,1,65,0|2,3:0|0:0,0:0:0:0:
184,246,121225,6,0,P|101:304|57:293,1,130,4|8,0:3|0:2,0:0:0:0:
26,154,122009,2,0,P|35:121|50:84,1,65,0|0,0:0|3:0,0:0:0:0:
115,128,122401,2,0,L|114:209,2,65,4|0|0,0:3|0:0|0:0,0:0:0:0:
180,85,122989,1,8,0:0:0:0:
205,158,123185,1,0,3:0:0:0:
282,169,123382,1,2,0:0:0:0:
331,92,123578,70,0,P|414:34|458:45,1,130,4|8,0:3|0:2,0:0:0:0:
477,102,124166,1,0,0:0:0:0:
421,156,124362,2,0,L|423:230,1,65,0|0,0:0|3:0,0:0:0:0:
356,262,124754,2,0,P|319:251|283:251,2,65,4|0|0,0:3|3:0|0:0,0:0:0:0:
404,322,125342,1,8,0:0:0:0:
338,364,125538,1,0,3:0:0:0:
261,351,125734,1,8,0:0:0:0:
261,351,125833,1,8,0:0:0:0:
261,351,125931,22,0,B|216:314|216:314|92:307,1,155.999995239258,4|8,0:0|0:0,0:0:0:0:
20,355,126519,1,2,0:3:0:0:
26,246,126715,2,0,L|61:159,1,77.999997619629,4|2,0:2|0:3,0:0:0:0:
128,93,127107,5,12,0:0:0:0:
211,166,127303,2,0,B|292:179|292:179|366:141,1,155.999995239258,4|12,0:2|0:0,0:0:0:0:
313,45,127891,2,0,B|272:40|272:40|223:61,1,77.999997619629,4|0,0:2|0:0,0:0:0:0:
160,117,128284,70,0,L|169:292,1,155.999995239258,4|10,0:0|0:0,0:0:0:0:
255,338,128872,1,2,0:3:0:0:
328,256,129068,2,0,L|327:158,1,77.999997619629,2|2,0:0|0:3,0:0:0:0:
366,76,129460,6,0,B|401:91|401:91|471:85,2,77.999997619629,12|4|0,0:0|0:2|0:0,0:0:0:0:
274,16,130048,1,12,0:0:0:0:
172,55,130244,1,4,0:2:0:0:
258,121,130440,1,8,0:0:0:0:
258,121,130538,1,8,0:0:0:0:
258,121,130636,38,0,P|272:182|272:270,2,130,4|8|2,0:0|0:2|3:0,0:0:0:0:
98,210,131813,2,0,P|94:238|93:280,1,65,4|0,0:3|0:0,0:0:0:0:
142,350,132205,1,0,0:0:0:0:
222,306,132401,2,0,P|293:307|368:324,1,130,8|2,0:0|0:0,0:0:0:0:
371,229,132989,6,0,P|334:226|287:218,1,65,4|0,0:3|0:0,0:0:0:0:
254,146,133382,2,0,L|271:-14,1,130,8|2,0:2|3:0,0:0:0:0:
429,99,134166,2,0,P|450:104|501:93,2,65,4|2|0,0:3|3:0|0:0,0:0:0:0:
350,145,134754,1,8,0:0:0:0:
350,145,134950,2,0,L|343:216,1,65,2|2,3:0|0:0,0:0:0:0:
252,204,135342,70,0,P|185:194|112:193,1,130,4|8,0:3|0:2,0:0:0:0:
35,352,136127,1,2,3:0:0:0:
98,286,136323,1,0,0:0:0:0:
171,340,136519,2,0,L|321:350,1,130,4|0,0:3|0:0,0:0:0:0:
370,290,137107,2,0,L|451:295,2,65,8|2|2,0:0|3:0|0:0,0:0:0:0:
299,232,137695,6,0,P|362:166|423:140,1,130,4|8,0:3|0:2,0:0:0:0:
476,107,138283,1,0,3:0:0:0:
407,46,138480,2,0,P|366:60|332:60,1,65,2|0,0:3|3:0,0:0:0:0:
256,40,138872,2,0,P|187:36|116:65,1,130,4|0,0:3|0:0,0:0:0:0:
48,95,139460,1,8,0:0:0:0:
116,155,139656,1,2,3:0:0:0:
200,120,139852,1,0,0:3:0:0:
130,55,140048,1,2,1:2:0:0:
130,55,142401,38,0,P|101:198|100:217,1,155.999995239258,4|8,0:0|0:0,0:0:0:0:
157,300,142989,1,2,0:3:0:0:
246,237,143185,2,0,P|244:195|236:144,1,77.999997619629
341,230,143578,2,0,P|335:270|340:323,2,77.999997619629,4|2|0,0:3|0:0|0:0,0:0:0:0:
365,108,144166,1,8,0:0:0:0:
455,47,144362,1,0,0:0:0:0:
347,68,144558,1,2,0:3:0:0:
467,86,144754,6,0,P|490:166|488:254,1,155.999995239258,4|8,0:3|0:0,0:0:0:0:
383,259,145342,1,2,0:0:0:0:
383,259,145538,2,0,P|380:318|382:357,1,77.999997619629,0|2,0:0|0:3,0:0:0:0:
272,354,145931,70,0,P|186:304|104:313,1,155.999995239258,4|0,0:3|0:0,0:0:0:0:
31,260,146519,1,8,0:0:0:0:
100,182,146715,2,0,P|158:162|207:157,1,77.999997619629,2|2,0:3|0:0,0:0:0:0:
244,79,147107,6,0,P|317:103|395:102,1,155.999995239258,4|8,0:3|0:0,0:0:0:0:
486,161,147695,2,0,P|487:210|485:252,2,77.999997619629,2|0|0,0:3|0:0|3:0,0:0:0:0:
466,53,148283,1,4,0:3:0:0:
360,24,148480,1,2,0:0:0:0:
299,114,148676,1,0,0:0:0:0:
191,97,148872,2,0,P|160:64|144:29,2,77.999997619629,8|2|2,0:0|0:0|0:3,0:0:0:0:
275,165,149460,69,4,0:3:0:0:
169,192,149656,1,2,0:0:0:0:
169,192,149852,2,0,P|162:244|166:304,1,77.999997619629,8|0,0:0|3:0,0:0:0:0:
235,350,150244,2,0,P|271:339|336:335,1,77.999997619629,0|0,0:0|3:0,0:0:0:0:
418,355,150636,5,4,0:3:0:0:
477,263,150833,2,2,P|477:201|393:146,1,155.999995239258,2|8,0:0|0:0,0:0:0:0:
311,189,151421,1,2,0:0:0:0:
215,242,151617,1,2,3:0:0:0:
150,153,151813,70,2,P|149:91|233:36,1,155.999995239258,4|8,0:3|0:0,0:0:0:0:
327,36,152401,1,0,0:0:0:0:
352,142,152597,2,0,L|336:274,1,116.999996429443,0|0,0:0|0:3,0:0:0:0:
314,272,152989,2,0,P|257:266|205:266,2,77.999997619629,4|2|0,0:3|0:0|0:0,0:0:0:0:
393,347,153578,1,8,0:0:0:0:
464,264,153774,2,0,P|466:213|474:164,1,77.999997619629,2|2,0:0|0:3,0:0:0:0:
478,77,154166,6,2,P|419:33|308:42,1,155.999995239258,4|8,0:3|0:0,0:0:0:0:
257,102,154754,1,2,0:3:0:0:
257,102,154950,2,0,P|195:109|144:92,1,116.999996429443,0|0,0:0|0:0,0:0:0:0:
122,108,155342,2,0,L|135:195,2,77.999997619629,4|2|0,0:3|0:3|0:0,0:0:0:0:
26,162,155931,1,8,0:0:0:0:
29,271,156127,1,2,0:3:0:0:
127,318,156323,1,2,0:0:0:0:
224,268,156519,70,2,P|281:222|379:228,2,155.999995239258,4|8|0,0:3|0:0|1:0,0:0:0:0:
144,193,157499,1,2,0:0:0:0:
194,96,157695,2,0,P|210:64|260:8,2,77.999997619629,4|2|0,0:3|0:0|0:0,0:0:0:0:
266,177,158283,1,8,0:0:0:0:
368,137,158480,2,2,P|420:130|496:141,1,116.999996429443,2|0,0:3|0:0,0:0:0:0:
483,164,158872,6,2,P|462:264|461:331,1,155.999995239258,4|8,0:3|0:0,0:0:0:0:
356,282,159460,1,2,0:3:0:0:
253,319,159656,2,0,L|154:345,1,77.999997619629
108,254,160048,2,0,L|207:228,1,77.999997619629,4|2,0:3|0:0,0:0:0:0:
184,125,160440,2,0,L|85:151,1,77.999997619629,2|8,0:0|0:0,0:0:0:0:
8,99,160833,1,2,0:0:0:0:
100,41,161029,1,8,0:0:0:0:
100,41,161127,1,8,0:0:0:0:
100,41,161225,38,0,B|149:21|149:21|276:52,1,168.999992263794,4|8,0:0|0:0,0:0:0:0:
355,121,161813,1,0,0:0:0:0:
250,169,162009,2,0,L|242:280,1,84.4999961318971,4|2,0:2|0:3,0:0:0:0:
361,269,162401,6,0,B|390:244|390:244|446:241,2,84.4999961318971,12|4|0,0:0|0:2|0:0,0:0:0:0:
286,361,162989,1,12,0:0:0:0:
174,322,163185,2,0,L|75:289,1,84.4999961318971,4|0,0:2|0:0,0:0:0:0:
30,194,163578,70,0,L|21:11,2,168.999992263794,4|10|2,0:0|0:0|0:0,0:0:0:0:
147,210,164558,1,0,0:0:0:0:
170,94,164754,2,0,B|223:123|223:123|346:105,1,168.999992263794,12|2,0:0|0:3,0:0:0:0:
435,52,165342,1,12,0:0:0:0:
458,167,165538,2,0,L|465:260,1,84.4999961318971,4|8,0:2|0:0,0:0:0:0:
436,269,165833,1,8,0:0:0:0:
409,284,165931,22,0,L|413:374,1,77.999997619629,4|0,0:0|0:0,0:0:0:0:
303,365,166323,2,0,P|305:289|245:245,1,155.999995239258,10|2,0:0|0:0,0:0:0:0:
27,366,167107,1,12,0:0:0:0:
30,256,167303,2,0,P|37:169|48:97,1,155.999995239258,4|12,0:2|0:0,0:0:0:0:
152,131,167891,1,4,0:2:0:0:
226,51,168087,1,2,0:0:0:0:
280,145,168283,6,0,P|285:211|279:318,1,155.999995239258,4|10,0:0|0:0,0:0:0:0:
417,91,169068,2,0,P|419:53|427:-18,1,77.999997619629,2|2,0:0|0:3,0:0:0:0:
497,92,169460,1,12,0:0:0:0:
493,201,169656,2,0,P|488:267|428:359,1,155.999995239258,4|12,0:2|0:0,0:0:0:0:
398,245,170244,2,0,P|333:217|259:208,1,116.999996429443,4|0,0:2|0:0,0:0:0:0:
233,215,170636,70,0,P|171:229|128:232,1,77.999997619629,4|0,0:0|0:0,0:0:0:0:
52,196,171029,2,0,P|72:121|156:105,1,155.999995239258,10|2,0:0|0:0,0:0:0:0:
404,74,171813,1,12,0:0:0:0:
489,142,172009,1,4,0:2:0:0:
211,173,172401,1,12,0:0:0:0:
311,216,172597,2,0,P|308:254|307:293,1,77.999997619629,4|2,0:2|0:0,0:0:0:0:
208,340,172989,6,0,P|121:325|49:334,2,155.999995239258,4|10|2,0:0|0:0|0:0,0:0:0:0:
375,154,174166,1,12,0:0:0:0:
368,45,174362,1,4,0:2:0:0:
119,20,174754,1,12,0:0:0:0:
68,116,174950,1,4,0:2:0:0:
177,106,175146,1,2,0:0:0:0:
247,189,175342,69,4,0:0:0:0:
66,361,175734,2,0,L|61:205,1,155.999995239258,10|2,0:0|0:0,0:0:0:0:
289,103,176519,2,0,L|285:9,2,77.999997619629,12|4|0,0:0|0:2|0:0,0:0:0:0:
344,197,177107,1,12,0:0:0:0:
344,197,177303,2,0,L|427:180,1,77.999997619629,4|2,0:2|0:0,0:0:0:0:
470,278,177695,5,4,0:0:0:0:
230,349,178087,2,0,L|60:341,1,155.999995239258,10|2,0:0|0:0,0:0:0:0:
272,189,178872,2,0,L|379:197,2,77.999997619629,12|4|2,0:0|0:2|0:3,0:0:0:0:
165,165,179460,1,12,0:0:0:0:
236,82,179656,2,0,L|315:65,1,77.999997619629,4|2,0:2|0:0,0:0:0:0:
421,71,180048,69,4,0:0:0:0:
493,309,180440,2,0,L|490:147,1,155.999995239258,10|2,0:0|0:0,0:0:0:0:
267,267,181225,2,0,P|224:253|182:249,2,77.999997619629,12|4|0,0:0|0:2|0:0,0:0:0:0:
205,357,181813,1,12,0:0:0:0:
107,307,182009,2,0,P|111:263|113:200,1,77.999997619629,4|2,0:2|0:0,0:0:0:0:
189,151,182401,5,4,0:0:0:0:
423,66,182793,2,0,L|257:47,1,155.999995239258,10|2,0:0|0:0,0:0:0:0:
23,98,183578,2,0,L|131:118,1,77.999997619629,12|4,0:0|0:2,0:0:0:0:
208,124,183970,1,2,0:3:0:0:
181,229,184166,1,4,0:3:0:0:
82,224,184362,1,8,0:0:0:0:
82,224,184460,1,8,0:0:0:0:
82,224,184558,1,8,0:0:0:0:
82,224,184656,1,8,0:0:0:0:
82,224,184754,38,0,B|114:306|114:306|89:390,1,168.999992263794,4|8,0:0|0:0,0:0:0:0:
200,338,185342,1,2,0:0:0:0:
314,367,185538,2,0,L|422:350,1,84.4999961318971,0|2,0:0|3:0,0:0:0:0:
408,235,185931,2,0,L|324:221,2,84.4999961318971,4|2|0,0:3|0:0|0:0,0:0:0:0:
490,152,186519,1,4,0:3:0:0:
387,92,186715,1,8,0:0:0:0:
387,92,186813,1,8,0:0:0:0:
387,92,186911,1,8,0:0:0:0:
387,92,187009,1,8,0:0:0:0:
387,92,187107,6,0,B|355:174|355:174|380:258,1,168.999992263794,4|8,0:0|0:0,0:0:0:0:
262,278,187695,1,2,0:0:0:0:
221,166,187891,2,0,L|244:77,1,84.4999961318971,0|2,0:0|3:0,0:0:0:0:
128,116,188283,2,0,L|100:294,1,168.999992263794,4|0,0:3|0:0,0:0:0:0:
32,186,188872,1,4,0:3:0:0:
57,70,189068,1,8,0:0:0:0:
57,70,189166,1,8,0:0:0:0:
57,70,189264,1,8,0:0:0:0:
57,70,189362,1,8,0:0:0:0:
57,70,189460,70,0,B|139:102|139:102|223:77,1,168.999992263794,4|8,0:0|0:0,0:0:0:0:
325,33,190048,1,2,0:0:0:0:
308,150,190244,2,0,L|286:257,1,84.4999961318971,0|2,0:0|3:0,0:0:0:0:
390,296,190636,2,0,L|386:197,2,84.4999961318971,4|2|0,0:3|0:0|0:0,0:0:0:0:
287,356,191225,1,4,0:3:0:0:
209,266,191421,1,8,0:0:0:0:
209,266,191519,1,8,0:0:0:0:
209,266,191617,1,8,0:0:0:0:
209,266,191715,1,8,0:0:0:0:
209,266,191813,6,0,B|127:298|127:298|43:273,1,168.999992263794,4|8,0:0|0:0,0:0:0:0:
78,160,192401,1,2,0:0:0:0:
195,168,192597,2,0,L|314:178,1,84.4999961318971,0|2,0:0|3:0,0:0:0:0:
365,256,192989,70,0,P|466:258|416:149,1,253.499988395691,6|4,0:0|0:3,0:0:0:0:
326,160,193774,1,8,0:0:0:0:
335,59,193970,1,8,0:0:0:0:
432,32,194166,1,4,0:2:0:0:
256,192,194264,12,4,196519,0:3:0:0:
