osu file format v14

[General]
AudioFilename: audio.mp3
AudioLeadIn: 0
PreviewTime: 100587
Countdown: 0
SampleSet: Normal
StackLeniency: 0.7
Mode: 1
LetterboxInBreaks: 0
WidescreenStoryboard: 0

[Editor]
Bookmarks: 1365,12399,23434,34466,45501,56535,68949,85501,100673
DistanceSpacing: 1.4
BeatDivisor: 2
GridSize: 8
TimelineZoom: 0.7000009

[Metadata]
Title:Transform (Original Mix)
TitleUnicode:Transform (Original Mix)
Artist:IAHN
ArtistUnicode:IAHN
Creator:komasy
Version:Kantan
Source:osu!
Tags:Featured Artist FA electronic Mappers Guild
BeatmapID:2123699
BeatmapSetID:1014707

[Difficulty]
HPDrainRate:8
CircleSize:3
OverallDifficulty:3
ApproachRate:8
SliderMultiplier:1.4
SliderTickRate:1

[Events]
//Background and Video events
0,0,"bg.jpg",0,-30
//Break Periods
//Storyboard Layer 0 (Background)
//Storyboard Layer 1 (Fail)
//Storyboard Layer 2 (Pass)
//Storyboard Layer 3 (Foreground)
//Storyboard Layer 4 (Overlay)
//Storyboard Sound Samples

[TimingPoints]
1363.34261883225,344.827586206897,4,1,0,80,1,0
12311,-100,4,1,0,90,0,0
23518,-100,4,1,0,80,0,0
34466,-100,4,1,0,90,0,0
46190,-100,4,1,0,100,0,1
56535,-100,4,1,0,100,0,0
57915,-100,4,1,0,100,0,1
68949,-100,4,1,0,100,0,0
69035,-100,4,1,0,60,0,0
70501,-100,4,1,0,30,0,0
74380,-100,4,1,0,80,0,0
96535,-100,4,1,0,60,0,0
96880,-100,4,1,0,40,0,0
97225,-100,4,1,0,20,0,0
97915,-100,4,1,0,5,0,0
99208,-100,4,1,0,80,0,0
100673,-100,4,1,0,100,0,1
111018,-100,4,1,0,100,0,0
111708,-100,4,1,0,100,0,1
122742,-100,4,1,0,100,0,0

[HitObjects]
366,203,1363,5,4,0:0:0:0:
366,203,1880,1,0,0:0:0:0:
329,130,2742,1,0,0:0:0:0:
329,130,3259,1,0,0:0:0:0:
329,130,4121,1,0,0:0:0:0:
329,130,4639,1,0,0:0:0:0:
329,130,5501,1,0,0:0:0:0:
329,130,6880,1,0,0:0:0:0:
403,203,7397,1,0,0:0:0:0:
208,8,7915,1,0,0:0:0:0:
335,136,8259,1,0,0:0:0:0:
344,118,8777,1,0,0:0:0:0:
329,130,9639,1,0,0:0:0:0:
403,203,10156,1,0,0:0:0:0:
208,8,10673,1,0,0:0:0:0:
335,136,11018,1,0,0:0:0:0:
413,188,12052,1,8,0:0:0:0:
330,199,12397,1,4,0:0:0:0:
355,195,12915,1,0,0:0:0:0:
350,179,13432,1,8,0:0:0:0:
418,252,13777,1,0,0:0:0:0:
418,252,14466,1,8,0:0:0:0:
251,222,15156,1,0,0:0:0:0:
251,222,15673,1,0,0:0:0:0:
251,222,16190,1,8,0:0:0:0:
270,79,16535,1,8,0:0:0:0:
251,222,16880,1,8,0:0:0:0:
363,141,17915,1,0,0:0:0:0:
367,159,18604,1,8,0:0:0:0:
392,252,19294,1,8,0:0:0:0:
342,63,19639,1,0,0:0:0:0:
386,227,19984,1,8,0:0:0:0:
482,236,20673,1,0,0:0:0:0:
327,215,21018,1,0,0:0:0:0:
469,234,21363,1,8,0:0:0:0:
406,137,21708,1,8,0:0:0:0:
393,178,22052,1,0,0:0:0:0:
358,195,23087,1,8,0:0:0:0:
478,194,23432,1,4,0:0:0:0:
409,219,24466,1,0,0:0:0:0:
413,199,25846,1,0,0:0:0:0:
413,199,26190,1,0,0:0:0:0:
413,199,27225,1,0,0:0:0:0:
314,153,28604,1,8,0:0:0:0:
413,199,28949,1,0,0:0:0:0:
402,194,29639,1,0,0:0:0:0:
395,191,30328,1,0,0:0:0:0:
220,112,30673,1,0,0:0:0:0:
391,189,31018,1,0,0:0:0:0:
401,194,31708,1,0,0:0:0:0:
405,196,32397,1,0,0:0:0:0:
395,191,33087,1,0,0:0:0:0:
409,197,34121,1,0,0:0:0:0:
400,160,34466,1,12,0:0:0:0:
398,161,35156,1,8,0:0:0:0:
404,159,35846,1,8,0:0:0:0:
227,210,36190,1,0,0:0:0:0:
402,159,36535,1,8,0:0:0:0:
410,156,37225,1,8,0:0:0:0:
403,158,37915,1,8,0:0:0:0:
228,212,38259,1,0,0:0:0:0:
408,156,38604,1,8,0:0:0:0:
320,128,39639,1,8,0:0:0:0:
405,157,39984,1,4,0:0:0:0:
403,250,40673,1,0,0:0:0:0:
403,250,41363,1,0,0:0:0:0:
400,252,41708,1,8,0:0:0:0:
379,272,42052,1,0,0:0:0:0:
256,192,42742,12,0,43777,0:0:0:0:
304,140,44121,5,8,0:0:0:0:
280,104,45501,1,0,0:0:0:0:
405,157,46190,5,4,0:0:0:0:
8,80,46880,1,8,0:0:0:0:
298,114,47570,1,0,0:0:0:0:
312,161,47915,1,8,0:0:0:0:
316,103,48259,1,0,0:0:0:0:
316,103,48949,1,8,0:0:0:0:
316,103,49639,1,0,0:0:0:0:
378,151,50328,1,8,0:0:0:0:
378,151,50673,1,8,0:0:0:0:
378,151,51018,1,4,0:0:0:0:
287,106,52052,1,8,0:0:0:0:
222,33,52397,1,0,0:0:0:0:
214,85,52742,1,8,0:0:0:0:
212,125,53432,1,8,0:0:0:0:
402,83,53777,1,0,0:0:0:0:
486,204,54466,1,8,0:0:0:0:
360,131,55156,1,4,0:0:0:0:
453,248,55846,1,8,0:0:0:0:
392,211,56190,1,8,0:0:0:0:
164,135,56535,1,0,0:0:0:0:
408,172,57915,5,12,0:0:0:0:
390,153,58604,1,0,0:0:0:0:
354,103,58949,1,8,0:0:0:0:
425,194,59294,1,0,0:0:0:0:
331,152,59984,1,0,0:0:0:0:
216,166,60673,1,8,0:0:0:0:
264,134,61363,1,0,0:0:0:0:
291,73,61708,1,8,0:0:0:0:
378,151,62052,1,4,0:0:0:0:
411,168,62397,1,8,0:0:0:0:
287,106,63087,1,8,0:0:0:0:
222,33,63432,1,0,0:0:0:0:
214,85,64121,1,8,0:0:0:0:
360,131,64811,1,4,0:0:0:0:
392,211,65501,1,8,0:0:0:0:
407,190,65846,1,8,0:0:0:0:
473,188,67570,5,4,0:0:0:0:
473,188,67915,1,4,0:0:0:0:
473,188,68259,1,4,0:0:0:0:
473,188,68949,1,4,0:0:0:0:
256,192,70673,12,0,74121,0:0:0:0:
300,151,74466,5,8,0:0:0:0:
306,119,75846,1,8,0:0:0:0:
306,119,77225,1,8,0:0:0:0:
256,188,78259,1,8,0:0:0:0:
306,119,78604,1,8,0:0:0:0:
306,119,79984,1,8,0:0:0:0:
409,150,80673,1,8,0:0:0:0:
409,150,81363,1,8,0:0:0:0:
409,150,82742,1,8,0:0:0:0:
409,150,83777,1,8,0:0:0:0:
409,150,84121,1,8,0:0:0:0:
409,150,85501,1,4,0:0:0:0:
404,199,86535,1,8,0:0:0:0:
273,129,86880,1,0,0:0:0:0:
392,192,87570,1,0,0:0:0:0:
391,211,88259,1,8,0:0:0:0:
332,168,89294,1,0,0:0:0:0:
421,291,89639,1,8,0:0:0:0:
421,291,90328,1,8,0:0:0:0:
409,150,91018,1,0,0:0:0:0:
252,175,91708,1,8,0:0:0:0:
404,199,92397,1,0,0:0:0:0:
392,192,93087,1,0,0:0:0:0:
467,321,93432,1,8,0:0:0:0:
391,211,93777,1,8,0:0:0:0:
421,291,94466,1,0,0:0:0:0:
421,291,94811,1,8,0:0:0:0:
421,291,95156,1,0,0:0:0:0:
417,212,95846,1,8,0:0:0:0:
256,192,96363,12,0,97915,0:0:0:0:
360,196,99294,5,0,0:0:0:0:
348,172,100328,1,12,0:0:0:0:
318,112,100673,1,4,0:0:0:0:
304,120,101363,1,8,0:0:0:0:
104,128,101708,1,8,0:0:0:0:
269,132,102052,1,0,0:0:0:0:
377,143,102742,1,8,0:0:0:0:
231,132,103432,1,0,0:0:0:0:
273,135,104121,1,0,0:0:0:0:
267,132,104466,1,8,0:0:0:0:
258,131,104811,1,0,0:0:0:0:
360,184,105846,1,0,0:0:0:0:
318,112,106190,1,8,0:0:0:0:
336,114,106880,1,0,0:0:0:0:
269,132,107225,1,0,0:0:0:0:
269,132,107570,1,8,0:0:0:0:
377,143,108259,1,0,0:0:0:0:
231,132,108949,1,8,0:0:0:0:
231,132,109639,1,8,0:0:0:0:
273,135,109984,1,0,0:0:0:0:
258,131,110328,1,8,0:0:0:0:
336,192,111018,1,8,0:0:0:0:
318,112,111708,1,4,0:0:0:0:
336,114,112397,1,8,0:0:0:0:
269,132,112742,1,8,0:0:0:0:
316,156,113087,1,0,0:0:0:0:
377,143,113777,1,8,0:0:0:0:
231,132,114466,1,0,0:0:0:0:
231,132,114811,1,0,0:0:0:0:
273,135,115156,1,8,0:0:0:0:
267,132,115501,1,8,0:0:0:0:
258,131,115846,1,0,0:0:0:0:
336,184,116880,1,0,0:0:0:0:
318,112,117225,1,8,0:0:0:0:
336,114,117915,1,0,0:0:0:0:
269,132,118259,1,0,0:0:0:0:
269,132,118604,1,8,0:0:0:0:
377,143,119294,1,0,0:0:0:0:
231,132,119984,1,8,0:0:0:0:
231,132,120328,1,8,0:0:0:0:
232,132,120673,1,0,0:0:0:0:
273,135,121018,1,0,0:0:0:0:
508,156,121363,1,8,0:0:0:0:
267,132,122052,1,8,0:0:0:0:
220,116,122397,1,0,0:0:0:0:
380,160,122742,1,12,0:0:0:0:
