osu file format v14

[General]
AudioFilename: audio.mp3
AudioLeadIn: 0
PreviewTime: 100615
Countdown: 1
SampleSet: Normal
StackLeniency: 0.5
Mode: 0
LetterboxInBreaks: 0
WidescreenStoryboard: 1

[Editor]
Bookmarks: 21693,35486,74451
DistanceSpacing: 1.5
BeatDivisor: 4
GridSize: 16
TimelineZoom: 1.7

[Metadata]
Title:Transform (Original Mix)
TitleUnicode:Transform (Original Mix)
Artist:IAHN
ArtistUnicode:IAHN
Creator:TheKoala
Version:Insane
Source:osu!
Tags:electronic
BeatmapID:1363077
BeatmapSetID:642753

[Difficulty]
HPDrainRate:6
CircleSize:4
OverallDifficulty:7
ApproachRate:9.2
SliderMultiplier:1.3
SliderTickRate:1

[Events]
//Background and Video events
0,0,"art__night__abstract__butterfly__boy__island__water__lake_anime_original_1920x1143.jpg",0,0
//Break Periods
//Storyboard Layer 0 (Background)
//Storyboard Layer 1 (Fail)
//Storyboard Layer 2 (Pass)
//Storyboard Layer 3 (Foreground)
//Storyboard Sound Samples

[TimingPoints]
658,344.827586206897,4,1,1,25,1,0
1348.34261883225,344.827586206897,4,1,1,45,1,0
11693,-76.9230769230769,4,1,1,55,0,0
12382,-86.9565217391304,4,1,1,50,0,0
17900,-83.3333333333333,4,1,1,50,0,0
19279,-76.9230769230769,4,1,1,50,0,0
20658,-71.4285714285714,4,1,1,50,0,0
22037,-100,4,1,1,50,0,0
23417,-100,4,1,1,50,0,0
28934,-83.3333333333333,4,1,1,50,0,0
34106,-66.6666666666667,4,1,1,50,0,0
34451,-76.9230769230769,4,1,1,50,0,0
39969,-71.4285714285714,4,1,1,50,0,0
44796,-100,4,1,1,50,0,0
45486,-74.0740740740741,4,1,1,50,0,0
46003,-74.0740740740741,4,1,1,5,0,0
46089,-74.0740740740741,4,1,1,50,0,0
46175,-80,4,1,1,50,0,0
49624,-74.0740740740741,4,1,1,50,0,0
50658,-100,4,1,1,50,0,0
51003,-71.4285714285714,4,1,1,50,0,0
51693,-74.0740740740741,4,1,1,50,0,0
53762,-71.4285714285714,4,1,1,50,0,0
54451,-66.6666666666667,4,1,1,50,0,0
55141,-83.3333333333333,4,1,1,50,0,0
56520,-74.0740740740741,4,1,1,50,0,0
57037,-74.0740740740741,4,1,1,5,0,0
57210,-74.0740740740741,4,1,1,50,0,0
57727,-74.0740740740741,4,1,1,5,0,0
57813,-74.0740740740741,4,1,1,50,0,0
57900,-76.9230769230769,4,1,1,50,0,0
59279,-71.4285714285714,4,1,1,50,0,0
59969,-71.4285714285714,4,1,1,50,0,0
61693,-100,4,1,1,50,0,0
62037,-74.074074074074,4,1,1,50,0,0
62727,-74.074074074074,4,1,1,50,0,0
64796,-83.3333333333333,4,1,1,50,0,0
66175,-100,4,1,1,30,0,0
68934,-100,4,1,1,25,0,0
74451,-111.111111111111,4,1,1,40,0,0
85486,-90.9090909090909,4,1,1,55,0,0
91003,-86.9565217391304,4,1,1,55,0,0
91693,-83.3333333333333,4,1,1,55,0,0
92382,-80,4,1,1,55,0,0
93072,-76.9230769230769,4,1,1,55,0,0
93331,-76.9230769230769,4,1,1,5,0,0
93417,-74.0740740740741,4,1,1,55,0,0
93675,-74.0740740740741,4,1,1,5,0,0
93762,-71.4285714285714,4,1,1,55,0,0
98417,-71.4285714285714,4,1,1,5,0,0
99279,-71.4285714285714,4,1,1,65,0,0
100658,-66.6666666666667,4,1,1,75,0,1
110313,-66.6666666666667,4,1,1,50,0,0
111693,-66.6666666666667,4,1,1,75,0,1
122727,-100,4,1,1,50,0,0
123072,-111.111111111111,4,1,1,42,0,0
123417,-125,4,1,1,35,0,0
123762,-142.857142857143,4,1,1,28,0,0
124106,-166.666666666667,4,1,1,22,0,0

[Colours]
Combo1 : 254,198,65
Combo2 : 96,196,249
Combo3 : 0,159,123
Combo4 : 227,94,4

[HitObjects]
134,50,658,54,0,P|128:86|137:121,3,65,2|2|2|2,2:0|2:0|2:0|2:0,2:0:0:0:
183,193,1347,5,14,3:0:0:0:
183,193,1434,1,0,0:0:0:0:
183,193,1520,1,0,0:0:0:0:
247,123,1693,1,8,0:0:0:0:
233,264,1865,2,0,L|224:341,1,65,8|0,3:0|0:0,0:0:0:0:
141,280,2210,1,2,0:0:0:0:
318,305,2382,2,0,L|395:314,1,65,8|0,3:0|0:0,0:0:0:0:
229,185,2727,6,0,L|220:262,1,65,8|0,3:0|0:0,0:0:0:0:
242,342,3072,1,8,0:0:0:0:
325,218,3244,2,0,L|317:153,1,65,8|0,3:0|0:0,0:0:0:0:
233,94,3589,1,8,0:0:0:0:
321,246,3762,2,0,P|382:262|413:254,1,65,8|8,3:0|0:0,0:0:0:0:
463,177,4106,37,10,3:0:0:0:
463,177,4193,1,0,0:0:0:0:
463,177,4279,1,0,0:0:0:0:
422,93,4451,1,8,0:0:0:0:
445,265,4624,2,0,L|453:345,1,65,8|0,3:0|0:0,0:0:0:0:
361,307,4969,1,2,0:0:0:0:
467,182,5141,2,0,L|475:262,1,65,8|0,3:0|0:0,0:0:0:0:
281,217,5486,6,0,L|346:170,1,65,8|0,3:0|0:0,0:0:0:0:
403,126,5831,1,8,0:0:0:0:
360,271,6003,2,0,P|356:323|367:353,1,65,8|0,3:0|0:0,0:0:0:0:
450,298,6348,1,8,2:0:0:0:
326,190,6520,2,0,P|286:223|272:252,1,65,8|8,3:0|0:0,0:0:0:0:
245,341,6865,37,10,3:0:0:0:
245,341,6951,1,0,0:0:0:0:
245,341,7037,1,0,0:0:0:0:
181,255,7210,1,8,0:0:0:0:
341,330,7382,2,0,L|263:346,1,65,8|0,3:0|0:0,0:0:0:0:
293,237,7727,1,2,0:0:0:0:
442,270,7900,2,0,L|378:256,1,65,8|0,3:0|0:0,0:0:0:0:
235,158,8244,6,0,L|298:144,1,65,8|0,3:0|0:0,0:0:0:0:
398,170,8589,1,8,0:0:0:0:
233,243,8762,2,0,P|222:217|226:169,1,65,8|0,3:0|0:0,0:0:0:0:
273,77,9106,1,8,0:0:0:0:
318,230,9279,2,0,P|319:262|307:292,1,65,8|8,3:0|0:0,0:0:0:0:
185,310,9624,37,10,3:0:0:0:
185,310,9710,1,0,0:0:0:0:
185,310,9796,1,0,0:0:0:0:
163,200,9969,1,8,0:0:0:0:
90,301,10141,2,0,L|100:379,1,65,8|0,3:0|0:0,0:0:0:0:
202,288,10486,1,2,0:0:0:0:
84,209,10658,2,0,L|6:219,1,65,8|0,3:0|0:0,0:0:0:0:
235,174,11003,6,0,L|313:184,1,65,8|0,2:0|2:0,2:0:0:0:
344,198,11262,1,0,2:0:0:0:
344,198,11348,2,0,L|383:203,1,32.5,0|0,2:0|2:0,2:0:0:0:
335,271,11520,2,0,L|302:266,1,32.5,0|0,2:0|2:0,2:0:0:0:
365,124,11693,5,8,3:0:0:0:
408,314,11865,1,8,3:0:0:0:
408,314,11951,1,8,3:0:0:0:
408,314,12037,2,0,L|262:321,1,126.749994197846,8|0,3:0|3:0,3:0:0:0:
208,301,12382,21,14,0:0:0:0:
208,301,12469,1,0,0:0:0:0:
208,301,12555,2,0,P|200:269|205:247,1,37.3750007128716
231,195,12727,1,8,0:0:0:0:
111,244,12900,2,0,L|37:245,1,74.7500014257431,8|0,3:0|0:0,0:0:0:0:
148,161,13244,1,10,0:0:0:0:
114,332,13417,2,0,L|188:333,1,74.7500014257431,8|0,3:0|0:0,0:0:0:0:
247,178,13762,6,0,P|228:234|234:269,1,74.7500014257431,8|0,3:0|0:0,0:0:0:0:
239,278,14020,1,0,0:0:0:0:
256,299,14106,1,8,0:0:0:0:
325,234,14279,1,8,0:0:0:0:
231,101,14451,2,0,B|193:91|193:91|130:105,1,74.7500014257431,8|8,3:0|0:0,0:0:0:0:
322,86,14796,2,0,B|371:99|371:99|454:80,1,112.125002138615,8|0,3:0|0:0,0:0:0:0:
480,35,15141,37,10,0:0:0:0:
480,35,15227,1,0,0:0:0:0:
480,35,15313,2,0,L|474:92,1,37.3750007128716
475,154,15486,1,8,0:0:0:0:
371,43,15658,2,0,L|378:117,1,74.7500014257431,8|0,3:0|0:0,0:0:0:0:
393,216,16003,1,10,0:0:0:0:
275,87,16175,2,0,L|267:161,1,74.7500014257431,8|0,3:0|0:0,0:0:0:0:
264,289,16520,6,0,B|300:298|300:298|342:287,1,74.7500014257431,10|0,3:0|0:0,0:0:0:0:
365,270,16779,1,0,0:0:0:0:
388,245,16865,1,8,0:0:0:0:
193,217,17037,2,0,B|175:289|175:289|197:373,1,149.500002851486,8|8,3:0|0:0,0:0:0:0:
275,183,17555,2,0,L|281:51,1,112.125002138615,8|0,3:0|0:0,0:0:0:0:
214,29,17900,38,0,B|141:24|141:24|84:53,1,116.999996429443,8|0,3:0|0:0,0:0:0:0:
46,87,18244,1,8,0:0:0:0:
86,199,18417,1,8,3:0:0:0:
163,109,18589,1,8,0:0:0:0:
163,109,18934,1,8,0:0:0:0:
299,38,19279,6,0,B|379:32|379:32|441:64,1,126.749994197846,8|0,3:0|0:0,0:0:0:0:
483,101,19623,1,8,0:0:0:0:
439,225,19796,1,8,3:0:0:0:
355,126,19968,1,8,0:0:0:0:
355,126,20313,1,8,0:0:0:0:
193,234,20658,38,0,L|205:338,1,90.9999972229005,8|8,0:0|3:0,0:0:0:0:
257,158,21003,1,8,0:0:0:0:
125,137,21175,1,8,3:0:0:0:
296,261,21348,2,0,L|400:249,1,90.9999972229005,8|8,0:0|3:0,0:0:0:0:
287,73,21693,2,0,L|183:61,1,90.9999972229005,8|8,0:0|3:0,0:0:0:0:
124,72,21951,1,0,3:0:0:0:
124,72,22037,38,0,P|121:119|129:152,1,65,0|0,2:0|2:0,2:0:0:0:
140,211,22382,2,0,P|143:258|135:291,1,65,0|0,2:0|2:0,2:0:0:0:
295,313,22727,38,0,P|291:280|295:248,1,65,8|8,3:0|3:0,3:0:0:0:
311,178,22986,1,8,3:0:0:0:
311,178,23072,2,0,P|317:121|310:65,1,97.5,8|0,3:0|3:0,3:0:0:0:
273,21,23417,21,8,3:0:0:0:
113,301,24451,1,8,3:0:0:0:
422,227,25831,1,8,0:0:0:0:
179,153,26175,5,8,3:0:0:0:
352,340,27210,1,0,3:0:0:0:
319,71,28589,2,0,L|315:92,1,16.25,8|0,3:0|0:0,0:0:0:0:
302,100,28934,38,0,L|206:94,1,77.999997619629,14|0,0:0|0:0,0:0:0:0:
161,200,29279,2,0,L|257:194,1,77.999997619629,8|0,0:0|0:0,0:0:0:0:
280,182,29537,1,0,0:0:0:0:
280,182,29624,2,0,L|376:188,1,77.999997619629,10|0,0:0|0:0,0:0:0:0:
273,67,29969,2,0,L|195:71,1,77.999997619629,8|0,0:0|0:0,0:0:0:0:
135,241,30313,6,0,P|152:199|153:160,1,77.999997619629,10|0,0:0|0:0,0:0:0:0:
72,32,30658,2,0,P|99:67|133:88,1,77.999997619629,8|0,0:0|0:0,0:0:0:0:
179,88,30917,1,0,0:0:0:0:
179,88,31003,2,0,P|210:110|233:141,1,77.999997619629,10|0,0:0|0:0,0:0:0:0:
220,264,31348,1,10,0:0:0:0:
220,264,31434,1,0,0:0:0:0:
220,264,31520,1,0,0:0:0:0:
80,162,31693,38,0,P|145:165|182:186,1,77.999997619629,10|0,0:0|0:0,0:0:0:0:
121,330,32037,2,0,L|102:238,1,77.999997619629,8|0,0:0|0:0,0:0:0:0:
53,236,32296,1,0,0:0:0:0:
53,236,32382,2,0,L|37:312,1,77.999997619629,10|0,0:0|0:0,0:0:0:0:
204,352,32727,2,0,L|280:336,1,77.999997619629,8|0,0:0|0:0,0:0:0:0:
211,138,33072,6,0,P|202:194|211:242,1,77.999997619629,10|0,0:0|0:0,0:0:0:0:
357,295,33417,2,0,P|358:256|349:218,1,77.999997619629,8|0,0:0|0:0,0:0:0:0:
312,174,33675,1,0,0:0:0:0:
312,174,33762,2,0,P|310:135|319:97,1,77.999997619629,10|0,0:0|0:0,0:0:0:0:
409,54,34106,6,8,L|439:54,6,24.3750009298325,8|8|8|8|8|8|8,3:0|3:0|3:0|3:0|3:0|3:0|3:0,3:0:0:0:
468,120,34451,22,0,L|459:207,1,84.4999961318971,10|0,0:0|0:0,0:0:0:0:
373,322,34796,1,8,0:0:0:0:
357,222,34969,1,0,0:0:0:0:
357,222,35055,1,0,0:0:0:0:
357,222,35141,2,0,L|365:137,1,84.4999961318971,10|0,0:0|0:0,0:0:0:0:
247,262,35486,2,0,L|255:346,1,84.4999961318971,8|0,0:0|0:0,0:0:0:0:
249,138,35831,6,0,P|248:94|240:54,1,84.4999961318971,10|0,0:0|0:0,0:0:0:0:
141,197,36175,1,8,0:0:0:0:
247,262,36348,1,0,0:0:0:0:
247,262,36434,1,0,0:0:0:0:
247,262,36520,2,0,P|285:283|324:296,1,84.4999961318971,10|0,0:0|0:0,0:0:0:0:
340,140,36865,1,10,0:0:0:0:
340,140,36951,1,0,0:0:0:0:
340,140,37037,2,0,P|337:171|345:208,1,42.2499980659486
396,247,37210,38,0,L|482:255,1,84.4999961318971,10|0,0:0|0:0,0:0:0:0:
340,140,37555,1,8,0:0:0:0:
293,266,37727,1,0,0:0:0:0:
293,266,37813,1,0,0:0:0:0:
293,266,37900,2,0,L|379:274,1,84.4999961318971,10|0,0:0|0:0,0:0:0:0:
194,161,38244,2,0,L|108:169,1,84.4999961318971,8|0,0:0|0:0,0:0:0:0:
46,204,38503,1,0,0:0:0:0:
46,204,38589,6,0,P|40:257|56:309,1,84.4999961318971,10|0,0:0|0:0,0:0:0:0:
210,334,38934,1,8,0:0:0:0:
144,231,39106,1,0,0:0:0:0:
144,231,39193,1,0,0:0:0:0:
144,231,39279,2,0,P|137:189|143:147,1,84.4999961318971,10|0,0:0|0:0,0:0:0:0:
282,72,39624,6,0,L|306:69,1,21.1249990329743,8|0,3:0|0:0,0:0:0:0:
332,88,39969,22,0,L|209:78,1,90.9999972229005,10|0,0:0|0:0,0:0:0:0:
132,147,40313,1,8,0:0:0:0:
236,250,40486,1,0,0:0:0:0:
236,250,40572,1,0,0:0:0:0:
236,250,40658,1,10,0:0:0:0:
279,156,40831,1,0,0:0:0:0:
142,241,41003,2,0,L|146:354,1,90.9999972229005,8|0,0:0|0:0,0:0:0:0:
357,236,41348,6,0,L|244:232,1,90.9999972229005,10|0,0:0|0:0,0:0:0:0:
161,157,41693,1,8,0:0:0:0:
305,103,41865,1,0,0:0:0:0:
305,103,41951,1,0,0:0:0:0:
305,103,42037,1,10,0:0:0:0:
194,230,42210,1,8,0:0:0:0:
230,40,42382,1,10,0:0:0:0:
264,258,42555,1,8,0:0:0:0:
98,151,42727,22,0,L|40:156,3,45.4999986114502,8|0|0|0,3:0|3:0|3:0|3:0,3:0:0:0:
33,230,43072,2,0,L|91:235,3,45.4999986114502,8|0|0|0,3:0|3:0|3:0|3:0,3:0:0:0:
63,317,43417,37,8,3:0:0:0:
99,315,43503,1,0,3:0:0:0:
135,313,43589,1,8,3:0:0:0:
172,311,43675,1,0,3:0:0:0:
208,309,43762,1,8,3:0:0:0:
223,268,43848,1,8,3:0:0:0:
231,226,43934,1,8,3:0:0:0:
232,184,44020,1,8,3:0:0:0:
224,141,44106,5,8,3:0:0:0:
224,141,44796,38,0,L|317:151,1,65,0|0,2:0|2:0,2:0:0:0:
256,51,45141,2,0,L|163:61,1,65,0|0,2:0|2:0,2:0:0:0:
153,186,45486,22,0,B|286:139|286:250|438:170,1,263.250001004219,10|0,2:0|2:0,2:0:0:0:
401,108,46089,5,0,0:0:0:0:
401,108,46175,2,0,P|393:49|396:12,1,81.25,14|0,0:0|0:0,0:0:0:0:
494,84,46434,1,0,0:0:0:0:
494,84,46520,2,0,P|494:124|486:164,1,81.25,10|0,0:0|0:0,0:0:0:0:
353,294,46865,38,0,L|348:244,1,40.625,10|0,0:0|0:0,0:0:0:0:
338,173,47037,1,0,0:0:0:0:
475,330,47210,2,0,L|325:319,1,121.875,10|0,0:0|0:0,0:0:0:0:
251,318,47555,5,8,0:0:0:0:
159,328,47727,1,8,0:0:0:0:
63,334,47900,2,0,L|141:223,1,121.875,8|0,0:0|0:0,0:0:0:0:
182,170,48244,37,10,0:0:0:0:
182,170,48331,2,0,L|289:178,1,81.25
322,161,48589,1,8,0:0:0:0:
206,74,48762,1,0,0:0:0:0:
281,254,48934,5,10,0:0:0:0:
281,254,49020,2,0,L|174:262,1,81.25
143,238,49279,1,8,0:0:0:0:
234,352,49451,1,0,0:0:0:0:
234,352,49537,1,0,0:0:0:0:
234,352,49624,38,0,B|285:356|285:356|346:339,1,87.7500003347397,10|0,0:0|0:0,0:0:0:0:
384,241,49969,1,8,0:0:0:0:
384,241,50055,1,8,3:0:0:0:
384,241,50141,1,8,3:0:0:0:
273,153,50313,22,0,L|212:143,1,43.8750001673698,10|0,0:0|0:0,0:0:0:0:
200,231,50486,2,0,L|261:221,1,43.8750001673698,2|0,0:0|0:0,0:0:0:0:
287,113,50658,38,0,L|171:131,1,97.5,10|0,0:0|0:0,0:0:0:0:
134,177,51003,37,14,0:0:0:0:
234,269,51175,1,0,0:0:0:0:
234,269,51262,1,0,0:0:0:0:
234,269,51348,2,0,L|330:254,1,90.9999972229005,8|0,0:0|0:0,0:0:0:0:
308,84,51693,6,0,L|272:174,1,87.7500003347397,10|0,0:0|0:0,0:0:0:0:
203,195,51951,1,0,0:0:0:0:
203,195,52037,2,0,L|113:208,1,87.7500003347397,10|0,0:0|0:0,0:0:0:0:
208,39,52382,38,0,L|199:100,1,43.8750001673698,10|0,0:0|0:0,0:0:0:0:
121,125,52555,1,0,0:0:0:0:
224,32,52727,2,0,L|358:52,1,131.62500050211,10|0,0:0|0:0,0:0:0:0:
448,101,53072,5,8,0:0:0:0:
452,188,53244,1,8,0:0:0:0:
457,273,53417,2,0,B|381:281|381:281|314:267,1,131.62500050211,8|0,0:0|0:0,0:0:0:0:
280,202,53762,38,0,L|146:205,1,90.9999972229005,10|0,0:0|0:0,0:0:0:0:
173,299,54106,1,8,0:0:0:0:
173,299,54193,1,8,3:0:0:0:
173,299,54279,2,0,L|218:297,1,45.4999986114502,8|0,3:0|0:0,0:0:0:0:
360,203,54451,6,0,B|369:154|369:154|349:81,1,97.50000371933,2|0,0:0|0:0,0:0:0:0:
209,62,54796,1,10,0:0:0:0:
209,62,54882,1,0,0:0:0:0:
209,62,54969,2,0,B|205:89|205:89|210:111,1,48.750001859665,2|0,0:0|0:0,0:0:0:0:
258,209,55141,6,0,P|263:253|256:301,2,51.999998413086,10|0|0,0:0|0:0|0:0,0:0:0:0:
182,233,55486,2,0,P|171:276|148:318,2,51.999998413086,10|0|0,0:0|0:0|0:0,0:0:0:0:
168,149,55831,6,0,P|173:105|166:57,2,51.999998413086,10|0|0,0:0|0:0|0:0,0:0:0:0:
92,125,56175,2,0,P|81:81|58:39,2,51.999998413086,10|0|0,0:0|0:0|0:0,0:0:0:0:
65,254,56520,6,0,B|208:217|179:319|350:253,1,263.250001004219,8|0,2:0|2:0,2:0:0:0:
218,75,57210,6,0,P|230:183|320:121,1,263.250001004219,10|0,2:0|2:0,2:0:0:0:
306,46,57813,37,0,0:0:0:0:
306,46,57900,2,0,L|406:50,1,84.4999961318971,10|0,0:0|0:0,0:0:0:0:
431,124,58158,1,0,0:0:0:0:
431,124,58244,2,0,P|425:183|434:212,1,84.4999961318971,10|0,0:0|0:0,0:0:0:0:
326,262,58589,6,0,P|330:241|326:220,1,42.2499980659486,10|0,0:0|0:0,0:0:0:0:
300,138,58762,1,0,0:0:0:0:
261,311,58934,2,0,P|310:342|389:314,1,126.749994197846,10|0,0:0|0:0,0:0:0:0:
420,256,59279,38,0,B|409:207|409:207|425:143,1,90.9999972229005,10|0,0:0|0:0,0:0:0:0:
479,64,59624,1,8,0:0:0:0:
479,64,59710,1,0,0:0:0:0:
479,64,59796,1,0,0:0:0:0:
328,146,59969,5,10,0:0:0:0:
328,146,60055,2,0,P|272:154|233:144,1,90.9999972229005
193,101,60313,1,8,0:0:0:0:
314,45,60486,1,0,0:0:0:0:
280,243,60658,37,10,0:0:0:0:
280,243,60744,2,0,P|336:251|375:241,1,90.9999972229005
415,198,61003,1,8,0:0:0:0:
237,139,61175,1,0,0:0:0:0:
237,139,61262,1,0,0:0:0:0:
237,139,61348,22,0,L|231:190,1,45.4999986114502,10|0,0:0|0:0,0:0:0:0:
334,132,61520,2,0,L|328:86,1,45.4999986114502,2|0,0:0|0:0,0:0:0:0:
213,122,61693,38,0,L|226:238,1,97.5,10|0,0:0|0:0,0:0:0:0:
239,279,62037,37,10,0:0:0:0:
333,159,62210,1,0,0:0:0:0:
333,159,62296,1,0,0:0:0:0:
333,159,62382,2,0,L|420:148,1,87.7500003347397,8|0,0:0|0:0,0:0:0:0:
189,85,62727,6,0,P|187:133|206:184,1,87.7500003347397,10|0,0:0|0:0,0:0:0:0:
252,235,62986,1,0,0:0:0:0:
252,235,63072,2,0,P|254:283|235:334,1,87.7500003347397,10|0,0:0|0:0,0:0:0:0:
39,272,63417,38,0,L|90:263,1,43.8750001673698,10|0,0:0|0:0,0:0:0:0:
167,269,63589,1,0,0:0:0:0:
18,351,63762,2,0,L|16:197,1,131.62500050211,10|0,0:0|0:0,0:0:0:0:
181,86,64106,5,8,0:0:0:0:
228,170,64279,1,8,0:0:0:0:
280,254,64451,2,0,B|213:263|213:263|116:250,1,131.62500050211,8|0,0:0|0:0,0:0:0:0:
73,217,64796,6,0,L|18:231,2,51.999998413086,10|0|0,0:0|0:0|0:0,0:0:0:0:
177,164,65141,2,0,L|239:172,2,51.999998413086,10|0|0,0:0|0:0|0:0,0:0:0:0:
70,128,65486,6,0,L|8:120,2,51.999998413086,10|0|0,0:0|0:0|0:0,0:0:0:0:
136,84,65831,2,0,L|186:72,2,51.999998413086,10|0|0,0:0|0:0|0:0,0:0:0:0:
67,50,66175,5,2,2:0:0:0:
104,222,66348,1,0,2:0:0:0:
104,222,66434,1,0,2:0:0:0:
104,222,66520,1,2,2:0:0:0:
136,84,66693,1,2,2:0:0:0:
36,256,66865,5,8,2:0:0:0:
68,256,66951,1,0,2:0:0:0:
100,257,67037,1,8,2:0:0:0:
133,257,67123,1,0,2:0:0:0:
165,258,67210,2,0,L|207:260,1,32.5,8|0,2:0|2:0,2:0:0:0:
266,154,67382,2,0,L|224:156,1,32.5,8|0,2:0|2:0,2:0:0:0:
107,169,67555,37,4,2:0:0:0:
107,169,67900,1,4,2:0:0:0:
107,169,68244,5,12,2:0:0:0:
137,30,68417,1,0,2:0:0:0:
137,30,68503,1,0,2:0:0:0:
137,30,68589,1,8,2:0:0:0:
179,132,68762,1,8,2:0:0:0:
24,155,68934,37,4,2:0:0:0:
256,192,70313,12,4,74451,2:0:0:0:
128,42,75486,5,0,2:0:0:0:
100,122,75658,1,0,2:0:0:0:
184,107,75831,38,0,P|279:89|384:183,2,233.999992858887,2|0|2,2:0|2:0|2:0,2:0:0:0:
369,200,78244,5,0,2:0:0:0:
397,280,78416,1,0,2:0:0:0:
313,265,78589,38,0,P|218:247|113:341,1,233.999992858887,2|0,2:0|2:0,2:0:0:0:
385,130,79969,6,0,P|325:79|229:113,1,175.499994644165,2|0,2:0|2:0,2:0:0:0:
303,168,80658,2,0,L|487:170,1,175.499994644165,2|0,2:0|2:0,2:0:0:0:
470,95,81262,1,0,2:0:0:0:
470,95,81348,38,0,P|453:176|472:276,1,175.499994644165,2|0,2:0|2:0,2:0:0:0:
487,344,82037,2,0,L|411:335,1,58.4999982147217,2|0,2:0|2:0,2:0:0:0:
326,272,82382,2,0,L|402:263,1,58.4999982147217,2|0,2:0|2:0,2:0:0:0:
287,351,82727,5,2,2:0:0:0:
106,56,83762,1,2,2:0:0:0:
139,136,83934,1,2,2:0:0:0:
94,211,84106,38,0,P|110:280|213:315,1,175.499994644165,2|0,2:0|2:0,2:0:0:0:
280,281,84796,1,2,2:0:0:0:
280,281,85141,2,0,P|326:271|363:274,1,58.4999982147217,2|0,2:0|2:0,2:0:0:0:
441,296,85486,6,0,L|428:126,1,143.000004364014,6|0,2:0|2:0,2:0:0:0:
415,52,86003,1,0,2:0:0:0:
321,170,86175,2,0,L|166:156,1,143.000004364014,2|2,2:0|2:0,2:0:0:0:
256,75,86693,1,2,2:0:0:0:
245,242,86865,38,0,P|245:286|259:321,1,71.5000021820069,2|0,2:0|2:0,2:0:0:0:
343,337,87210,2,0,P|343:293|329:258,1,71.5000021820069,0|0,2:0|2:0,2:0:0:0:
169,196,87555,2,0,P|158:230|160:265,1,71.5000021820069,2|0,2:0|2:0,2:0:0:0:
273,346,87900,2,0,P|308:347|342:336,1,71.5000021820069,0|0,2:0|2:0,2:0:0:0:
135,124,88244,6,0,L|64:133,1,71.5000021820069,2|0,2:0|2:0,2:0:0:0:
204,179,88589,2,0,L|274:188,1,71.5000021820069,2|0,2:0|2:0,2:0:0:0:
176,42,88934,2,0,L|106:33,1,71.5000021820069,2|0,2:0|2:0,2:0:0:0:
252,99,89279,1,2,2:0:0:0:
320,32,89451,1,2,2:0:0:0:
440,84,89624,38,0,P|448:135|431:242,1,143.000004364014,2|0,2:0|2:0,2:0:0:0:
348,203,90141,1,0,2:0:0:0:
348,203,90313,2,0,P|297:195|190:212,1,143.000004364014,2|0,2:0|2:0,2:0:0:0:
145,274,90831,1,0,2:0:0:0:
41,145,91003,6,0,P|98:136|141:145,1,74.7500014257431,2|0,2:0|2:0,2:0:0:0:
145,274,91348,1,0,2:0:0:0:
87,218,91520,1,0,2:0:0:0:
259,191,91693,38,0,P|237:247|206:281,1,77.999997619629,2|0,2:0|2:0,2:0:0:0:
87,218,92038,1,0,2:0:0:0:
167,194,92210,2,0,P|166:215|159:237,1,38.9999988098145,2|2,2:0|2:0,2:0:0:0:
91,351,92382,6,0,P|49:286|87:218,1,162.5,2|0,2:0|2:0,2:0:0:0:
183,292,92900,1,2,2:0:0:0:
283,146,93072,38,0,P|286:208|258:264,1,126.749994197846,2|0,2:0|2:0,2:0:0:0:
146,223,93417,6,0,P|209:218|255:263,1,131.62500050211,2|0,2:0|2:0,2:0:0:0:
146,350,93762,38,0,B|179:285|147:223|147:223|106:152|145:74|145:74|180:140|242:161|308:139,1,454.999986114502,2|0,2:0|2:0,2:0:0:0:
253,40,94796,1,2,2:0:0:0:
210,137,94969,1,2,2:0:0:0:
280,247,95141,6,0,B|354:268|437:230|437:230|412:163|435:98,1,272.999991668701,2|0,2:0|2:0,2:0:0:0:
466,31,95831,1,2,2:0:0:0:
313,149,96175,1,2,2:0:0:0:
346,70,96348,1,2,2:0:0:0:
256,192,96434,12,0,98589,2:0:0:0:
224,73,99279,37,8,0:0:0:0:
176,222,99451,2,8,L|168:251,2,22.7499993057251,8|8|8,3:0|3:0|3:0,3:0:0:0:
161,132,99624,1,8,0:0:0:0:
266,228,99796,1,8,3:0:0:0:
147,47,99969,5,8,0:0:0:0:
310,136,100141,1,8,3:0:0:0:
92,190,100313,2,0,L|54:201,1,22.7499993057251,8|0,0:0|0:0,0:0:0:0:
375,214,100658,5,14,0:0:0:0:
375,214,100744,1,0,0:0:0:0:
375,214,100831,1,0,0:0:0:0:
432,86,101003,1,10,0:0:0:0:
463,243,101175,1,0,0:0:0:0:
281,319,101348,6,0,P|289:255|281:209,1,97.50000371933,10|8,0:0|0:0,0:0:0:0:
235,170,101606,1,0,0:0:0:0:
235,170,101693,2,0,P|171:162|125:170,1,97.50000371933,10|0,0:0|0:0,0:0:0:0:
90,221,101951,1,0,0:0:0:0:
90,221,102037,38,0,L|98:276,1,48.750001859665,10|0,0:0|0:0,0:0:0:0:
184,323,102210,1,0,0:0:0:0:
235,170,102382,1,10,0:0:0:0:
97,348,102555,1,2,0:0:0:0:
311,318,102727,6,0,L|427:315,1,97.50000371933,10|10,0:0|3:0,0:0:0:0:
434,238,102986,1,10,3:0:0:0:
434,238,103072,2,0,L|336:240,1,97.50000371933,10|0,0:0|0:0,0:0:0:0:
314,169,103331,1,0,0:0:0:0:
314,169,103417,38,0,L|362:167,1,48.750001859665,10|0,0:0|0:0,0:0:0:0:
456,163,103589,1,0,0:0:0:0:
291,244,103762,1,10,0:0:0:0:
431,74,103934,1,0,0:0:0:0:
383,313,104106,6,0,P|368:267|374:219,1,97.50000371933,10|10,0:0|0:0,0:0:0:0:
451,208,104365,1,2,0:0:0:0:
451,208,104451,2,0,P|465:253|459:301,1,97.50000371933,10|0,0:0|0:0,0:0:0:0:
382,312,104710,1,0,0:0:0:0:
382,312,104796,38,0,L|307:310,1,48.750001859665,10|0,0:0|0:0,0:0:0:0:
235,278,104969,1,0,0:0:0:0:
344,153,105141,1,10,0:0:0:0:
240,359,105313,1,0,0:0:0:0:
174,174,105486,6,0,L|278:190,1,97.50000371933,10|10,0:0|3:0,0:0:0:0:
331,243,105744,1,10,3:0:0:0:
331,243,105831,2,0,P|325:313|309:346,1,97.50000371933,10|0,0:0|0:0,0:0:0:0:
240,359,106089,1,0,0:0:0:0:
240,359,106175,38,0,L|183:352,1,48.750001859665,10|0,0:0|0:0,0:0:0:0:
92,330,106348,1,0,0:0:0:0:
163,197,106520,1,10,0:0:0:0:
323,317,106693,1,0,0:0:0:0:
162,289,106865,6,0,P|149:242|162:196,1,97.50000371933,10|10,0:0|0:0,0:0:0:0:
209,141,107124,1,2,0:0:0:0:
209,141,107210,2,0,L|316:152,1,97.50000371933,10|0,0:0|0:0,0:0:0:0:
285,226,107469,1,0,0:0:0:0:
285,226,107555,38,0,L|236:221,1,48.750001859665,10|0,0:0|0:0,0:0:0:0:
363,197,107727,1,0,0:0:0:0:
257,324,107900,1,10,0:0:0:0:
243,99,108072,1,2,0:0:0:0:
353,315,108244,5,10,0:0:0:0:
149,272,108417,1,10,3:0:0:0:
149,272,108503,1,10,3:0:0:0:
149,272,108589,1,10,0:0:0:0:
388,211,108762,1,0,0:0:0:0:
388,211,108848,1,0,0:0:0:0:
388,211,108934,38,0,L|388:271,1,48.750001859665,10|0,0:0|0:0,0:0:0:0:
304,324,109106,1,0,0:0:0:0:
336,130,109279,1,10,0:0:0:0:
396,355,109451,1,0,0:0:0:0:
224,229,109624,6,0,L|105:225,1,97.50000371933,10|10,0:0|0:0,0:0:0:0:
70,182,109882,1,2,0:0:0:0:
70,182,109969,2,0,P|93:243|74:308,1,97.50000371933,10|0,0:0|0:0,0:0:0:0:
38,326,110227,1,0,0:0:0:0:
38,326,110313,6,0,B|89:317|89:317|172:335,1,97.50000371933,8|0,3:0|3:0,3:0:0:0:
268,250,110658,2,0,B|217:259|217:259|134:241,1,97.50000371933,8|0,3:0|3:0,3:0:0:0:
330,110,111003,6,0,L|341:187,2,65.0000024795533,10|0|0,0:0|0:0|0:0,0:0:0:0:
209,147,111348,2,0,L|218:82,2,65.0000024795533,10|0|0,0:0|0:0|0:0,0:0:0:0:
317,262,111693,5,14,0:0:0:0:
317,262,111779,1,0,0:0:0:0:
317,262,111865,1,0,0:0:0:0:
431,187,112037,1,10,0:0:0:0:
272,153,112210,1,0,0:0:0:0:
432,357,112382,6,0,L|441:239,1,97.50000371933,10|10,0:0|0:0,0:0:0:0:
431,187,112641,1,2,0:0:0:0:
431,187,112727,2,0,L|440:69,1,97.50000371933,10|0,0:0|0:0,0:0:0:0:
364,92,112986,1,0,0:0:0:0:
364,92,113072,38,0,L|359:151,1,48.750001859665,10|0,0:0|0:0,0:0:0:0:
359,240,113244,1,0,0:0:0:0:
262,115,113417,1,10,0:0:0:0:
472,180,113589,1,2,0:0:0:0:
259,214,113762,6,0,P|196:215|159:188,1,97.50000371933,10|10,0:0|3:0,0:0:0:0:
144,129,114020,1,10,3:0:0:0:
144,129,114106,2,0,L|119:233,1,97.50000371933,10|0,0:0|0:0,0:0:0:0:
125,298,114365,1,0,0:0:0:0:
125,298,114451,38,0,P|157:295|201:300,1,48.750001859665,10|0,0:0|0:0,0:0:0:0:
252,343,114624,1,0,0:0:0:0:
44,314,114796,1,10,0:0:0:0:
279,269,114969,1,0,0:0:0:0:
128,346,115141,6,0,P|127:266|136:222,1,97.50000371933,10|10,0:0|0:0,0:0:0:0:
165,183,115400,1,2,0:0:0:0:
165,183,115486,2,0,P|166:103|157:59,1,97.50000371933,10|0,0:0|0:0,0:0:0:0:
129,21,115744,1,0,0:0:0:0:
129,21,115831,38,0,L|201:11,1,48.750001859665,10|0,0:0|0:0,0:0:0:0:
271,58,116003,1,0,0:0:0:0:
75,104,116175,1,10,0:0:0:0:
315,150,116348,1,0,0:0:0:0:
72,211,116520,6,0,L|192:216,1,97.50000371933,10|10,0:0|3:0,0:0:0:0:
201,132,116779,1,10,3:0:0:0:
201,132,116865,2,0,L|81:137,1,97.50000371933,10|0,0:0|0:0,0:0:0:0:
72,211,117124,1,0,0:0:0:0:
72,211,117210,38,0,L|69:259,1,48.750001859665,10|0,0:0|0:0,0:0:0:0:
113,346,117382,1,0,0:0:0:0:
247,227,117555,1,10,0:0:0:0:
71,128,117727,1,0,0:0:0:0:
201,304,117900,6,0,P|260:312|309:297,1,97.50000371933,10|10,0:0|0:0,0:0:0:0:
343,245,118158,1,2,0:0:0:0:
343,245,118244,2,0,P|351:186|336:137,1,97.50000371933,10|0,0:0|0:0,0:0:0:0:
268,132,118503,1,0,0:0:0:0:
268,132,118589,38,0,P|264:161|271:186,1,48.750001859665,10|0,0:0|0:0,0:0:0:0:
343,245,118762,1,0,0:0:0:0:
188,201,118934,1,10,0:0:0:0:
434,185,119106,1,2,0:0:0:0:
233,287,119279,5,10,0:0:0:0:
190,92,119451,1,10,3:0:0:0:
190,92,119537,1,10,3:0:0:0:
190,92,119624,1,10,0:0:0:0:
343,245,119796,1,0,0:0:0:0:
343,245,119882,1,0,0:0:0:0:
343,245,119969,38,0,L|346:309,1,48.750001859665,10|0,0:0|0:0,0:0:0:0:
262,183,120141,1,0,0:0:0:0:
448,221,120313,1,10,0:0:0:0:
233,287,120486,1,0,0:0:0:0:
416,114,120658,5,10,0:0:0:0:
314,322,120831,1,10,0:0:0:0:
314,322,120917,1,2,0:0:0:0:
314,322,121003,1,10,0:0:0:0:
284,74,121175,1,0,0:0:0:0:
284,74,121262,1,0,0:0:0:0:
284,74,121348,38,0,L|332:69,1,48.750001859665,10|0,0:0|0:0,0:0:0:0:
257,187,121520,2,0,L|196:193,1,48.750001859665,8|0,0:0|0:0,0:0:0:0:
149,75,121693,2,0,L|197:80,1,48.750001859665,10|0,0:0|0:0,0:0:0:0:
386,174,121865,2,0,L|337:169,1,48.750001859665,8|0,0:0|0:0,0:0:0:0:
151,123,122037,6,0,L|149:75,1,48.750001859665,10|0,3:0|3:0,3:0:0:0:
198,240,122210,2,0,L|195:288,1,48.750001859665,10|0,3:0|3:0,3:0:0:0:
284,84,122382,2,0,L|281:35,1,48.750001859665,10|0,3:0|3:0,3:0:0:0:
311,271,122555,2,0,L|308:319,1,48.750001859665,10|0,3:0|3:0,3:0:0:0:
459,129,122727,6,0,L|419:135,2,32.5,6|0|0,2:0|2:0|2:0,2:0:0:0:
348,179,123072,2,0,L|315:174,2,29.2499991073609,2|0|0,2:0|2:0|2:0,2:0:0:0:
246,138,123417,2,0,L|206:144,2,26,2|0|0,2:0|2:0|2:0,2:0:0:0:
145,171,123762,2,0,L|112:166,2,22.7499993057251,2|0|0,2:0|2:0|2:0,2:0:0:0:
54,138,124106,2,0,L|21:143,2,19.4999994049072,2|0|0,2:0|2:0|2:0,2:0:0:0:
