osu file format v14

[General]
AudioFilename: audio.mp3
AudioLeadIn: 0
PreviewTime: 99193
Countdown: 0
SampleSet: Soft
StackLeniency: 0.7
Mode: 2
LetterboxInBreaks: 0
WidescreenStoryboard: 0

[Editor]
Bookmarks: 1348,12382,23417,34451,45486,56520,68934,74451,85486,100658,111693,122727
DistanceSpacing: 1.1
BeatDivisor: 4
GridSize: 4
TimelineZoom: 2.5

[Metadata]
Title:Transform (Original Mix)
TitleUnicode:Transform (Original Mix)
Artist:IAHN
ArtistUnicode:IAHN
Creator:JBHyperion
Version:Salad
Source:osu!
Tags:Featured Artist FA Mappers Guild electronic drum and n bass dnb d&b dubstep instrumental Nelly Daycore JBH
BeatmapID:2508931
BeatmapSetID:1184890

[Difficulty]
HPDrainRate:4
CircleSize:3
OverallDifficulty:6.8
ApproachRate:6.8
SliderMultiplier:1.4
SliderTickRate:1

[Events]
//Background and Video events
0,0,"pawel-czerwinski-BP2RioglKXk-unsplash.jpg",0,0
//Break Periods
2,69134,70764
//Storyboard Layer 0 (Background)
//Storyboard Layer 1 (Fail)
//Storyboard Layer 2 (Pass)
//Storyboard Layer 3 (Foreground)
//Storyboard Layer 4 (Overlay)
//Storyboard Sound Samples

[TimingPoints]
-31,344.827586206897,4,2,1,15,1,0
486,-100,4,2,1,50,0,0
658,-100,4,2,1,55,0,0
831,-100,4,2,1,60,0,0
1003,-100,4,2,1,5,0,0
1348,-100,4,2,1,80,0,0
11693,-100,4,2,1,75,0,0
12037,-100,4,2,1,75,0,0
12382,-100,4,2,1,85,0,0
22037,-100,4,2,1,80,0,0
22210,-100,4,2,2,50,0,0
22727,-100,4,2,1,80,0,0
23417,-100,4,2,1,75,0,0
34451,-100,4,2,1,80,0,0
42727,-100,4,2,1,40,0,0
43072,-100,4,2,1,45,0,0
43417,-100,4,2,1,50,0,0
43762,-100,4,2,1,55,0,0
44106,-100,4,2,1,60,0,0
45486,-100,4,2,1,100,0,0
46175,-100,4,2,1,90,0,1
56520,-100,4,2,1,90,0,0
56606,-100,4,2,2,47,0,0
56693,-100,4,2,1,54,0,0
56779,-100,4,2,2,61,0,0
56865,-100,4,2,1,68,0,0
56951,-100,4,2,2,75,0,0
57037,-100,4,2,1,81,0,0
57124,-100,4,2,2,88,0,0
57210,-100,4,2,1,90,0,0
57900,-100,4,2,1,90,0,1
66175,-100,4,2,1,80,0,0
68934,-100,4,2,1,70,0,1
69020,-100,4,2,1,100,0,0
71693,-100,4,2,1,20,0,0
71865,-100,4,2,1,23,0,0
72037,-100,4,2,1,26,0,0
72210,-100,4,2,1,29,0,0
72382,-100,4,2,1,32,0,0
72555,-100,4,2,1,35,0,0
72727,-100,4,2,1,38,0,0
72900,-100,4,2,1,41,0,0
73072,-100,4,2,1,44,0,0
73244,-100,4,2,1,47,0,0
73417,-100,4,2,1,50,0,0
73589,-100,4,2,1,53,0,0
73762,-100,4,2,1,56,0,0
73934,-100,4,2,1,59,0,0
74106,-100,4,2,1,5,0,0
74451,-100,4,2,1,40,0,0
85486,-100,4,2,2,50,0,0
96175,-100,4,2,2,60,0,0
96520,-100,4,2,1,55,0,0
96865,-100,4,2,1,50,0,0
97210,-100,4,2,1,45,0,0
97555,-100,4,2,1,40,0,0
97900,-100,4,2,1,35,0,0
98244,-100,4,2,1,30,0,0
98589,-100,4,2,1,5,0,0
99279,-83.3333333333333,4,2,1,75,0,0
99624,-100,4,2,1,75,0,0
100658,-100,4,2,1,90,0,1
111578,-100,4,2,1,90,0,0
111693,-100,4,2,1,90,0,1
119969,-100,4,2,1,90,0,1
122727,-100,4,2,1,90,0,0
123072,-100,4,2,1,50,0,0
123417,-100,4,2,1,46,0,0
123762,-100,4,2,1,42,0,0
124106,-100,4,2,1,38,0,0
124451,-100,4,2,1,35,0,0
124796,-100,4,2,1,32,0,0
125141,-100,4,2,1,29,0,0
125486,-100,4,2,1,26,0,0
125831,-100,4,2,1,24,0,0
126175,-100,4,2,1,22,0,0
126520,-100,4,2,1,20,0,0
126865,-100,4,2,1,18,0,0
127210,-100,4,2,1,16,0,0
127555,-100,4,2,1,14,0,0
127900,-100,4,2,1,12,0,0
128244,-100,4,2,1,10,0,0
128934,-100,4,2,1,9,0,0
129624,-100,4,2,1,8,0,0
130313,-100,4,2,1,7,0,0
131003,-100,4,2,1,6,0,0
131693,-100,4,2,1,5,0,0

[Colours]
Combo1 : 255,60,255
Combo2 : 180,255,255
Combo3 : 255,180,255
Combo4 : 60,255,255

[HitObjects]
256,192,313,12,2,1003,0:0:0:0:
304,192,1348,6,0,L|112:108,2,210,6|0|0,3:2|3:0|3:2,0:0:0:0:
416,192,2727,2,0,P|424:128|320:44,1,210,2|0,3:2|3:0,0:0:0:0:
152,40,3762,1,0,3:0:0:0:
292,40,4106,6,0,L|475:146,2,210,2|0|0,3:2|3:0|3:2,0:0:0:0:
152,40,5486,1,2,3:2:0:0:
16,140,6003,1,0,3:0:0:0:
176,192,6520,1,0,3:0:0:0:
316,192,6865,6,0,P|392:172|448:56,2,210,2|0|0,3:2|3:0|3:2,0:0:0:0:
204,192,8244,2,0,P|136:224|96:360,1,210,2|0,3:2|3:0,0:0:0:0:
260,344,9279,1,0,3:0:0:0:
120,344,9624,6,0,P|128:288|248:204,2,210,2|0|0,3:2|3:0|3:2,0:0:0:0:
248,344,11003,1,0,3:3:0:0:
248,344,11693,1,0,3:0:0:0:
108,344,12037,1,8,3:2:0:0:
388,344,12382,6,0,P|432:312|396:244,1,140,6|10,3:2|3:2,0:0:0:0:
328,244,12900,1,0,3:0:0:0:
124,192,13417,2,0,L|120:48,1,140,8|2,3:2|3:2,0:0:0:0:
260,52,14106,2,0,L|336:52,1,70,10|0,3:2|3:0,0:0:0:0:
260,52,14451,2,0,L|180:52,1,70,8|2,3:2|3:3,0:0:0:0:
260,52,14796,1,8,3:2:0:0:
120,52,15141,6,0,P|64:96|68:184,1,140,2|10,3:2|3:2,0:0:0:0:
120,192,15658,1,0,3:0:0:0:
308,192,16175,1,8,3:2:0:0:
168,192,16520,1,10,3:2:0:0:
28,192,16865,2,0,L|24:120,1,70,10|0,3:2|3:0,0:0:0:0:
188,192,17555,1,8,3:2:0:0:
468,244,17900,6,0,B|468:312|468:312|392:312,1,140,10|10,3:2|0:2,0:0:0:0:
320,312,18417,1,2,3:2:0:0:
244,312,18589,2,0,L|104:312,1,140,8|8,0:0|3:2,0:0:0:0:
260,312,19279,2,0,L|264:172,1,140,8|8,3:2|0:0,0:0:0:0:
188,172,19796,1,0,3:0:0:0:
264,172,19969,2,0,L|404:192,1,140,8|8,3:2|3:2,0:0:0:0:
124,192,20658,5,10,3:2:0:0:
85,125,20831,1,10,0:2:0:0:
124,58,21003,1,10,3:2:0:0:
201,58,21175,1,8,3:2:0:0:
239,125,21348,1,8,0:0:0:0:
201,192,21520,1,8,3:2:0:0:
124,192,21693,1,8,3:2:0:0:
404,192,22037,5,2,3:2:0:0:
224,192,22727,1,2,3:2:0:0:
300,192,22900,1,8,0:0:0:0:
376,192,23072,1,8,3:2:0:0:
96,192,23417,6,0,L|39:135,2,70,6|2|2,3:2|0:0|0:0,0:0:0:0:
224,192,24106,2,0,L|376:192,1,140,2|0,0:0|3:0,0:0:0:0:
224,192,24796,1,2,0:2:0:0:
152,192,24969,2,0,L|148:268,1,70,2|2,0:2|0:2,0:0:0:0:
276,260,25486,1,2,0:2:0:0:
136,260,25831,1,2,3:2:0:0:
416,260,26175,6,0,L|420:188,2,70,2|2|2,3:2|0:0|0:0,0:0:0:0:
288,192,26865,2,0,L|284:36,1,140,2|2,0:0|3:2,0:0:0:0:
156,52,27555,2,0,L|144:132,2,70,2|2|2,0:2|0:0|0:0,0:0:0:0:
296,52,28244,1,2,0:0:0:0:
16,52,28589,1,8,3:2:0:0:
308,52,28934,6,0,P|328:96|316:192,1,140,2|2,3:2|3:2,0:0:0:0:
180,192,29624,2,0,L|176:340,1,140,2|0,3:2|3:2,0:0:0:0:
316,332,30313,2,0,L|320:188,1,140,2|2,3:2|3:2,0:0:0:0:
460,192,31003,2,0,L|456:48,1,140,2|2,3:2|3:2,0:0:0:0:
316,52,31693,6,0,L|187:126,1,140,2|2,3:2|3:2,0:0:0:0:
56,120,32382,2,0,L|48:276,1,140,2|0,3:2|3:2,0:0:0:0:
188,260,33072,2,0,L|316:334,2,140,2|2|2,3:2|3:2|3:2,0:0:0:0:
468,260,34106,2,0,L|472:204,2,35,0|0|0,3:0|3:0|3:0,0:0:0:0:
308,192,34451,6,0,L|152:192,1,140,10|2,3:2|3:2,0:0:0:0:
308,192,35141,2,0,L|316:40,1,140,10|0,3:2|3:2,0:0:0:0:
36,52,35831,2,0,L|176:52,1,140,10|2,3:2|3:2,0:0:0:0:
316,52,36520,1,10,3:2:0:0:
160,52,36865,1,2,3:2:0:0:
440,52,37210,6,0,L|444:196,1,140,10|2,3:2|3:2,0:0:0:0:
304,192,37900,2,0,L|300:48,1,140,10|0,3:2|3:2,0:0:0:0:
20,52,38589,1,10,3:2:0:0:
160,52,38934,1,2,3:2:0:0:
300,52,39279,1,10,3:2:0:0:
32,52,39624,1,10,3:2:0:0:
312,52,39969,6,0,L|316:208,1,140,8|10,3:2|3:2,0:0:0:0:
176,192,40658,2,0,L|324:192,1,140,8|8,3:2|3:2,0:0:0:0:
176,192,41348,2,0,L|172:48,1,140,8|8,3:2|3:2,0:0:0:0:
452,52,42037,2,0,L|508:96,2,70,8|8|8,3:2|3:2|3:2,0:0:0:0:
256,192,42727,12,8,44106,3:2:0:0:
216,192,44796,6,0,L|139:147,1,87.5,2|2,0:0|0:0,0:0:0:0:
216,192,45141,2,0,L|294:146,1,87.5,2|2,0:0|0:0,0:0:0:0:
148,192,45486,6,0,P|84:240|152:320,1,210,2|0,3:2|0:0,0:0:0:0:
320,320,46175,6,0,L|464:320,1,140,4|8,3:2|3:2,0:0:0:0:
304,320,46865,1,2,3:2:0:0:
234,320,47037,1,2,0:0:0:0:
164,320,47210,1,8,3:2:0:0:
444,192,47555,2,0,L|296:192,1,140,2|10,3:2|3:2,0:0:0:0:
164,192,48244,6,0,L|160:128,1,35,2|2,3:2|0:2,0:0:0:0:
268,156,48589,2,0,L|360:156,1,70,10|2,0:2|0:2,0:0:0:0:
420,156,48934,2,0,L|424:100,1,35,2|2,3:2|0:0,0:0:0:0:
316,64,49279,2,0,L|232:64,1,70,10|2,3:2|0:2,0:0:0:0:
332,64,49624,6,0,P|380:88|404:176,1,140,0|8,3:0|3:2,0:0:0:0:
340,192,50141,1,2,0:0:0:0:
272,192,50313,2,0,L|268:292,1,70,2|2,3:2|3:2,0:0:0:0:
444,336,50658,2,0,L|448:256,1,70,10|2,3:2|0:3,0:0:0:0:
272,192,51003,6,0,P|224:156|268:108,1,140,4|8,3:2|3:2,0:0:0:0:
392,108,51693,2,0,L|396:36,1,70,2|2,0:0|3:2,0:0:0:0:
316,36,52037,1,10,0:0:0:0:
176,36,52382,2,0,L|324:36,1,140,2|10,3:2|3:2,0:0:0:0:
36,36,53072,6,0,L|188:36,2,140,10|10|2,3:2|3:2|3:2,0:0:0:0:
176,36,54106,2,0,L|248:36,1,70,8|2,3:2|0:3,0:0:0:0:
176,36,54451,2,0,L|104:36,2,70,2|2|10,3:2|0:3|3:2,0:0:0:0:
456,36,55141,5,2,3:2:0:0:
492,92,55256,1,2,0:2:0:0:
484,156,55371,1,2,0:2:0:0:
428,192,55486,1,2,3:2:0:0:
272,192,55831,1,2,3:2:0:0:
212,192,55946,1,2,0:2:0:0:
172,236,56060,1,2,0:2:0:0:
164,296,56175,1,2,3:2:0:0:
444,296,56520,6,0,P|476:272|416:148,1,210,0|0,3:2|0:0,0:0:0:0:
332,148,57210,2,0,P|296:124|376:24,1,210,2|0,3:2|0:0,0:0:0:0:
192,20,57900,6,0,L|44:20,1,140,12|10,3:2|3:2,0:0:0:0:
124,20,58417,1,2,0:0:0:0:
192,20,58589,2,0,L|336:20,1,140,2|8,3:2|3:2,0:0:0:0:
192,20,59279,2,0,P|160:60|200:144,1,140,0|8,3:0|3:2,0:0:0:0:
268,164,59796,1,2,0:0:0:0:
348,192,59969,6,0,L|352:256,1,35,2|2,3:2|0:2,0:0:0:0:
244,228,60313,2,0,L|152:228,1,70,10|2,3:2|0:2,0:0:0:0:
256,228,60658,2,0,L|304:228,1,35,2|2,3:2|0:2,0:0:0:0:
396,228,61003,2,0,L|312:228,1,70,10|2,3:2|0:2,0:0:0:0:
244,228,61348,1,2,3:2:0:0:
168,228,61520,1,2,3:2:0:0:
168,228,61693,1,10,3:2:0:0:
448,228,62037,6,0,P|472:272|424:344,1,140,6|8,3:2|0:0,0:0:0:0:
276,340,62727,2,0,L|272:268,1,70,2|2,3:2|0:0,0:0:0:0:
352,268,63072,1,8,3:2:0:0:
200,272,63417,2,0,L|126:272,2,70,2|2|10,3:2|0:0|0:0,0:0:0:0:
480,192,64106,6,0,L|328:192,1,140,8|8,3:2|3:2,0:0:0:0:
60,348,64796,5,6,3:2:0:0:
24,292,64911,1,2,0:0:0:0:
32,228,65026,1,2,0:0:0:0:
88,192,65141,1,10,3:2:0:0:
368,192,65486,1,2,3:2:0:0:
360,132,65601,1,2,0:0:0:0:
320,88,65716,1,2,0:0:0:0:
260,88,65831,1,10,3:2:0:0:
104,88,66175,6,0,P|108:152|168:216,1,140,2|2,0:0|0:0,0:0:0:0:
232,208,66693,1,2,0:0:0:0:
308,208,66865,2,0,L|408:208,2,70,2|2|2,0:0|0:0|0:0,0:0:0:0:
16,229,67555,6,0,L|176:205,2,140,6|6|0,3:2|3:2|3:0,0:0:0:0:
172,228,68589,2,0,L|244:228,1,70,8|2,0:0|0:0,0:0:0:0:
424,228,68934,5,4,3:2:0:0:
256,192,71693,12,0,74106,0:0:0:0:
256,192,74451,5,6,0:1:0:0:
408,192,75486,1,2,0:0:0:0:
332,192,75658,1,2,0:0:0:0:
256,192,75831,2,0,L|252:48,1,140,2|0,0:0|0:0,0:0:0:0:
100,248,76520,2,0,L|104:96,1,140,2|0,0:0|0:0,0:0:0:0:
392,108,77210,5,2,0:0:0:0:
236,247,78244,1,2,0:0:0:0:
312,247,78417,1,2,0:0:0:0:
388,247,78589,2,0,L|392:103,1,140,2|0,0:0|0:0,0:0:0:0:
252,107,79279,2,0,L|108:107,1,140,2|0,0:0|0:0,0:0:0:0:
268,108,79969,5,2,0:0:0:0:
101,108,80658,1,2,0:0:0:0:
324,108,81348,1,2,0:0:0:0:
156,108,81865,1,2,0:0:0:0:
324,108,82037,2,0,P|344:156|328:248,1,140,2|2,0:0|0:0,0:0:0:0:
48,240,82727,6,0,P|28:300|128:380,1,210,2|0,0:0|0:0,0:0:0:0:
208,380,83417,1,0,0:0:0:0:
64,192,83762,1,2,0:0:0:0:
148,192,83934,1,2,0:0:0:0:
232,192,84106,2,0,P|272:160|232:92,1,140,2|0,0:0|0:0,0:0:0:0:
152,92,84624,1,0,0:0:0:0:
68,92,84796,2,0,L|216:92,1,140,2|2,0:0|0:0,0:0:0:0:
488,92,85486,6,0,L|492:248,1,140,6|0,3:1|3:2,0:0:0:0:
352,232,86175,1,2,3:2:0:0:
212,232,86520,1,2,3:2:0:0:
282,232,86693,1,2,0:2:0:0:
352,232,86865,2,0,P|392:288|352:340,1,140,2|2,3:2|3:2,0:0:0:0:
284,340,87382,1,2,0:2:0:0:
212,340,87555,1,2,3:2:0:0:
368,340,87900,1,2,3:2:0:0:
88,340,88244,6,0,L|84:192,1,140,2|0,3:2|3:2,0:0:0:0:
240,192,88934,2,0,P|264:112|240:52,1,140,2|2,3:2|3:2,0:0:0:0:
168,60,89451,1,2,0:2:0:0:
92,60,89624,2,0,L|84:200,1,140,2|2,3:2|3:2,0:0:0:0:
240,192,90313,2,0,L|380:192,1,140,2|2,3:2|3:2,0:0:0:0:
100,192,91003,6,0,B|100:120|100:120|180:120,1,140,2|2,3:2|3:2,0:0:0:0:
244,120,91520,1,2,0:2:0:0:
168,120,91693,2,0,L|164:48,1,70,2|2,3:2|0:2,0:0:0:0:
304,52,92210,1,0,0:2:0:0:
380,52,92382,2,0,P|424:104|380:160,1,140,2|0,3:2|3:2,0:0:0:0:
312,156,92900,1,2,0:2:0:0:
236,156,93072,2,0,L|100:192,1,140,2|2,3:2|3:2,0:0:0:0:
384,192,93762,6,0,B|456:192|456:192|456:264,1,140,2|2,3:2|3:2,0:0:0:0:
380,260,94279,1,2,0:2:0:0:
304,264,94451,2,0,L|300:192,1,70,2|0,3:2|0:2,0:0:0:0:
380,260,94796,2,0,L|304:264,1,70,2|2,3:2|0:2,0:0:0:0:
140,264,95141,6,0,P|92:304|124:368,1,140,2|2,3:2|3:2,0:0:0:0:
196,364,95658,1,2,0:2:0:0:
120,364,95831,2,0,L|40:364,1,70,2|2,3:2|0:2,0:0:0:0:
224,364,96175,5,2,3:2:0:0:
256,192,96520,12,0,98589,0:0:0:0:
264,192,99279,6,0,B|332:144|332:144|260:96,1,167.999994873047,0|8,3:0|3:2,0:0:0:0:
176,96,99796,1,0,3:0:0:0:
92,96,99969,2,0,L|168:96,1,70,8|0,3:2|3:0,0:0:0:0:
80,96,100313,1,8,3:2:0:0:
372,96,100658,6,0,L|448:96,2,70,4|2|10,3:2|0:0|3:2,0:0:0:0:
288,96,101175,1,2,0:0:0:0:
204,96,101348,2,0,P|160:144|204:192,1,140,2|8,3:2|3:2,0:0:0:0:
372,192,102037,6,0,L|376:268,2,70,2|2|8,3:2|0:0|3:2,0:0:0:0:
288,192,102555,1,2,0:0:0:0:
204,192,102727,1,0,3:0:0:0:
496,192,103072,2,0,L|500:112,1,70,10|2,3:2|0:0,0:0:0:0:
416,124,103417,6,0,L|340:124,2,70,0|2|10,3:2|0:0|3:2,0:0:0:0:
480,72,103934,1,2,0:0:0:0:
416,20,104106,2,0,L|264:20,1,140,2|8,3:2|3:2,0:0:0:0:
108,20,104796,6,0,L|100:96,1,70,2|2,3:2|0:0,0:0:0:0:
184,132,105141,1,8,3:2:0:0:
260,132,105313,1,2,0:0:0:0:
184,132,105486,1,0,3:0:0:0:
352,132,105831,1,10,3:2:0:0:
72,132,106175,6,0,L|64:208,2,70,2|2|8,3:2|0:0|3:2,0:0:0:0:
148,132,106693,1,2,0:0:0:0:
224,132,106865,2,0,B|296:132|296:132|296:216,1,140,0|10,3:0|3:2,0:0:0:0:
144,200,107555,1,2,3:2:0:0:
220,200,107727,1,2,0:0:0:0:
296,200,107900,1,8,3:2:0:0:
220,200,108072,1,2,0:0:0:0:
52,304,108244,2,0,L|196:304,1,140,0|10,3:0|3:2,0:0:0:0:
480,304,108934,6,0,P|496:256|472:160,1,140,2|8,3:2|3:2,0:0:0:0:
192,176,109624,1,0,3:0:0:0:
116,176,109796,1,2,3:2:0:0:
192,176,109969,1,10,3:2:0:0:
344,176,110313,2,0,L|352:28,1,140,2|8,3:2|3:2,0:0:0:0:
64,36,111003,2,0,L|-12:36,2,70,8|0|10,3:2|3:2|3:2,0:0:0:0:
352,36,111693,6,0,L|492:36,1,140,4|10,3:2|3:2,0:0:0:0:
408,36,112210,1,2,0:0:0:0:
324,36,112382,2,0,L|254:36,2,70,2|2|8,3:2|3:2|3:2,0:0:0:0:
156,36,113072,6,0,B|88:36|88:36|88:112,1,140,2|8,3:2|3:2,0:0:0:0:
172,108,113589,1,2,0:0:0:0:
88,108,113762,1,0,3:0:0:0:
376,108,114106,2,0,L|384:192,1,70,10|2,3:2|0:0,0:0:0:0:
296,176,114451,6,0,L|156:176,1,140,2|8,3:2|3:2,0:0:0:0:
92,228,114969,1,2,0:0:0:0:
156,284,115141,2,0,L|230:284,2,70,0|2|10,3:0|3:2|3:2,0:0:0:0:
324,284,115831,6,0,L|468:284,1,140,2|8,3:2|3:2,0:0:0:0:
380,284,116348,1,2,0:0:0:0:
296,284,116520,2,0,L|292:200,1,70,0|2,3:0|3:2,0:0:0:0:
376,212,116865,1,10,3:2:0:0:
92,212,117210,6,0,P|72:144|100:60,1,140,10|8,3:2|3:2,0:0:0:0:
172,80,117727,1,2,0:0:0:0:
256,80,117900,2,0,L|352:80,1,70,8|2,3:2|3:2,0:0:0:0:
368,8,118244,1,8,3:2:0:0:
88,80,118589,6,0,B|88:152|88:152|144:192,1,140,10|8,3:2|3:2,0:0:0:0:
228,192,119106,1,2,0:0:0:0:
56,192,119279,1,8,3:2:0:0:
16,264,119451,1,2,3:2:0:0:
100,264,119624,1,10,3:2:0:0:
388,264,119969,6,0,B|460:264,1,70,10|10,3:2|0:2,0:0:0:0:
376,264,120313,1,8,3:2:0:0:
312,212,120486,1,10,0:2:0:0:
312,128,120658,1,8,3:2:0:0:
364,60,120831,1,10,3:2:0:0:
448,60,121003,2,0,L|453:139,1,70,10|10,3:2|0:2,0:0:0:0:
280,128,121348,6,0,L|140:128,1,140,10|8,3:2|3:2,0:0:0:0:
84,192,121865,1,10,0:2:0:0:
260,192,122037,2,0,L|344:192,1,70,8|10,3:2|3:2,0:0:0:0:
244,276,122382,2,0,L|174:276,1,70,10|8,3:2|0:2,0:0:0:0:
356,192,122727,5,10,3:2:0:0:
256,192,123072,12,0,132382,0:0:0:0:
