osu file format v14

[General]
AudioFilename: audio.mp3
AudioLeadIn: 0
PreviewTime: 99193
Countdown: 0
SampleSet: Soft
StackLeniency: 0.7
Mode: 2
LetterboxInBreaks: 0
WidescreenStoryboard: 0

[Editor]
Bookmarks: 1348,12382,23417,34451,45486,56520,68934,74451,85486,100658,111693,122727
DistanceSpacing: 1
BeatDivisor: 4
GridSize: 4
TimelineZoom: 1

[Metadata]
Title:Transform (Original Mix)
TitleUnicode:Transform (Original Mix)
Artist:IAHN
ArtistUnicode:IAHN
Creator:JBHyperion
Version:Daycore's Cup
Source:osu!
Tags:Featured Artist FA Mappers Guild electronic drum and n bass dnb d&b dubstep instrumental Nelly Daycore JBH
BeatmapID:2508930
BeatmapSetID:1184890

[Difficulty]
HPDrainRate:3
CircleSize:2.5
OverallDifficulty:5.5
ApproachRate:5.5
SliderMultiplier:0.999999999999999
SliderTickRate:1

[Events]
//Background and Video events
0,0,"pawel-czerwinski-BP2RioglKXk-unsplash.jpg",0,0
//Break Periods
2,69134,70568
//Storyboard Layer 0 (Background)
//Storyboard Layer 1 (Fail)
//Storyboard Layer 2 (Pass)
//Storyboard Layer 3 (Foreground)
//Storyboard Layer 4 (Overlay)
//Storyboard Sound Samples

[TimingPoints]
-31,344.827586206897,4,2,1,15,1,0
1348,-100,4,2,1,80,0,0
11693,-100,4,2,1,75,0,0
12382,-100,4,2,1,85,0,0
22037,-100,4,2,1,80,0,0
22382,-100,4,2,2,40,0,0
22555,-100,4,2,2,50,0,0
22727,-100,4,2,1,60,0,0
22900,-100,4,2,1,70,0,0
23072,-100,4,2,1,100,0,0
23417,-100,4,2,1,75,0,0
23762,-100,4,2,1,100,0,0
34451,-100,4,2,1,80,0,0
40658,-100,4,2,1,100,0,0
41348,-100,4,2,1,100,0,0
42037,-100,4,2,1,100,0,0
42727,-100,4,2,1,100,0,0
43072,-100,4,2,1,45,0,0
43417,-100,4,2,1,50,0,0
43762,-100,4,2,1,55,0,0
44106,-100,4,2,1,70,0,0
44279,-100,4,2,1,100,0,0
45486,-100,4,2,1,100,0,0
46175,-100,4,2,1,90,0,1
51348,-100,4,2,1,100,0,1
51520,-100,4,2,1,100,0,1
53072,-100,4,2,1,100,0,1
53331,-100,4,2,1,100,0,1
56520,-100,4,2,1,90,0,0
56606,-100,4,2,2,47,0,0
56693,-100,4,2,1,54,0,0
56779,-100,4,2,2,61,0,0
56865,-100,4,2,1,68,0,0
56951,-100,4,2,2,75,0,0
57037,-100,4,2,1,81,0,0
57124,-100,4,2,2,88,0,0
57210,-100,4,2,1,90,0,0
57900,-100,4,2,1,90,0,1
62382,-100,4,2,1,100,0,1
62555,-100,4,2,1,100,0,1
64106,-100,4,2,1,100,0,1
64279,-100,4,2,1,100,0,1
66175,-100,4,2,1,80,0,0
68934,-100,4,2,1,70,0,1
69020,-100,4,2,1,100,0,0
71693,-100,4,2,1,20,0,0
71865,-100,4,2,1,23,0,0
72037,-100,4,2,1,26,0,0
72210,-100,4,2,1,29,0,0
72382,-100,4,2,1,32,0,0
72555,-100,4,2,1,35,0,0
72727,-100,4,2,1,38,0,0
72900,-100,4,2,1,41,0,0
73072,-100,4,2,1,44,0,0
73244,-100,4,2,1,47,0,0
73417,-100,4,2,1,50,0,0
73589,-100,4,2,1,53,0,0
73762,-100,4,2,1,56,0,0
73934,-100,4,2,1,59,0,0
74106,-100,4,2,1,62,0,0
74279,-100,4,2,1,65,0,0
74451,-100,4,2,1,40,0,0
82727,-100,4,2,1,40,0,0
83072,-100,4,2,1,40,0,0
85486,-100,4,2,2,50,0,0
96175,-100,4,2,2,60,0,0
96520,-100,4,2,1,55,0,0
96865,-100,4,2,1,50,0,0
97210,-100,4,2,1,45,0,0
97555,-100,4,2,1,40,0,0
97900,-100,4,2,1,35,0,0
98244,-100,4,2,1,30,0,0
98589,-100,4,2,1,5,0,0
99279,-100,4,2,1,75,0,0
100658,-100,4,2,1,90,0,1
111578,-100,4,2,1,90,0,0
111693,-100,4,2,1,90,0,1
119969,-100,4,2,1,90,0,1
122727,-100,4,2,1,90,0,0
123072,-100,4,2,1,50,0,0
123417,-100,4,2,1,46,0,0
123762,-100,4,2,1,42,0,0
124106,-100,4,2,1,38,0,0
124451,-100,4,2,1,35,0,0
124796,-100,4,2,1,32,0,0
125141,-100,4,2,1,29,0,0
125486,-100,4,2,1,26,0,0
125831,-100,4,2,1,24,0,0
126175,-100,4,2,1,22,0,0
126520,-100,4,2,1,20,0,0
126865,-100,4,2,1,18,0,0
127210,-100,4,2,1,16,0,0
127555,-100,4,2,1,14,0,0
127900,-100,4,2,1,12,0,0
128244,-100,4,2,1,10,0,0
128934,-100,4,2,1,9,0,0
129624,-100,4,2,1,8,0,0
130313,-100,4,2,1,7,0,0
131003,-100,4,2,1,6,0,0
131693,-100,4,2,1,5,0,0

[Colours]
Combo1 : 255,60,255
Combo2 : 180,255,255
Combo3 : 255,180,255
Combo4 : 60,255,255

[HitObjects]
64,192,1348,6,0,L|236:192,2,150,6|0|0,3:2|3:0|3:2,0:0:0:0:
184,192,2727,6,0,L|296:192,1,99.9999999999999,2|2,3:2|0:0,0:0:0:0:
344,192,3244,2,0,L|244:192,1,99.9999999999999,0|2,3:0|0:3,0:0:0:0:
184,192,3762,1,0,3:0:0:0:
312,192,4106,6,0,L|468:192,1,150,2|0,3:2|3:0,0:0:0:0:
281,192,5141,1,0,3:2:0:0:
152,192,5486,6,0,P|105:211|52:180,1,99.9999999999999,2|2,3:2|0:0,0:0:0:0:
0,192,6003,2,0,P|47:173|100:204,1,99.9999999999999,0|2,3:0|0:3,0:0:0:0:
152,192,6520,1,0,3:0:0:0:
284,192,6865,6,0,L|119:192,2,150,2|0|0,3:2|3:0|3:2,0:0:0:0:
416,192,8244,6,0,L|312:192,1,99.9999999999999,2|2,3:2|0:0,0:0:0:0:
255,192,8762,2,0,L|363:192,1,99.9999999999999,0|2,3:0|0:3,0:0:0:0:
416,192,9279,1,0,3:0:0:0:
285,192,9624,6,0,P|253:228|281:324,1,150,2|0,3:2|3:0,0:0:0:0:
456,316,10658,1,0,3:2:0:0:
336,316,11003,6,0,P|282:269|356:192,1,200,0|0,3:3|3:0,0:0:0:0:
232,192,12037,1,8,3:2:0:0:
372,192,12382,6,0,P|308:208|292:248,1,99.9999999999999,6|10,3:2|3:2,0:0:0:0:
232,192,12900,2,0,P|168:208|152:248,1,99.9999999999999,0|2,3:0|0:1,0:0:0:0:
92,192,13417,1,8,3:2:0:0:
224,192,13762,6,0,L|204:76,1,99.9999999999999,2|10,3:2|3:2,0:0:0:0:
88,192,14451,1,8,3:2:0:0:
208,192,14796,1,8,3:2:0:0:
328,192,15141,6,0,P|308:260|272:292,1,99.9999999999999,2|10,3:2|3:2,0:0:0:0:
228,188,15658,2,0,P|248:120|284:88,1,99.9999999999999,0|2,3:0|0:1,0:0:0:0:
328,192,16175,1,8,3:2:0:0:
208,192,16520,6,0,P|188:148|188:92,1,99.9999999999999,10|10,3:2|3:2,0:0:0:0:
128,192,17037,2,0,P|148:148|148:92,1,99.9999999999999,0|2,3:0|0:3,0:0:0:0:
209,97,17555,1,8,3:2:0:0:
329,192,17900,6,0,P|393:192|431:154,1,99.9999999999999,10|10,3:2|0:2,0:0:0:0:
301,192,18589,2,0,P|237:192|199:230,1,99.9999999999999,8|8,0:0|3:2,0:0:0:0:
104,192,19279,6,0,L|4:192,1,99.9999999999999,8|8,3:2|0:0,0:0:0:0:
124,192,19969,2,0,L|224:192,1,99.9999999999999,8|8,3:2|3:2,0:0:0:0:
331,192,20658,6,0,L|327:124,2,50,10|10|10,3:2|0:2|3:2,0:0:0:0:
224,192,21348,2,0,L|220:124,2,50,8|8|8,0:0|3:2|3:2,0:0:0:0:
113,192,22037,5,2,3:2:0:0:
328,192,22727,1,2,3:2:0:0:
412,192,23072,1,8,3:2:0:0:
496,192,23417,6,0,L|392:140,1,99.9999999999999,6|2,3:2|0:0,0:0:0:0:
292,192,24106,2,0,L|188:140,1,99.9999999999999,2|0,0:0|3:0,0:0:0:0:
80,192,24796,6,0,P|124:216|183:184,2,99.9999999999999,2|2|2,0:2|0:2|0:2,0:0:0:0:
200,192,25831,1,2,3:2:0:0:
248,192,26003,1,2,0:2:0:0:
296,192,26175,6,0,L|279:296,1,99.9999999999999,2|2,3:2|0:0,0:0:0:0:
400,192,26865,2,0,L|417:291,1,99.9999999999999,2|2,0:0|3:2,0:0:0:0:
296,192,27555,6,0,P|267:166|194:175,1,99.9999999999999,2|2,0:2|0:0,0:0:0:0:
88,192,28244,1,2,0:0:0:0:
208,192,28589,1,8,3:2:0:0:
328,192,28934,6,0,P|253:176|218:196,1,99.9999999999999,2|2,3:2|3:2,0:0:0:0:
356,192,29624,2,0,P|431:208|466:188,1,99.9999999999999,2|0,3:2|3:2,0:0:0:0:
328,192,30313,6,0,L|312:304,1,99.9999999999999,2|2,3:2|3:2,0:0:0:0:
192,192,31003,2,0,L|177:93,1,99.9999999999999,2|2,3:2|3:2,0:0:0:0:
296,192,31693,6,0,P|345:212|398:185,1,99.9999999999999,2|2,3:2|3:2,0:0:0:0:
508,192,32382,2,0,P|459:172|406:199,1,99.9999999999999,2|0,3:2|3:2,0:0:0:0:
296,192,33072,6,0,L|270:308,1,99.9999999999999,2|2,3:2|3:2,0:0:0:0:
152,192,33762,1,2,3:2:0:0:
272,192,34106,1,0,3:0:0:0:
412,192,34451,6,0,P|466:202|494:251,1,99.9999999999999,10|2,3:2|3:2,0:0:0:0:
372,192,35141,2,0,L|264:192,1,99.9999999999999,10|0,3:2|3:2,0:0:0:0:
152,192,35831,6,0,L|260:192,1,99.9999999999999,10|2,3:2|3:2,0:0:0:0:
372,192,36520,2,0,P|319:186|283:134,1,99.9999999999999,10|2,3:2|3:2,0:0:0:0:
408,192,37210,6,0,L|459:101,2,99.9999999999999,10|2|10,3:2|3:2|3:2,0:0:0:0:
288,192,38244,1,0,3:2:0:0:
408,192,38589,6,0,P|448:207|475:270,1,99.9999999999999,10|2,3:2|3:2,0:0:0:0:
352,196,39279,1,10,3:2:0:0:
232,196,39624,1,10,3:2:0:0:
352,196,39969,5,8,3:2:0:0:
232,196,40313,1,10,3:2:0:0:
100,192,40658,2,0,P|157:214|201:190,1,99.9999999999999,8|8,3:2|3:2,0:0:0:0:
308,196,41348,5,8,3:2:0:0:
192,192,41693,1,8,3:2:0:0:
72,192,42037,2,0,P|107:205|133:190,1,50,8|8,3:2|3:2,0:0:0:0:
177,192,42382,2,0,P|212:205|238:190,1,50,8|8,3:2|3:2,0:0:0:0:
284,192,42727,5,8,3:2:0:0:
256,192,43072,12,8,44106,3:2:0:0:
52,192,44796,5,2,0:0:0:0:
152,192,45141,1,2,0:0:0:0:
52,192,45486,2,0,P|3:175|58:130,1,150,2|0,3:2|0:0,0:0:0:0:
114,192,46175,6,0,L|8:192,2,99.9999999999999,4|8|2,3:2|3:2|3:2,0:0:0:0:
244,192,47210,1,8,3:2:0:0:
376,192,47555,6,0,L|369:142,1,50,2|0,3:2|0:0,0:0:0:0:
319,192,47900,1,10,3:2:0:0:
444,192,48244,6,0,P|468:220|468:296,1,99.9999999999999,2|10,3:2|0:2,0:0:0:0:
344,192,48934,2,0,P|320:164|316:88,1,99.9999999999999,2|10,3:2|3:2,0:0:0:0:
180,192,49624,6,0,L|169:143,1,50,0|2,3:0|0:0,0:0:0:0:
119,192,49969,2,0,L|108:143,1,50,8|2,3:2|0:0,0:0:0:0:
58,192,50313,2,0,L|123:271,1,99.9999999999999,2|10,3:2|3:2,0:0:0:0:
252,192,51003,6,0,P|208:214|163:196,1,99.9999999999999,4|8,3:2|3:2,0:0:0:0:
98,191,51520,1,2,0:0:0:0:
32,188,51693,2,0,L|20:288,1,99.9999999999999,2|10,0:0|0:0,0:0:0:0:
149,192,52382,6,0,L|256:164,1,99.9999999999999,2|10,3:2|3:2,0:0:0:0:
376,192,53072,1,10,3:2:0:0:
246,192,53417,1,10,3:2:0:0:
376,192,53762,6,0,B|451:192|451:192|368:192,1,150,2|2,3:2|0:3,0:0:0:0:
311,192,54451,2,0,B|257:192|257:192|257:136,1,99.9999999999999,2|10,3:2|3:2,0:0:0:0:
207,149,54969,1,2,0:0:0:0:
157,150,55141,5,2,3:2:0:0:
287,150,55486,1,2,3:2:0:0:
166,150,55831,1,2,3:2:0:0:
274,150,56175,1,2,3:2:0:0:
174,276,56520,6,0,P|145:175|178:143,1,150,0|0,3:2|0:0,0:0:0:0:
232,145,57210,2,0,B|272:145|272:145|256:225,1,99.9999999999999,2|0,3:2|0:0,0:0:0:0:
130,194,57900,6,0,L|106:306,2,99.9999999999999,12|10|2,3:2|3:2|3:2,0:0:0:0:
180,186,58762,1,2,0:0:0:0:
229,185,58934,1,8,3:2:0:0:
364,230,59279,6,0,L|367:124,1,99.9999999999999,0|8,3:0|3:2,0:0:0:0:
468,192,59969,2,0,P|424:200|364:185,1,99.9999999999999,2|10,3:2|3:2,0:0:0:0:
240,193,60658,5,2,3:2:0:0:
108,192,61003,1,10,3:2:0:0:
240,193,61348,2,0,P|288:208|312:272,1,99.9999999999999,2|10,3:2|3:2,0:0:0:0:
192,192,62037,6,0,L|92:192,1,99.9999999999999,6|8,3:2|0:0,0:0:0:0:
28,196,62555,1,2,0:0:0:0:
92,192,62727,2,0,L|192:192,1,99.9999999999999,2|8,3:2|3:2,0:0:0:0:
324,192,63417,6,0,P|280:172|220:196,1,99.9999999999999,2|10,3:2|0:0,0:0:0:0:
352,192,64106,1,8,3:2:0:0:
472,192,64451,1,8,3:2:0:0:
332,192,64796,5,6,3:2:0:0:
192,192,65141,1,10,3:2:0:0:
304,192,65486,1,2,3:2:0:0:
204,192,65831,1,10,3:2:0:0:
324,192,66175,6,0,B|396:192|396:192|412:168|412:168|428:192|428:192|500:192,2,200,2|2|6,0:0|0:0|3:2,0:0:0:0:
204,192,67900,1,6,3:2:0:0:
324,192,68244,2,0,L|336:136,1,50,0|0,3:0|3:0,0:0:0:0:
304,92,68589,1,8,0:0:0:0:
174,88,68934,5,4,3:2:0:0:
256,192,71693,12,6,74451,0:1:0:0:
356,191,75486,5,2,0:0:0:0:
311,191,75658,1,2,0:0:0:0:
265,192,75831,2,0,B|233:128|233:128|269:40,1,150,2|0,0:0|0:0,0:0:0:0:
308,194,76520,2,0,P|337:130|403:62,1,150,2|0,0:0|0:0,0:0:0:0:
436,192,77210,5,2,0:0:0:0:
436,192,78244,1,2,0:0:0:0:
472,192,78417,1,2,0:0:0:0:
508,192,78589,6,0,P|493:230|385:231,1,150,2|0,0:0|0:0,0:0:0:0:
331,192,79279,2,0,P|260:183|218:241,1,150,2|0,0:0|0:0,0:0:0:0:
153,192,79969,5,2,0:0:0:0:
312,192,80658,1,2,0:0:0:0:
112,192,81348,1,2,0:0:0:0:
260,192,81865,1,2,0:0:0:0:
296,192,82037,2,0,P|304:169|270:87,1,99.9999999999999,2|2,0:0|0:0,0:0:0:0:
156,87,82727,6,0,P|101:126|142:183,1,150,2|0,0:0|0:0,0:0:0:0:
189,185,83417,1,0,0:0:0:0:
288,192,83762,1,2,0:0:0:0:
324,192,83934,1,2,0:0:0:0:
360,192,84106,6,0,P|388:230|344:323,1,150,2|0,0:0|0:0,0:0:0:0:
288,192,84796,2,0,P|269:167|288:96,1,99.9999999999999,2|2,0:0|0:0,0:0:0:0:
416,192,85486,6,0,L|312:192,1,99.9999999999999,6|0,3:1|3:2,0:0:0:0:
195,192,86175,2,0,L|295:192,1,99.9999999999999,2|2,3:2|3:2,0:0:0:0:
416,192,86865,6,0,L|393:90,1,99.9999999999999,2|2,3:2|3:2,0:0:0:0:
274,192,87555,2,0,L|251:90,1,99.9999999999999,2|2,3:2|3:2,0:0:0:0:
132,192,88244,6,0,P|152:184|168:112,1,99.9999999999999,2|0,3:2|3:2,0:0:0:0:
48,196,88934,2,0,P|28:204|12:276,1,99.9999999999999,2|2,3:2|3:2,0:0:0:0:
132,192,89624,6,0,L|240:192,2,99.9999999999999,2|2|2,3:2|3:2|3:2,0:0:0:0:
12,192,90658,1,2,3:2:0:0:
132,192,91003,5,2,3:2:0:0:
252,192,91348,1,2,3:2:0:0:
372,192,91693,1,2,3:2:0:0:
252,192,92037,1,0,3:2:0:0:
132,192,92382,6,0,P|168:176|172:112,1,99.9999999999999,2|0,3:2|3:2,0:0:0:0:
131,115,92900,1,2,0:2:0:0:
86,110,93072,1,2,3:2:0:0:
206,121,93417,1,2,3:2:0:0:
325,133,93762,6,0,P|400:138|376:41,1,200,2|2,3:2|3:2,0:0:0:0:
262,201,94796,1,2,3:2:0:0:
222,201,94969,1,2,0:2:0:0:
182,202,95141,6,0,P|154:202|98:266,1,99.9999999999999,2|2,3:2|3:2,0:0:0:0:
198,202,95831,1,2,3:2:0:0:
70,202,96175,5,2,3:2:0:0:
256,192,96520,12,0,98589,0:0:0:0:
320,192,99279,6,0,L|436:192,2,99.9999999999999,0|8|8,3:0|3:2|3:2,0:0:0:0:
276,192,100141,1,0,3:0:0:0:
228,192,100313,1,8,3:2:0:0:
347,192,100658,6,0,P|312:170|301:103,1,99.9999999999999,4|10,3:2|3:2,0:0:0:0:
364,192,101175,1,2,0:0:0:0:
432,192,101348,2,0,L|421:299,1,99.9999999999999,2|8,3:2|3:2,0:0:0:0:
292,192,102037,6,0,P|252:176|192:188,1,99.9999999999999,2|8,3:2|3:2,0:0:0:0:
132,192,102555,1,2,0:0:0:0:
68,192,102727,2,0,P|72:168|84:120,1,50,0|2,3:0|3:2,0:0:0:0:
132,192,103072,1,10,3:2:0:0:
262,192,103417,6,0,P|281:176|242:108,1,99.9999999999999,0|10,3:2|3:2,0:0:0:0:
199,192,103934,1,2,0:0:0:0:
262,192,104106,2,0,L|371:191,1,99.9999999999999,2|8,3:2|3:2,0:0:0:0:
492,192,104796,6,0,P|459:239|461:296,1,99.9999999999999,2|8,3:2|3:2,0:0:0:0:
392,192,105313,1,2,0:0:0:0:
328,192,105486,1,0,3:0:0:0:
197,192,105831,1,10,3:2:0:0:
67,192,106175,6,0,P|114:186|177:188,1,99.9999999999999,2|8,3:2|3:2,0:0:0:0:
232,189,106693,1,2,0:0:0:0:
296,193,106865,2,0,P|260:145|285:99,1,99.9999999999999,0|10,3:0|3:2,0:0:0:0:
401,192,107555,6,0,L|505:192,2,99.9999999999999,2|8|0,3:2|3:2|3:0,0:0:0:0:
336,192,108417,1,2,3:2:0:0:
271,192,108589,1,10,3:2:0:0:
140,192,108934,6,0,P|108:164|144:76,1,150,2|2,3:2|0:0,0:0:0:0:
208,193,109624,2,0,P|240:221|204:309,1,150,0|2,3:0|0:0,0:0:0:0:
140,192,110313,5,2,3:2:0:0:
270,192,110658,1,8,3:2:0:0:
140,192,111003,2,0,L|132:136,1,50,8|0,3:2|0:0,0:0:0:0:
180,192,111348,1,10,3:2:0:0:
312,192,111693,6,0,P|276:164|272:96,1,99.9999999999999,4|10,3:2|3:2,0:0:0:0:
200,192,112210,1,2,0:0:0:0:
136,196,112382,2,0,L|61:281,1,99.9999999999999,2|8,3:2|3:2,0:0:0:0:
200,192,113072,6,0,L|252:94,1,99.9999999999999,2|8,3:2|3:2,0:0:0:0:
297,101,113589,1,2,0:0:0:0:
347,99,113762,1,0,3:0:0:0:
466,91,114106,1,10,3:2:0:0:
336,101,114451,6,0,P|304:93|268:25,1,99.9999999999999,2|8,3:2|3:2,0:0:0:0:
204,101,114969,1,2,0:0:0:0:
140,101,115141,2,0,L|120:-3,1,99.9999999999999,0|10,3:0|3:2,0:0:0:0:
0,178,115831,6,0,B|-16:226|-16:226|12:278,1,99.9999999999999,2|8,3:2|3:2,0:0:0:0:
65,178,116348,1,2,0:0:0:0:
129,178,116520,2,0,L|141:114,2,50,0|2|10,3:0|3:2|3:2,0:0:0:0:
258,189,117210,6,0,P|306:197|354:157,1,99.9999999999999,10|8,3:2|3:2,0:0:0:0:
214,189,117900,2,0,P|170:185|142:193,1,50,8|2,3:2|3:2,0:0:0:0:
102,189,118244,1,10,3:2:0:0:
232,192,118589,6,0,L|268:296,1,99.9999999999999,10|8,3:2|3:2,0:0:0:0:
392,192,119279,2,0,L|412:132,1,50,8|2,3:2|3:2,0:0:0:0:
472,192,119624,1,10,3:2:0:0:
341,195,119969,5,10,3:2:0:0:
211,193,120313,1,8,3:2:0:0:
80,193,120658,1,8,3:2:0:0:
211,193,121003,1,10,3:2:0:0:
341,192,121348,6,0,P|293:188|249:140,1,99.9999999999999,10|8,3:2|3:2,0:0:0:0:
321,192,121865,1,10,0:2:0:0:
385,192,122037,2,0,P|412:212|387:272,1,99.9999999999999,8|10,3:2|3:2,0:0:0:0:
270,220,122727,5,8,3:2:0:0:
256,192,123072,12,0,132382,0:0:0:0:
