osu file format v14

[General]
AudioFilename: audio.mp3
AudioLeadIn: 0
PreviewTime: 64587
Countdown: 0
SampleSet: Normal
StackLeniency: 0.7
Mode: 0
LetterboxInBreaks: 0
WidescreenStoryboard: 0

[Editor]
Bookmarks: 42433,49818
DistanceSpacing: 1.1
BeatDivisor: 4
GridSize: 16
TimelineZoom: 1.8

[Metadata]
Title:Summer Vacation (Original Mix)
TitleUnicode:Summer Vacation (Original Mix)
Artist:IAHN
ArtistUnicode:IAHN
Creator:[ Shamwow ]
Version:ADVANCED!
Source:
Tags:
BeatmapID:1613784
BeatmapSetID:767657

[Difficulty]
HPDrainRate:5
CircleSize:4
OverallDifficulty:6
ApproachRate:7.5
SliderMultiplier:1.6
SliderTickRate:1

[Events]
//Background and Video events
0,0,"cropped-1920-1080-717608.png",0,0
//Break Periods
2,35048,42069
//Storyboard Layer 0 (Background)
//Storyboard Layer 1 (Fail)
//Storyboard Layer 2 (Pass)
//Storyboard Layer 3 (Foreground)
//Storyboard Sound Samples

[TimingPoints]
5510.32400659079,461.538461538462,4,1,0,50,1,0
20279,-66.6666666666667,4,1,0,70,0,1
22356,-66.6666666666667,4,1,0,10,0,1
22587,-66.6666666666667,4,1,0,70,0,1
22818,-66.6666666666667,4,1,0,10,0,1
23048,-66.6666666666667,4,1,0,70,0,1
29741,-66.6666666666667,4,1,0,10,0,1
29971,-66.6666666666667,4,1,0,70,0,1
30202,-66.6666666666667,4,1,0,10,0,1
30433,-66.6666666666667,4,1,0,70,0,1
35048,-100,4,1,0,50,0,0
51664,-66.6666666666667,4,1,0,50,0,0
53510,-100,4,1,0,50,0,0
59048,-66.6666666666667,4,1,0,50,0,0
60894,-100,4,1,0,50,0,0
64356,-50,4,1,0,50,0,0
64587,-66.6666666666667,4,1,0,50,0,1
66664,-66.6666666666667,4,1,0,10,0,1
66894,-66.6666666666667,4,1,0,50,0,1
67125,-66.6666666666667,4,1,0,10,0,1
67356,-66.6666666666667,4,1,0,50,0,1
74048,-66.6666666666667,4,1,0,10,0,1
74279,-66.6666666666667,4,1,0,50,0,1
74510,-66.6666666666667,4,1,0,10,0,1
74741,-66.6666666666667,4,1,0,50,0,1
79125,-100,4,1,0,50,0,0
79356,-66.6666666666667,4,1,0,50,0,1
86741,-100,4,1,0,50,0,0
96202,-100,4,1,0,10,0,0
96433,-100,4,1,0,50,0,0
96664,-100,4,1,0,10,0,0
96894,-100,4,1,0,50,0,0
101510,-66.6666666666667,4,1,0,70,0,1
107048,-66.6666666666667,4,1,0,50,0,0
107279,-66.6666666666667,4,1,0,10,0,0
107510,-66.6666666666667,4,1,0,50,0,0
107741,-66.6666666666667,4,1,0,10,0,0
107971,-66.6666666666667,4,1,0,50,0,0
109125,-66.6666666666667,4,1,0,10,0,0
109356,-66.6666666666667,4,1,0,70,0,1
110971,-66.6666666666667,4,1,0,10,0,1
111202,-66.6666666666667,4,1,0,70,0,1
111433,-66.6666666666667,4,1,0,10,0,1
111664,-66.6666666666667,4,1,0,70,0,1
116279,-100,4,1,0,50,0,0

[Colours]
Combo1 : 255,60,157
Combo2 : 81,228,255
Combo3 : 255,236,0
Combo4 : 255,128,0

[HitObjects]
121,188,5510,5,0,0:0:0:0:
296,189,5971,2,0,L|384:189,1,80
464,188,6433,2,0,L|446:313,2,120
476,100,7356,1,0,0:0:0:0:
347,68,7702,6,0,L|250:47,1,80
225,40,8048,1,0,0:0:0:0:
165,104,8279,2,0,L|46:84,2,120
278,134,9202,1,0,0:0:0:0:
420,166,9664,6,0,P|424:215|418:257,1,80
331,247,10125,2,0,P|291:287|236:319,2,120
300,164,11048,2,0,P|305:124|302:82,1,80
266,58,11394,5,0,0:0:0:0:
222,51,11510,2,0,P|182:46|140:49,1,80
98,52,11856,1,0,0:0:0:0:
54,55,11971,2,0,P|52:119|57:192,2,120
186,55,12894,1,0,0:0:0:0:
147,231,13356,6,0,P|160:279|206:312,1,80
266,280,13818,2,0,P|326:262|353:199,2,120
214,208,14741,1,0,0:0:0:0:
212,32,15087,6,0,P|276:37|306:68,1,80
316,77,15433,1,0,0:0:0:0:
373,144,15664,2,0,P|410:186|476:193,2,120
264,173,16587,1,0,0:0:0:0:
123,229,17048,6,0,P|89:253|33:240,1,80
59,163,17510,2,0,P|35:129|59:54,2,120
146,158,18433,2,0,P|186:136|233:145,1,80
255,164,18779,5,0,0:0:0:0:
276,202,18894,2,0,P|309:222|349:221,1,80
389,201,19241,1,0,0:0:0:0:
431,190,19356,2,0,P|463:244|456:301,1,120
127,288,20279,5,0,0:0:0:0:
69,155,20741,2,0,P|76:93|122:105,1,120.000004577637
202,95,21202,2,0,P|250:133|289:48,2,180.000006866455
118,100,22125,6,0,P|81:139|132:171,1,120.000004577637
182,231,22587,2,0,P|183:284|236:280,1,120.000004577637
319,262,23048,2,0,P|357:299|390:211,2,180.000006866455
297,225,23856,1,0,0:0:0:0:
280,186,23971,1,0,0:0:0:0:
205,66,24433,6,0,P|166:29|132:69,1,120.000004577637
137,154,24894,2,0,P|100:192|188:225,2,180.000006866455
205,115,25818,6,0,B|257:88|257:88|277:86|277:86|316:69,1,120.000004577637
385,57,26279,2,0,B|387:115|387:115|380:134|380:134|381:176,1,120.000004577637
382,211,26625,1,0,0:0:0:0:
382,247,26741,2,0,B|295:248|295:248|261:241|261:241|198:243,2,180.000006866455
489,245,27664,5,0,0:0:0:0:
445,104,28125,2,0,P|406:67|372:107,1,120.000004577637
287,109,28587,2,0,P|272:57|200:117,2,180.000006866455
304,191,29510,6,0,P|341:230|301:264,1,120.000004577637
217,281,29971,2,0,P|215:334|163:330,1,120.000004577637
105,264,30433,2,0,P|51:262|92:181,2,180.000006866455
145,253,31241,1,0,0:0:0:0:
185,242,31356,1,0,0:0:0:0:
294,161,31818,6,0,P|313:110|361:132,1,120.000004577637
402,205,32279,2,0,P|455:206|415:288,2,180.000006866455
320,224,33202,2,0,P|304:275|228:223,1,180.000006866455
214,192,33664,2,0,P|166:217|149:126,1,180.000006866455
178,108,34125,2,0,P|164:56|257:61,1,180.000006866455
276,127,34587,1,0,0:0:0:0:
91,101,42894,6,0,P|87:158|94:202,1,80
177,181,43356,2,0,P|173:238|177:307,2,120
188,93,44279,1,0,0:0:0:0:
319,90,44625,6,0,P|365:95|402:104,1,80
439,117,44971,1,0,0:0:0:0:
463,201,45202,2,0,P|434:269|396:314,2,120
208,130,46587,6,0,P|142:117|120:117,1,80
41,118,47048,2,0,P|46:213|59:253,2,120
109,62,47971,2,0,P|151:37|199:28,1,80
225,29,48318,5,0,0:0:0:0:
268,27,48433,2,0,P|316:34|358:58,1,80
373,67,48779,1,0,0:0:0:0:
408,92,48894,2,0,P|410:136|415:162,3,40
416,175,49356,2,0,P|410:243|441:229,1,120
508,219,49818,5,0,0:0:0:0:
360,314,50279,2,0,P|328:274|282:266,1,80
218,237,50741,2,0,P|186:277|136:280,1,80
115,282,51087,1,0,0:0:0:0:
50,221,51318,1,0,0:0:0:0:
105,152,51548,1,0,0:0:0:0:
105,152,51664,6,0,P|112:108|143:148,1,120.000004577637
177,161,52010,2,0,P|214:211|267:171,1,120.000004577637
285,167,52356,1,0,0:0:0:0:
332,112,52587,2,0,P|369:62|401:144,2,180.000006866455
304,206,53510,5,0,0:0:0:0:
131,239,53971,2,0,P|76:211|66:169,1,80
136,140,54433,2,0,P|164:85|206:75,1,80
220,64,54779,2,0,L|309:41,1,80
384,28,55241,2,0,P|432:82|433:143,1,120
261,147,56048,1,0,0:0:0:0:
261,147,56279,2,0,P|191:167|136:142,2,120
336,101,57202,5,0,0:0:0:0:
426,252,57664,2,0,P|405:289|362:294,1,80
286,270,58125,2,0,P|252:296|210:284,1,80
182,263,58471,1,0,0:0:0:0:
122,198,58702,1,0,0:0:0:0:
158,117,58933,1,0,0:0:0:0:
158,117,59048,6,0,P|216:99|191:131,1,120.000004577637
250,114,59394,2,0,P|287:164|340:124,1,120.000004577637
358,119,59741,1,0,0:0:0:0:
426,98,59971,2,0,P|486:112|423:174,2,180.000006866455
343,67,60894,6,0,P|242:37|196:64,1,160
164,141,61587,1,0,0:0:0:0:
162,229,61818,2,0,P|176:296|200:315,1,80
222,321,62164,2,0,P|270:310|330:326,1,80
388,312,62625,5,0,0:0:0:0:
388,312,62741,2,0,P|406:228|373:179,3,120
266,229,64125,1,0,0:0:0:0:
266,229,64356,2,0,L|217:238,3,40
194,245,64587,6,0,P|155:296|122:256,1,120.000004577637
79,198,65048,2,0,P|28:159|68:126,1,120.000004577637
131,93,65510,2,0,P|132:28|211:62,2,180.000006866455
190,152,66433,6,0,P|229:202|181:224,1,120.000004577637
111,238,66894,2,0,P|71:288|119:310,1,120.000004577637
188,313,67356,2,0,P|216:371|273:307,2,180.000006866455
188,270,68164,1,0,0:0:0:0:
189,228,68279,1,0,0:0:0:0:
193,59,68741,6,0,P|243:19|265:67,1,120.000004577637
312,122,69202,2,0,P|340:180|397:116,2,180.000006866455
227,125,70125,6,0,B|180:115|180:115|147:133|147:133|86:125,1,120.000004577637
29,114,70587,2,0,B|24:148|24:148|42:181|42:181|32:228,1,120.000004577637,0|0,3:0|3:0,3:0:0:0:
28,264,70933,1,0,0:0:0:0:
24,305,71048,2,0,B|71:312|71:312|138:296|138:296|200:311,2,180.000006866455
33,221,71971,6,0,P|-2:168|54:148,1,120.000004577637
115,121,72433,2,0,P|127:58|181:84,1,120.000004577637
244,106,72894,2,0,P|304:84|299:170,2,180.000006866455
190,171,73818,6,0,P|177:233|123:207,1,120.000004577637
68,174,74279,2,0,P|5:186|31:240,1,120.000004577637
82,278,74741,2,0,P|110:336|167:272,2,180.000006866455
90,240,75548,1,0,0:0:0:0:
101,199,75664,1,0,0:0:0:0:
152,39,76125,5,0,0:0:0:0:
185,204,76587,2,0,P|213:262|270:198,2,180.000006866455
185,119,77510,2,0,P|161:70|252:56,1,180.000006866455
284,70,77972,2,0,P|302:18|376:73,1,180.000006866455
368,107,78433,2,0,P|413:135|342:195,1,180.000006866455
277,168,78895,1,0,0:0:0:0:
344,196,79356,6,0,P|416:167|368:107,1,180.000006866455
376,73,79817,2,0,P|332:9|284:70,1,180.000006866455
253,57,80279,2,0,P|177:41|185:119,1,180.000006866455
216,145,80741,2,0,P|200:221|246:234,1,120.000004577637
308,247,81202,6,0,P|384:263|397:217,1,120.000004577637
422,157,81664,2,0,P|438:81|392:68,1,120.000004577637
328,67,82125,2,0,P|280:39|239:76,1,120.000004577637
241,161,82587,2,0,P|269:209|226:256,1,120.000004577637
148,244,83048,6,0,P|119:195|156:154,3,120.000004577637
240,155,83971,2,0,P|288:183|329:146,3,120.000004577637
333,62,84894,6,0,L|399:62,8,60.0000022888184
322,145,86048,2,0,L|261:145,1,60.0000022888184
219,145,86279,6,0,P|222:209|120:151,1,240.000009155274
249,45,87202,1,0,0:0:0:0:
249,45,87433,1,0,0:0:0:0:
249,45,87664,2,0,P|311:33|356:73,2,120
250,133,88587,6,0,P|258:177|217:216,1,80
153,185,89048,2,0,P|127:221|70:220,1,80
61,146,89510,2,0,P|24:120|50:45,2,120
90,148,90318,1,0,0:0:0:0:
133,147,90433,1,0,0:0:0:0:
308,147,90894,6,0,P|310:211|335:234,1,80
404,202,91356,2,0,P|450:245|504:230,2,120
402,157,92164,1,0,0:0:0:0:
400,113,92279,6,0,P|393:70|378:48,3,40
354,54,92741,2,0,P|311:47|289:31,3,40
271,42,93202,2,0,P|228:49|206:64,1,40
190,62,93433,1,0,0:0:0:0:
156,89,93548,2,0,P|119:130|120:172,1,80
118,196,93894,2,0,P|115:251|99:271,1,80
299,322,94587,6,0,P|315:278|370:264,1,80
430,265,95048,2,0,P|462:243|461:167,2,120
349,229,95971,2,0,P|327:261|261:265,1,80
234,204,96433,2,0,P|195:212|146:167,1,80
196,113,96894,2,0,P|163:91|176:12,2,120
239,115,97702,5,0,0:0:0:0:
283,115,97818,2,0,P|346:95|407:166,1,160
253,250,98741,2,0,P|293:291|351:286,2,120
241,162,99664,2,0,P|208:109|137:110,1,120
111,109,100125,2,0,P|58:142|59:213,1,120
62,238,100587,1,0,0:0:0:0:
109,312,100818,6,0,P|175:301|204:311,1,80
270,331,101279,1,0,0:0:0:0:
310,346,101394,1,0,0:0:0:0:
350,327,101510,6,0,P|377:281|414:334,1,120.000004577637
502,312,101971,2,0,P|534:269|488:243,1,120.000004577637
427,184,102433,2,0,P|420:131|332:179,2,180.000006866455
423,267,103356,6,0,P|396:312|354:280,1,120.000004577637
280,239,103818,2,0,P|228:252|221:199,1,120.000004577637
262,126,104279,2,0,P|271:47|346:72,2,180.000006866455
286,160,105087,1,0,0:0:0:0:
308,195,105202,1,0,0:0:0:0:
185,310,105664,6,0,P|127:315|134:257,1,120.000004577637
152,186,106125,2,0,P|107:148|193:107,2,180.000006866455
193,195,106933,1,0,0:0:0:0:
234,199,107048,6,0,B|272:189|272:189|297:201|297:201|323:189|323:189|361:199,1,120.000004577637
430,204,107510,2,0,B|436:227|436:227|424:253|424:253|441:290|441:290|426:316,1,120.000004577637
342,309,107971,2,0,B|321:264|321:264|350:232|350:232|320:195|320:195|350:136,2,180.000006866455
249,333,108894,6,0,P|226:289|222:337,1,120.000004577637
189,218,109356,2,0,P|139:177|188:136,1,120.000004577637
242,113,109818,2,0,P|241:48|334:61,2,180.000006866455
279,188,110741,6,0,P|300:238|353:224,1,120.000004577637
422,176,111202,2,0,P|472:197|458:250,1,120.000004577637
381,284,111664,2,0,P|391:348|297:348,1,180.000006866455
280,314,112125,2,0,P|229:293|201:340,1,120.000004577637
121,315,112587,6,0,P|56:325|93:198,1,240.000009155274
149,176,113279,1,0,0:0:0:0:
232,171,113510,2,0,P|271:209|321:122,2,180.000006866455
221,130,114318,1,0,0:0:0:0:
218,88,114433,6,0,P|178:25|114:87,1,180.000006866455
110,121,114894,2,0,P|47:160|109:224,1,180.000006866455
144,229,115356,2,0,P|183:291|247:229,1,180.000006866455
257,195,115818,5,0,0:0:0:0:
267,111,116048,5,0,0:0:0:0:
278,30,116279,5,0,0:0:0:0:
