osu file format v14

[General]
AudioFilename: audio.mp3
AudioLeadIn: 0
PreviewTime: 59989
Countdown: 0
SampleSet: Soft
StackLeniency: 0.7
Mode: 0
LetterboxInBreaks: 0
WidescreenStoryboard: 1

[Editor]
Bookmarks: 9219,16604,31373,38758,46143,60912,75681,83181,97835,112604,127373,142143,156912
DistanceSpacing: 0.8
BeatDivisor: 4
GridSize: 32
TimelineZoom: 1.4

[Metadata]
Title:Snowdrop
TitleUnicode:Snowdrop
Artist:IAHN
ArtistUnicode:IAHN
Creator:Milan-
Version:Normal
Source:
Tags:featured artist
BeatmapID:1513249
BeatmapSetID:716219

[Difficulty]
HPDrainRate:3
CircleSize:4
OverallDifficulty:3
ApproachRate:4.5
SliderMultiplier:1
SliderTickRate:1

[Events]
//Background and Video events
0,0,"snowdrop.jpg",0,0
//Break Periods
2,31573,35652
2,112804,125190
//Storyboard Layer 0 (Background)
//Storyboard Layer 1 (Fail)
//Storyboard Layer 2 (Pass)
//Storyboard Layer 3 (Foreground)
//Storyboard Sound Samples

[TimingPoints]
1835,461.538461538462,4,2,0,55,1,0
16604,-100,4,2,0,55,0,0
17066,-100,4,2,0,55,0,0
22143,-100,4,2,0,55,0,0
23758,-100,4,2,0,55,0,0
28604,-100,4,2,0,55,0,0
29296,-100,4,2,0,50,0,0
36912,-100,4,2,0,35,0,0
38758,-100,4,2,0,40,0,0
46143,-100,4,2,0,45,0,0
46604,-100,4,2,0,45,0,0
53527,-100,4,2,0,45,0,0
53989,-100,4,2,0,45,0,0
59066,-100,4,2,0,50,0,0
59296,-100,4,2,0,50,0,0
60911,-100,4,2,0,55,0,1
61027,-200,4,2,0,55,0,0
61373,-100,4,2,0,55,0,1
66450,-100,4,2,0,55,0,1
68296,-100,4,2,0,55,0,1
72912,-100,4,2,0,55,0,1
73604,-100,4,2,0,55,0,1
75681,-100,4,2,0,45,0,0
82373,-100,4,2,0,30,0,0
83066,-100,4,2,0,50,0,0
96450,-100,4,2,0,50,0,0
97373,-100,4,2,0,50,0,0
97835,-100,4,2,0,45,0,0
98296,-100,4,2,0,45,0,0
111219,-100,4,2,0,45,0,0
126450,-100,4,2,0,50,0,0
127373,-100,4,2,0,55,0,1
127488,-200,4,2,0,55,0,0
127835,-100,4,2,0,55,0,1
132911,-100,4,2,0,55,0,1
134757,-100,4,2,0,55,0,1
139373,-100,4,2,0,55,0,1
139719,-100,4,2,0,55,0,1
140065,-100,4,2,0,55,0,1
142142,-100,4,2,0,55,0,0

[Colours]
Combo1 : 168,196,159
Combo2 : 187,198,208
Combo3 : 226,215,173
Combo4 : 208,187,198

[HitObjects]
487,24,16604,5,4,3:0:0:0:
423,72,17066,6,0,P|402:68|357:56,2,50,4|2|0,0:0|0:0|1:0,0:0:0:0:
440,107,17758,2,0,P|455:159|443:212,1,100,2|2,0:0|0:0,0:0:0:0:
416,229,18450,2,0,P|386:233|323:236,2,75,2|2|2,1:2|0:0|0:0,0:0:0:0:
441,259,19373,1,0,1:0:0:0:
387,318,19835,1,2,1:2:0:0:
322,365,20296,6,0,P|279:348|217:343,1,100,6|2,1:2|1:2,0:0:0:0:
188,327,20989,2,0,P|134:345|84:347,1,100,2|2,0:0|0:0,0:0:0:0:
57,325,21681,1,0,1:2:0:0:
80,248,22143,5,6,0:0:0:0:
36,181,22604,1,6,0:0:0:0:
103,138,23066,1,6,0:0:0:0:
147,205,23527,2,0,P|180:209|215:205,1,50,6|0,0:0|1:0,0:0:0:0:
230,230,23989,6,0,P|261:218|296:145,1,100,4|0,0:0|1:0,0:0:0:0:
283,125,24681,2,0,P|287:46|311:24,1,100,2|0,0:0|0:0,0:0:0:0:
337,36,25373,1,2,1:2:0:0:
366,62,25604,2,0,P|410:118|482:100,1,150,2|2,0:0|1:2,0:0:0:0:
496,180,26758,1,2,1:2:0:0:
476,257,27219,1,2,1:2:0:0:
420,314,27681,6,0,P|384:308|310:314,1,100,6|0,0:0|1:0,0:0:0:0:
289,286,28373,1,2,0:0:0:0:
252,302,28604,2,0,P|203:311|170:313,2,75,6|6|4,1:2|1:2|1:2,0:0:0:0:
256,192,29758,12,2,31373,0:0:0:0:
253,52,36912,6,0,P|206:53|135:37,3,100,2|2|2|10,0:0|0:0|0:0|0:0,0:0:0:0:
85,84,38758,6,0,P|75:122|63:199,1,100,6|0,0:0|3:0,0:0:0:0:
103,191,39450,2,0,P|119:246|130:296,1,100,2|0,0:0|0:0,0:0:0:0:
122,327,40143,1,0,3:0:0:0:
199,345,40604,2,0,P|255:338|301:328,1,100,2|0,3:2|0:0,0:0:0:0:
325,300,41296,2,0,P|363:302|433:320,1,100,2|0,0:0|0:0,0:0:0:0:
463,312,41989,1,0,3:0:0:0:
501,242,42450,6,0,P|512:186|497:134,1,100,2|2,3:2|3:2,0:0:0:0:
425,166,43373,2,0,P|415:117|426:68,1,100,2|0,3:2|3:0,0:0:0:0:
430,28,44066,2,0,P|361:78|193:41,1,250,4|0,0:0|0:0,0:0:0:0:
136,14,45681,2,0,B|122:61|122:61|147:121,1,100,2|4,3:2|0:0,0:0:0:0:
195,167,46604,5,0,1:0:0:0:
123,202,47066,1,0,1:0:0:0:
50,236,47527,2,0,L|-17:224,2,50,2|2|2,1:2|0:0|1:2,0:0:0:0:
100,298,48450,1,0,1:0:0:0:
159,359,48912,1,0,1:0:0:0:
159,359,49143,2,0,L|213:371,2,50,2|0|2,0:0|1:0|0:0,0:0:0:0:
182,326,49835,6,0,P|230:323|281:286,1,100,2|0,1:2|1:0,0:0:0:0:
298,265,50527,2,0,P|344:247|402:241,1,100,2|0,0:2|0:0,0:0:0:0:
433,244,51219,1,0,1:2:0:0:
457,167,51681,6,0,P|387:111|323:80,1,150,6|2,0:0|0:0,0:0:0:0:
269,35,52835,2,0,P|199:91|135:122,1,150,6|6,0:0|0:0,0:0:0:0:
67,135,53989,6,0,P|37:214|32:242,1,100,2|0,1:2|1:2,0:0:0:0:
59,304,54912,1,0,1:2:0:0:
134,277,55373,1,2,1:2:0:0:
205,312,55835,1,0,1:0:0:0:
284,307,56296,1,0,1:0:0:0:
340,250,56758,2,0,P|344:229|349:195,1,50,2|2,1:2|0:0,0:0:0:0:
329,165,57219,6,0,P|318:132|299:48,1,100,6|2,1:2|1:2,0:0:0:0:
368,23,58143,2,0,P|383:70|394:119,1,100,2|6,1:2|1:2,0:0:0:0:
454,172,59066,6,0,P|453:200|446:227,1,50,0|6,1:0|1:2,0:0:0:0:
416,246,59527,2,0,P|392:304|388:359,1,100,6|0,1:2|1:0,0:0:0:0:
351,357,60219,1,0,1:0:0:0:
312,366,60450,2,0,P|292:363|250:349,1,50,0|0,1:0|1:0,0:0:0:0:
229,333,60912,5,4,0:0:0:0:
236,253,61373,2,0,P|256:249|302:237,2,50,4|2|0,0:0|0:0|1:0,0:0:0:0:
209,222,62066,2,0,P|216:173|201:125,1,100,2|2,0:0|0:0,0:0:0:0:
163,114,62758,2,0,P|133:118|70:121,2,75,2|2|2,1:2|0:2|0:2,0:0:0:0:
190,84,63681,1,0,1:0:0:0:
265,56,64143,1,2,1:2:0:0:
341,77,64604,6,0,P|379:119|395:166,1,100,6|2,1:2|1:2,0:0:0:0:
431,171,65296,2,0,P|428:247|410:279,1,100,2|2,0:0|0:0,0:0:0:0:
427,306,65989,1,0,1:2:0:0:
359,349,66450,5,6,0:0:0:0:
284,321,66912,1,6,0:0:0:0:
211,286,67373,1,6,0:0:0:0:
138,252,67835,2,0,P|121:292|119:314,1,50,6|0,0:0|1:0,0:0:0:0:
110,337,68296,6,0,P|60:326|2:324,1,100,4|0,0:0|1:0,0:0:0:0:
2,284,68989,2,0,P|30:246|45:189,1,100,2|0,0:0|0:0,0:0:0:0:
35,156,69681,1,2,1:2:0:0:
74,147,69912,2,0,P|121:142|189:60,1,150,2|2,0:0|1:2,0:0:0:0:
267,69,71066,1,2,1:2:0:0:
345,81,71527,1,2,1:2:0:0:
422,99,71989,6,0,P|432:143|434:200,1,100,6|0,0:0|1:0,0:0:0:0:
402,221,72681,1,2,0:0:0:0:
371,246,72912,2,0,P|322:255|289:257,2,75,6|6|4,1:2|1:2|1:2,0:0:0:0:
47,63,75681,6,0,P|95:73|145:80,1,100,6|4,1:2|1:2,0:0:0:0:
179,100,76373,2,0,P|199:154|198:165,1,50,0|0,1:0|1:0,0:0:0:0:
231,168,76835,2,0,P|227:202|215:230,2,50,4|0|0,1:2|1:0|1:2,0:0:0:0:
269,156,77527,6,0,P|319:150|368:128,1,100,4|4,1:2|1:2,0:0:0:0:
395,105,78219,2,0,P|424:81|436:68,1,50,0|0,1:0|1:0,0:0:0:0:
471,61,78681,2,0,P|477:24|481:4,2,50,4|0|0,1:2|1:0|1:2,0:0:0:0:
488,97,79373,6,0,P|493:165|501:215,1,100,4|4,1:2|1:2,0:0:0:0:
478,231,80066,2,0,P|427:234|422:234,1,50,0|0,1:0|1:0,0:0:0:0:
400,262,80527,2,0,P|357:285|344:288,2,50,4|0|0,1:2|1:0|1:2,0:0:0:0:
387,224,81219,2,0,B|377:187|377:187|373:150,2,75,4|4|4,1:2|1:2|1:2,0:0:0:0:
253,372,83066,6,0,P|188:358|151:270,1,150,6|2,0:0|0:0,0:0:0:0:
116,216,84219,1,2,0:0:0:0:
154,204,84450,2,0,P|170:195|200:173,1,50,2|2,1:2|0:0,0:0:0:0:
228,154,84912,6,0,P|255:120|279:47,1,100,6|0,1:2|0:0,0:0:0:0:
251,35,85604,1,2,0:0:0:0:
210,34,85835,2,0,P|138:62|98:61,1,100,2|2,1:2|1:2,0:0:0:0:
42,93,86758,6,0,P|23:54|18:10,2,75,6|2|2,1:2|0:2|0:0,0:0:0:0:
43,133,87681,1,2,1:2:0:0:
99,190,88143,1,2,1:2:0:0:
55,257,88604,6,0,P|35:302|73:358,1,100,6|6,1:2|1:2,0:0:0:0:
129,373,89527,2,0,P|148:328|128:283,1,100,6|6,1:2|1:2,0:0:0:0:
166,213,90450,6,0,P|230:234|290:181,1,150,6|2,1:2|0:0,0:0:0:0:
349,132,91604,1,2,0:0:0:0:
386,146,91835,2,0,P|422:147|457:138,1,50,2|2,1:2|0:0,0:0:0:0:
461,113,92296,2,0,P|481:93|493:12,1,100,6|0,1:2|1:0,0:0:0:0:
457,12,92989,1,2,0:0:0:0:
420,27,93219,2,0,P|371:44|325:31,1,100,6|0,1:2|1:0,0:0:0:0:
245,26,94143,5,6,1:2:0:0:
169,52,94604,1,2,1:2:0:0:
104,99,95066,2,0,L|42:87,2,50,6|2|2,1:2|0:0|1:2,0:0:0:0:
116,137,95758,1,2,0:2:0:0:
442,288,97835,5,6,0:0:0:0:
367,316,98296,1,0,1:0:0:0:
286,316,98758,1,0,1:0:0:0:
210,289,99219,2,0,L|143:277,2,50,2|2|2,1:2|0:0|1:2,0:0:0:0:
264,230,100143,1,0,1:0:0:0:
224,160,100604,1,0,1:0:0:0:
224,160,100835,2,0,L|194:113,2,50,2|0|2,0:0|1:0|0:0,0:0:0:0:
261,145,101527,6,0,P|331:119|354:82,1,100,2|0,1:2|1:0,0:0:0:0:
382,116,102219,2,0,P|416:70|421:27,1,100,2|0,0:2|0:0,0:0:0:0:
388,5,102912,1,0,1:2:0:0:
308,16,103373,6,0,P|215:30|140:26,1,150,6|2,0:0|0:0,0:0:0:0:
163,108,104527,2,0,P|70:94|-5:98,1,150,6|6,0:0|0:0,0:0:0:0:
42,170,105681,6,0,P|12:249|7:277,1,100,2|0,1:2|1:2,0:0:0:0:
60,325,106604,1,0,1:2:0:0:
123,276,107066,1,2,1:2:0:0:
201,258,107527,1,0,1:0:0:0:
279,272,107989,1,0,1:0:0:0:
349,309,108450,2,0,P|353:288|358:254,1,50,2|2,1:2|0:0,0:0:0:0:
392,241,108912,6,0,P|381:208|362:124,1,100,6|2,1:2|1:2,0:0:0:0:
285,154,109835,2,0,P|274:105|258:57,1,100,2|6,1:2|1:2,0:0:0:0:
180,43,110758,6,0,P|179:71|172:98,1,50,0|6,1:0|1:2,0:0:0:0:
140,113,111219,2,0,P|116:171|112:226,1,100,6|0,1:2|1:0,0:0:0:0:
109,247,111912,1,0,1:0:0:0:
90,282,112143,2,0,P|70:279|28:265,2,50,0|0|6,1:0|1:0|0:0,0:0:0:0:
417,127,126450,6,0,L|470:120,2,50,4|4|4,1:2|1:2|1:2,0:0:0:0:
393,159,127143,1,0,1:0:0:0:
373,193,127373,5,4,0:0:0:0:
390,271,127835,2,0,P|399:290|408:331,2,50,4|2|0,0:0|0:0|1:0,0:0:0:0:
352,283,128527,2,0,P|291:324|251:323,1,100,2|2,0:0|0:0,0:0:0:0:
230,308,129219,2,0,P|200:312|137:315,2,75,2|2|2,1:2|0:2|0:2,0:0:0:0:
247,271,130143,1,0,1:0:0:0:
216,197,130604,1,2,1:2:0:0:
142,228,131066,6,0,P|104:186|88:139,1,100,6|2,1:2|1:2,0:0:0:0:
52,134,131758,2,0,P|55:58|73:26,1,100,2|2,0:0|0:0,0:0:0:0:
56,0,132450,1,0,1:2:0:0:
136,2,132912,5,6,0:0:0:0:
204,43,133373,1,6,0:0:0:0:
240,114,133835,1,6,0:0:0:0:
244,193,134296,2,0,P|227:233|225:255,1,50,6|0,0:0|1:0,0:0:0:0:
257,264,134758,6,0,P|307:253|365:251,1,100,4|0,0:0|1:0,0:0:0:0:
395,258,135450,2,0,P|423:220|438:163,1,100,2|0,0:0|0:0,0:0:0:0:
421,133,136143,1,2,1:2:0:0:
417,93,136373,2,0,P|370:88|302:6,1,150,2|2,0:0|1:2,0:0:0:0:
228,41,137527,1,2,1:2:0:0:
150,23,137989,1,2,1:2:0:0:
77,57,138450,6,0,P|87:101|89:158,1,100,6|0,0:0|1:0,0:0:0:0:
80,194,139143,1,2,0:0:0:0:
73,233,139373,2,0,P|24:242|-9:244,2,75,6|6|4,1:2|1:2|1:2,0:0:0:0:
256,192,140527,12,6,142143,1:2:0:0:
