osu file format v14

[General]
AudioFilename: audio.mp3
AudioLeadIn: 0
PreviewTime: 59989
Countdown: 0
SampleSet: Soft
StackLeniency: 0.7
Mode: 0
LetterboxInBreaks: 0
WidescreenStoryboard: 1

[Editor]
Bookmarks: 9219,16604,31373,38758,46143,60912,75681,83181,97835,112604,127373,142143,156912
DistanceSpacing: 1.1
BeatDivisor: 4
GridSize: 32
TimelineZoom: 1.6

[Metadata]
Title:Snowdrop
TitleUnicode:Snowdrop
Artist:IAHN
ArtistUnicode:IAHN
Creator:Milan-
Version:Hard
Source:
Tags:featured artist
BeatmapID:1513247
BeatmapSetID:716219

[Difficulty]
HPDrainRate:4
CircleSize:4.5
OverallDifficulty:5
ApproachRate:6
SliderMultiplier:1.4
SliderTickRate:1

[Events]
//Background and Video events
0,0,"snowdrop.jpg",0,0
//Break Periods
2,31572,35862
2,112804,125400
//Storyboard Layer 0 (Background)
//Storyboard Layer 1 (Fail)
//Storyboard Layer 2 (Pass)
//Storyboard Layer 3 (Foreground)
//Storyboard Sound Samples

[TimingPoints]
1835,461.538461538462,4,2,0,55,1,0
16604,-200,4,2,0,55,0,0
17066,-100,4,2,0,55,0,0
22142,-83.3333333333333,4,2,0,55,0,0
23758,-100,4,2,0,55,0,0
28604,-83.3333333333333,4,2,0,55,0,0
29296,-100,4,2,0,50,0,0
36912,-100,4,2,0,35,0,0
38758,-133.333333333333,4,2,0,40,0,0
46143,-200,4,2,0,45,0,0
46604,-111.111111111111,4,2,0,45,0,0
53527,-200,4,2,0,45,0,0
53989,-111.111111111111,4,2,0,45,0,0
59066,-111.111111111111,4,2,0,50,0,0
59296,-90.9090909090909,4,2,0,50,0,0
60911,-200,4,2,0,55,0,1
61027,-200,4,2,0,55,0,0
61373,-100,4,2,0,55,0,1
66450,-83.3333333333333,4,2,0,55,0,1
68296,-100,4,2,0,55,0,1
72912,-83.3333333333333,4,2,0,55,0,1
73604,-100,4,2,0,55,0,1
75681,-125,4,2,0,45,0,0
82373,-125,4,2,0,30,0,0
83066,-90.9090909090909,4,2,0,50,0,0
96450,-100,4,2,0,50,0,0
97373,-133.333333333333,4,2,0,50,0,0
97835,-200,4,2,0,45,0,0
98296,-111.111111111111,4,2,0,45,0,0
111219,-90.9090909090908,4,2,0,45,0,0
126450,-90.9090909090908,4,2,0,50,0,0
127373,-200,4,2,0,55,0,1
127488,-200,4,2,0,55,0,0
127835,-100,4,2,0,55,0,1
132911,-83.3333333333333,4,2,0,55,0,1
134757,-100,4,2,0,55,0,1
139373,-83.3333333333333,4,2,0,55,0,1
139719,-83.3333333333333,4,2,0,55,0,1
140065,-100,4,2,0,55,0,1
142142,-125,4,2,0,55,0,0

[Colours]
Combo1 : 168,196,159
Combo2 : 187,198,208
Combo3 : 226,215,173
Combo4 : 208,187,198

[HitObjects]
473,89,16604,5,4,3:0:0:0:
473,88,17066,6,0,P|451:115|421:132,2,70,4|2|0,0:0|0:0|1:0,0:0:0:0:
420,31,17758,2,0,P|389:48|368:75,1,70,2|0,0:0|0:0,0:0:0:0:
345,149,18219,1,2,0:0:0:0:
269,133,18450,5,2,1:2:0:0:
238,244,18796,1,2,0:0:0:0:
122,231,19143,1,2,0:0:0:0:
106,306,19373,2,0,P|71:313|56:312,2,35,0|0|0,1:0|1:0|0:0,0:0:0:0:
162,359,19835,2,0,P|212:355|240:343,1,70,2|2,1:2|0:0,0:0:0:0:
303,378,20296,6,0,P|300:328|324:223,1,140,6|2,1:2|1:2,0:0:0:0:
394,238,20989,2,0,P|397:188|373:83,1,140,2|2,0:0|0:0,0:0:0:0:
326,44,21681,2,0,P|290:72|261:86,1,70,0|2,1:2|0:0,0:0:0:0:
196,18,22142,6,0,B|133:30|133:30|78:0,1,125.999996154785,6|0,0:0|0:0,0:0:0:0:
79,0,22604,2,0,B|91:62|91:62|60:117,1,125.999996154785,6|0,0:0|0:0,0:0:0:0:
61,116,23065,2,0,B|123:103|123:103|178:134,1,125.999996154785,6|0,0:0|1:0,0:0:0:0:
177,133,23527,1,6,0:0:0:0:
116,200,23758,1,0,1:0:0:0:
116,200,23873,1,0,1:0:0:0:
116,200,23989,6,0,P|166:236|167:313,1,140,4|0,0:0|1:0,0:0:0:0:
114,364,24681,1,2,0:0:0:0:
43,332,24912,2,0,L|-3:337,1,35,2|2,1:2|0:0,0:0:0:0:
0,241,25258,2,0,L|46:246,1,35,2|2,0:0|1:2,0:0:0:0:
32,151,25604,2,0,P|25:104|150:84,1,210,2|2,0:0|1:2,0:0:0:0:
302,64,26758,1,2,1:2:0:0:
454,40,27219,1,2,1:2:0:0:
454,40,27681,6,0,P|430:95|422:184,1,140,6|0,0:0|1:0,0:0:0:0:
466,236,28373,1,2,0:0:0:0:
458,349,28604,6,0,B|426:320|426:320|365:315,1,83.9999974365235,6|0,1:2|1:0,0:0:0:0:
384,316,28950,2,0,L|375:356,1,41.9999987182618,6|0,1:2|1:0,0:0:0:0:
285,320,29296,6,0,P|361:278|128:212,1,630,4|2,1:2|0:0,0:0:0:0:
356,46,36912,5,2,0:0:0:0:
432,34,37373,1,2,0:0:0:0:
279,58,37835,1,2,0:0:0:0:
506,22,38296,1,10,0:0:0:0:
495,254,38758,6,0,L|406:239,1,78.7500030040742,6|2,0:0|0:0,0:0:0:0:
417,240,39219,2,0,P|400:285|397:307,1,52.5000020027161,0|2,3:0|0:0,0:0:0:0:
334,325,39681,2,0,P|327:299|315:276,1,52.5000020027161,0|0,3:0|0:0,0:0:0:0:
246,249,40143,1,0,3:0:0:0:
200,306,40373,1,0,0:0:0:0:
127,295,40604,5,2,3:2:0:0:
154,188,40950,1,2,0:2:0:0:
52,145,41296,2,0,P|107:119|128:63,1,105.000004005432,2|0,0:0|0:0,0:0:0:0:
180,31,41989,2,0,P|210:31|247:28,1,52.5000020027161,0|0,3:0|0:0,0:0:0:0:
308,15,42450,6,0,P|318:74|322:114,1,78.7500030040742,2|2,3:2|0:0,0:0:0:0:
320,92,42912,2,0,P|350:91|387:95,1,52.5000020027161,2|2,3:2|0:0,0:0:0:0:
424,144,43373,2,0,P|422:188|421:206,1,52.5000020027161,2|0,3:2|0:0,0:0:0:0:
470,252,43835,1,0,3:0:0:0:
422,307,44066,2,0,P|367:339|244:282,2,210.000008010865,4|2|2,0:0|0:0|0:0,0:0:0:0:
421,196,46143,1,4,0:0:0:0:
421,196,46604,5,0,1:0:0:0:
356,156,46835,2,0,L|355:105,2,31.4999990386963,2|2|0,0:0|0:0|1:0,0:0:0:0:
294,199,47296,2,0,L|293:250,2,31.4999990386963,2|2|2,0:0|0:0|1:2,0:0:0:0:
231,156,47758,1,2,0:0:0:0:
171,202,47989,5,2,1:2:0:0:
73,144,48335,1,2,0:2:0:0:
72,257,48681,1,2,0:2:0:0:
146,287,48912,2,0,P|157:326|160:365,1,62.9999980773926,0|2,1:0|0:0,0:0:0:0:
159,348,49258,2,0,L|210:348,3,31.4999990386963,2|0|2|2,0:0|1:0|0:0|0:0,0:0:0:0:
260,318,49835,5,2,1:2:0:0:
372,332,50181,1,2,0:2:0:0:
443,244,50527,1,2,0:2:0:0:
372,216,50758,2,0,P|340:168|333:151,1,62.9999980773926,0|0,1:0|0:0,0:0:0:0:
406,130,51219,2,0,P|438:82|445:65,1,62.9999980773926,0|2,1:2|0:0,0:0:0:0:
401,12,51681,6,0,P|359:42|219:68,1,188.999994232178,6|2,0:0|0:0,0:0:0:0:
15,53,52835,2,0,P|90:109|132:206,1,188.999994232178,6|6,0:0|0:0,0:0:0:0:
137,202,53989,6,0,P|131:241|124:306,1,94.499997116089,2|2,1:2|0:0,0:0:0:0:
125,295,54450,2,0,P|95:302|61:311,1,62.9999980773926,0|2,1:2|0:0,0:0:0:0:
92,381,54912,2,0,P|122:374|155:364,1,62.9999980773926,0|2,1:2|0:0,0:0:0:0:
201,307,55373,5,2,1:2:0:0:
311,330,55719,1,2,0:2:0:0:
368,231,56066,1,2,0:2:0:0:
296,205,56296,2,0,P|284:157|286:122,1,62.9999980773926,0|2,1:0|0:0,0:0:0:0:
333,86,56758,2,0,L|379:62,2,31.4999990386963,2|2|2,1:2|0:0|0:0,0:0:0:0:
250,68,57219,5,6,1:2:0:0:
71,114,57681,1,2,1:2:0:0:
117,293,58143,1,2,1:2:0:0:
296,247,58604,1,6,1:2:0:0:
296,247,59066,5,0,1:0:0:0:
239,302,59296,1,6,1:2:0:0:
239,302,59412,1,0,0:0:0:0:
239,302,59527,2,0,P|222:275|219:217,1,77.0000023498536,6|0,1:2|1:0,0:0:0:0:
248,143,59989,1,0,1:0:0:0:
248,143,60104,1,0,0:0:0:0:
248,143,60219,1,0,1:0:0:0:
335,172,60450,1,0,1:0:0:0:
422,141,60681,1,0,1:0:0:0:
446,52,60912,1,4,0:0:0:0:
446,52,61373,6,0,P|424:25|394:8,2,70,4|2|0,0:0|0:0|1:0,0:0:0:0:
374,79,62066,2,0,P|343:96|322:123,1,70,2|0,0:0|0:0,0:0:0:0:
263,172,62527,1,2,0:0:0:0:
250,96,62758,5,2,1:2:0:0:
143,140,63104,1,2,0:2:0:0:
114,28,63450,1,2,0:2:0:0:
49,69,63681,2,0,P|40:51|35:36,2,35,0|0|0,1:0|1:0|0:0,0:0:0:0:
61,145,64143,2,0,P|63:201|47:229,1,70,2|2,1:2|0:0,0:0:0:0:
8,291,64604,6,0,P|97:275|147:256,1,140,6|2,1:2|1:2,0:0:0:0:
178,326,65296,2,0,P|267:342|317:361,1,140,2|2,0:0|0:0,0:0:0:0:
382,325,65989,2,0,P|415:312|457:291,1,70,0|2,1:2|0:0,0:0:0:0:
468,167,66450,6,0,B|428:217|428:217|327:223,1,125.999996154785,6|0,0:0|0:0,0:0:0:0:
366,220,66912,2,0,B|362:158|362:158|312:118,1,125.999996154785,6|0,0:0|0:0,0:0:0:0:
312,118,67373,2,0,B|373:114|373:114|413:64,1,125.999996154785,6|0,0:0|1:0,0:0:0:0:
413,64,67835,1,6,0:0:0:0:
336,11,68066,1,0,1:0:0:0:
336,11,68181,1,0,1:0:0:0:
336,11,68296,6,0,P|288:49|213:31,1,140,4|0,0:0|1:0,0:0:0:0:
142,12,68989,1,2,0:0:0:0:
86,65,69219,2,0,L|66:110,1,35,2|2,1:2|0:0,0:0:0:0:
134,142,69566,2,0,L|136:188,1,35,2|2,0:0|1:2,0:0:0:0:
91,240,69912,2,0,P|183:216|208:308,1,210,2|2,0:0|1:2,0:0:0:0:
277,170,71066,1,2,1:2:0:0:
428,196,71527,1,2,1:2:0:0:
428,196,71989,6,0,P|434:126|460:62,1,140,6|0,0:0|1:0,0:0:0:0:
391,27,72681,1,2,0:0:0:0:
362,118,72912,6,0,B|330:89|330:89|269:84,1,83.9999974365235,6|0,1:2|1:0,0:0:0:0:
288,85,73258,2,0,L|279:125,1,41.9999987182618,6|0,1:2|1:0,0:0:0:0:
187,103,73604,6,0,P|257:147|70:141,1,630,4|6,1:2|1:2,0:0:0:0:
109,76,75912,6,0,L|95:37,1,28,0|0,1:0|1:0,0:0:0:0:
124,52,76143,2,0,L|110:13,2,28,4|0|0,1:2|1:0|1:0,0:0:0:0:
143,35,76489,2,0,L|129:-4,2,28,4|0|0,1:2|1:0|1:0,0:0:0:0:
159,15,76835,2,0,P|189:17|222:10,1,56,4|0,1:2|1:0,0:0:0:0:
300,7,77296,5,0,1:2:0:0:
300,7,77412,1,0,1:0:0:0:
300,7,77527,1,4,1:2:0:0:
333,82,77758,2,0,L|319:121,1,28,0|0,1:0|1:0,0:0:0:0:
354,101,77989,2,0,L|340:140,2,28,4|0|0,1:2|1:0|1:0,0:0:0:0:
373,119,78335,2,0,L|359:158,2,28,4|0|0,1:2|1:0|1:0,0:0:0:0:
391,136,78681,2,0,P|421:134|454:141,1,56,4|0,1:2|1:0,0:0:0:0:
496,220,79143,5,0,1:2:0:0:
496,220,79258,1,0,1:0:0:0:
496,220,79373,1,4,1:2:0:0:
435,301,79604,2,0,L|396:315,1,28,0|0,1:0|1:0,0:0:0:0:
408,285,79835,2,0,L|369:299,2,28,4|0|0,1:2|1:0|1:0,0:0:0:0:
386,270,80181,2,0,L|347:284,2,28,4|0|0,1:2|1:0|1:0,0:0:0:0:
367,252,80527,2,0,P|367:226|354:189,1,56,4|0,1:2|1:0,0:0:0:0:
290,146,80989,5,0,1:2:0:0:
290,146,81104,1,0,1:0:0:0:
290,146,81219,1,4,1:2:0:0:
280,239,81450,2,0,L|237:225,1,28,0|4,1:0|1:2,0:0:0:0:
274,334,81796,2,0,L|231:320,1,28,0|4,1:0|1:2,0:0:0:0:
8,38,83066,6,0,P|80:53|102:123,1,154.000004699707,6|0,0:0|1:0,0:0:0:0:
56,185,83758,2,0,L|71:288,1,77.0000023498536,2|0,0:0|1:0,0:0:0:0:
111,363,84219,1,2,0:0:0:0:
170,314,84450,1,2,1:2:0:0:
240,344,84681,1,2,0:0:0:0:
299,295,84912,5,6,1:2:0:0:
215,171,85258,1,2,0:2:0:0:
347,99,85604,1,2,0:0:0:0:
397,156,85835,2,0,P|443:168|507:88,1,154.000004699707,2|2,1:2|1:2,0:0:0:0:
482,23,86527,1,2,0:0:0:0:
405,16,86758,5,6,1:2:0:0:
271,94,87104,1,2,0:2:0:0:
141,15,87450,1,2,0:0:0:0:
179,81,87681,2,0,P|196:137|189:171,1,77.0000023498536,2|2,1:2|0:0,0:0:0:0:
269,196,88143,2,0,P|255:252|232:278,1,77.0000023498536,2|2,1:2|0:0,0:0:0:0:
245,267,88489,1,2,0:0:0:0:
245,267,88604,6,0,L|175:263,1,38.5000011749268,6|2,1:2|0:0,0:0:0:0:
100,293,88950,1,0,0:0:0:0:
100,293,89066,2,0,L|34:293,1,38.5000011749268,6|2,1:2|0:0,0:0:0:0:
17,186,89412,1,0,0:0:0:0:
17,186,89527,2,0,L|80:186,1,38.5000011749268,6|2,1:2|0:0,0:0:0:0:
142,110,89873,1,0,0:0:0:0:
142,110,89989,2,0,L|209:110,2,38.5000011749268,6|2|0,1:2|0:0|0:0,0:0:0:0:
38,10,90450,5,6,1:2:0:0:
120,25,90681,1,2,0:0:0:0:
203,12,90912,1,2,1:2:0:0:
285,26,91143,2,0,P|338:30|380:17,1,77.0000023498536,2|2,0:0|1:2,0:0:0:0:
449,69,91604,1,2,0:0:0:0:
449,69,91719,1,2,0:0:0:0:
449,69,91835,2,0,P|420:125|412:162,1,77.0000023498536,2|2,1:2|0:0,0:0:0:0:
463,199,92296,5,6,1:2:0:0:
365,313,92643,1,2,0:2:0:0:
232,243,92989,1,2,0:0:0:0:
209,316,93219,2,0,P|160:352|72:339,1,154.000004699707,6|0,1:2|0:0,0:0:0:0:
20,281,93912,1,2,0:0:0:0:
75,227,94143,6,0,B|34:167|34:167|45:68,1,154.000004699707,6|2,1:2|1:2,0:0:0:0:
267,249,95066,6,0,L|216:239,3,38.5000011749268,6|2|2|2,1:2|0:0|0:0|0:0,0:0:0:0:
284,238,95527,1,2,1:2:0:0:
356,207,95758,2,0,B|365:244|365:244|344:310,1,77.0000023498536,2|2,0:0|0:0,0:0:0:0:
288,9,96450,5,0,0:0:0:0:
288,9,96681,1,0,0:0:0:0:
288,9,96911,1,0,0:0:0:0:
333,82,97142,5,0,1:0:0:0:
333,82,97258,1,0,1:0:0:0:
333,82,97373,2,0,L|443:57,1,105.000004005432,6|6,1:2|0:0,0:0:0:0:
487,200,98296,5,0,1:0:0:0:
411,194,98527,2,0,L|412:245,2,31.4999990386963,2|2|0,0:0|0:0|1:0,0:0:0:0:
337,177,98989,2,0,L|338:126,2,31.4999990386963,2|2|2,0:0|0:0|1:2,0:0:0:0:
274,220,99450,1,2,0:0:0:0:
341,255,99681,5,2,1:2:0:0:
241,310,100027,1,2,0:2:0:0:
132,277,100373,1,2,0:2:0:0:
193,232,100604,2,0,P|182:193|179:154,1,62.9999980773926,0|2,1:0|0:0,0:0:0:0:
179,170,100950,2,0,L|129:167,3,31.4999990386963,2|0|2|2,0:0|1:0|0:0|0:0,0:0:0:0:
72,177,101527,5,2,1:2:0:0:
69,63,101873,1,2,0:2:0:0:
182,58,102219,1,2,0:2:0:0:
249,92,102450,2,0,P|297:60|314:53,1,62.9999980773926,0|0,1:0|0:0,0:0:0:0:
365,99,102912,2,0,P|431:88|450:77,1,62.9999980773926,0|2,1:2|0:0,0:0:0:0:
480,150,103373,6,0,P|431:233|413:338,1,188.999994232178,6|2,0:0|0:0,0:0:0:0:
230,384,104527,2,0,P|211:291|163:211,1,188.999994232178,6|6,0:0|0:0,0:0:0:0:
163,211,105681,6,0,L|56:232,1,94.499997116089,2|2,1:2|0:0,0:0:0:0:
70,229,106143,2,0,P|60:187|65:148,1,62.9999980773926,0|2,1:2|0:0,0:0:0:0:
128,134,106604,2,0,P|139:88|144:52,1,62.9999980773926,0|2,1:2|0:0,0:0:0:0:
196,20,107066,5,2,1:2:0:0:
300,64,107412,1,2,0:2:0:0:
412,44,107758,1,2,0:2:0:0:
390,116,107989,2,0,P|402:164|400:199,1,62.9999980773926,0|2,1:0|0:0,0:0:0:0:
356,237,108450,2,0,L|310:261,2,31.4999990386963,2|2|2,1:2|0:0|0:0,0:0:0:0:
430,248,108912,5,6,1:2:0:0:
258,324,109373,1,2,1:2:0:0:
182,152,109835,1,2,1:2:0:0:
354,76,110296,1,6,1:2:0:0:
354,76,110758,5,0,1:0:0:0:
286,42,110989,1,6,1:2:0:0:
218,8,111219,2,0,P|169:31|46:54,1,154.000004699707,6|0,1:2|1:0,0:0:0:0:
18,129,111912,1,0,1:0:0:0:
102,164,112143,1,0,1:0:0:0:
126,253,112373,1,0,1:0:0:0:
85,336,112604,5,6,0:0:0:0:
16,89,126450,6,0,L|19:136,3,38.5000011749268,4|0|4|0,1:2|1:0|1:2|1:0,0:0:0:0:
33,142,126912,1,4,1:2:0:0:
49,234,127143,1,0,1:0:0:0:
66,332,127373,1,4,0:0:0:0:
66,332,127835,6,0,P|88:359|118:376,2,70,4|2|0,0:0|0:0|1:0,0:0:0:0:
138,305,128527,2,0,P|169:288|190:261,1,70,2|0,0:0|0:0,0:0:0:0:
249,212,128989,1,2,0:0:0:0:
262,288,129219,5,2,1:2:0:0:
369,244,129566,1,2,0:2:0:0:
403,354,129912,1,2,0:2:0:0:
469,315,130142,2,0,P|482:335|490:351,2,35,0|0|0,1:0|1:0|0:0,0:0:0:0:
451,239,130604,2,0,P|449:183|465:155,1,70,2|2,1:2|0:0,0:0:0:0:
504,93,131066,6,0,P|415:109|365:128,1,140,6|2,1:2|1:2,0:0:0:0:
334,58,131758,2,0,P|245:42|195:23,1,140,2|2,0:0|0:0,0:0:0:0:
168,96,132450,2,0,P|135:109|93:130,1,70,0|2,1:2|0:0,0:0:0:0:
12,197,132912,6,0,B|35:256|35:256|-9:347,1,125.999996154785,6|0,0:0|0:0,0:0:0:0:
7,312,133373,2,0,B|66:288|66:288|157:334,1,125.999996154785,6|0,0:0|0:0,0:0:0:0:
122,316,133835,2,0,B|98:256|98:256|144:165,1,125.999996154785,6|0,0:0|1:0,0:0:0:0:
126,200,134296,1,6,0:0:0:0:
202,276,134527,1,0,1:0:0:0:
202,276,134643,1,0,1:0:0:0:
202,276,134758,6,0,P|250:314|325:296,1,140,4|0,0:0|1:0,0:0:0:0:
396,318,135450,1,2,0:0:0:0:
459,274,135681,2,0,L|479:229,1,35,2|2,1:2|0:0,0:0:0:0:
404,206,136027,2,0,L|402:160,1,35,2|2,0:0|1:2,0:0:0:0:
462,122,136373,2,0,P|370:146|345:54,1,210,2|2,0:0|1:2,0:0:0:0:
248,175,137527,1,2,1:2:0:0:
96,146,137989,1,2,1:2:0:0:
96,146,138450,6,0,P|90:216|64:280,1,140,6|0,0:0|1:0,0:0:0:0:
32,350,139143,1,2,0:0:0:0:
136,323,139373,6,0,B|168:352|168:352|229:357,1,83.9999974365235,6|0,1:2|1:0,0:0:0:0:
210,356,139719,2,0,L|219:316,1,41.9999987182618,6|0,1:2|1:0,0:0:0:0:
221,217,140066,6,0,P|466:273|324:126,1,630,4|6,1:2|1:2,0:0:0:0:
