osu file format v14

[General]
AudioFilename: audio.mp3
AudioLeadIn: 0
PreviewTime: 0
Countdown: 0
SampleSet: Soft
StackLeniency: 0.8
Mode: 0
LetterboxInBreaks: 0
WidescreenStoryboard: 1

[Editor]
Bookmarks: 1413,12910,24407,35904,47401,58898,70395,81892,93389,104886,114946,116383
DistanceSpacing: 1.6
BeatDivisor: 2
GridSize: 4
TimelineZoom: 1

[Metadata]
Title:Pink Love (feat. Lency)
TitleUnicode:Pink Love (feat. Lency)
Artist:IAHN
ArtistUnicode:IAHN
Creator:_83
Version:kwk's Normal
Source:osu!
Tags:kwk lasse
BeatmapID:1413249
BeatmapSetID:667043

[Difficulty]
HPDrainRate:4
CircleSize:3.4
OverallDifficulty:4
ApproachRate:5
SliderMultiplier:1.1
SliderTickRate:1

[Events]
//Background and Video events
0,0,"qNlaBNM.jpg",0,0
//Break Periods
//Storyboard Layer 0 (Background)
//Storyboard Layer 1 (Fail)
//Storyboard Layer 2 (Pass)
//Storyboard Layer 3 (Foreground)
//Storyboard Sound Samples

[TimingPoints]
-24,359.281437125748,4,2,0,60,1,0
1413,-100,4,2,0,60,0,0
11473,-100,4,2,0,80,0,0
12910,-100,4,2,0,80,0,0
17041,-100,4,2,0,85,0,0
18658,-100,4,2,0,80,0,0
24407,-100,4,2,0,100,0,0
35904,-100,4,2,0,50,0,0
47401,-100,4,2,0,65,0,0
58898,-100,4,2,0,65,0,0
70395,-100,4,2,0,80,0,1
93299,-100,4,2,0,95,0,0
93389,-100,4,2,0,95,0,1
102011,-100,4,2,0,85,0,1
104886,-100,4,2,0,60,0,0
110634,-100,4,2,0,70,0,0
114946,-100,4,2,0,60,0,0

[Colours]
Combo1 : 190,5,43
Combo2 : 255,128,192
Combo3 : 255,0,128

[HitObjects]
116,60,1413,5,4,0:0:0:0:
92,168,1772,1,2,0:0:0:0:
132,268,2131,2,0,P|196:280|256:240,1,110,2|0,0:0|0:0,0:0:0:0:
272,224,2670,2,0,P|332:204|436:232,1,165,0|0,3:3|3:0,0:0:0:0:
448,280,3389,2,0,P|431:219|464:116,1,165,2|0,0:0|3:0,0:0:0:0:
500,88,4107,1,0,3:0:0:0:
284,56,4826,2,0,L|156:16,1,110
192,132,5544,2,0,P|239:168|342:159,1,165,2|0,0:0|3:0,0:0:0:0:
380,120,6263,2,0,B|515:87|515:87|479:155,1,165,2|2,0:0|3:0,0:0:0:0:
456,212,7161,5,4,0:3:0:0:
412,312,7520,1,4,0:3:0:0:
324,244,7880,2,0,P|248:224|152:260,1,165,0|0,3:0|3:0,0:0:0:0:
116,228,8598,2,0,P|92:152|120:96,1,110,2|0,0:0|3:0,0:0:0:0:
132,80,9137,1,2,0:0:0:0:
204,164,9496,1,0,3:0:0:0:
204,164,9676,1,2,3:0:0:0:
292,100,10035,6,0,P|428:144|300:208,1,330,4|0,0:3|3:0,0:0:0:0:
244,292,11473,1,2,1:0:0:0:
244,292,11652,1,0,1:0:0:0:
140,252,12011,1,4,3:0:0:0:
36,292,12371,2,0,P|32:220|64:176,1,110,0|0,3:0|1:0,0:0:0:0:
96,160,12910,6,0,L|220:132,1,110,4|0,1:0|1:0,0:0:0:0:
312,132,13628,2,0,L|419:156,1,110,8|0,3:0|1:0,0:0:0:0:
468,180,14167,2,0,B|512:284|512:284|452:268,1,165,6|0,0:0|1:0,0:0:0:0:
408,260,14886,2,0,P|316:252|232:292,1,165,4|0,0:0|1:0,0:0:0:0:
180,364,15784,5,4,0:0:0:0:
108,284,16143,2,0,P|60:292|-4:272,2,110,0|4|2,1:0|3:0|3:0,0:0:0:0:
135,236,17041,2,0,B|179:132|179:132|119:148,1,165,6|0,1:0|1:0,0:0:0:0:
73,146,17760,2,0,P|49:86|93:34,1,110,2|4,1:0|3:0,0:0:0:0:
236,68,18658,5,2,1:2:0:0:
336,20,19017,1,2,1:2:0:0:
436,72,19377,2,0,P|468:120|428:256,1,165,4|0,3:0|3:0,0:0:0:0:
424,268,20095,2,0,P|372:283|312:264,1,110,6|0,0:0|1:0,0:0:0:0:
300,220,20634,2,0,L|280:92,1,110,4|4,3:0|3:0,0:0:0:0:
280,56,21173,1,0,1:0:0:0:
168,56,21532,6,0,B|144:96|168:136|168:140|168:144|200:180|152:252,1,165,2|4,3:0|3:0,0:0:0:0:
140,264,22251,1,0,1:0:0:0:
192,360,22610,2,0,L|304:324,1,110,2|6,1:2|0:0,0:0:0:0:
396,288,23329,1,0,1:0:0:0:
396,288,23508,1,0,1:0:0:0:
184,112,24407,6,0,L|36:120,1,110,4|0,1:0|1:0,0:0:0:0:
16,212,25125,2,0,P|64:232|152:192,1,110,4|0,3:0|1:0,0:0:0:0:
172,208,25664,2,0,B|264:200|264:200|328:248,1,165,2|0,3:2|1:0,0:0:0:0:
328,300,26383,2,0,P|404:324|480:260,1,165,4|0,0:0|1:0,0:0:0:0:
512,184,27281,6,0,B|516:128|516:128|496:76,1,110,4|0,3:0|1:0,0:0:0:0:
388,52,27999,2,0,B|345:88|345:88|322:139,1,110,8|4,3:0|3:0,0:0:0:0:
332,192,28538,2,0,B|368:316|368:316|300:284,1,165,2|0,3:0|1:0,0:0:0:0:
284,284,29257,2,0,P|196:276|112:320,1,165,6|0,0:0|3:0,0:0:0:0:
32,364,30155,5,2,1:2:0:0:
32,256,30514,1,2,1:2:0:0:
28,144,30874,2,0,B|8:64|8:64|32:0,1,110,4|0,3:0|0:0,0:0:0:0:
68,16,31413,2,0,P|120:2|256:28,1,165,4|0,0:0|3:0,0:0:0:0:
256,64,32131,1,0,3:0:0:0:
280,112,32311,2,0,L|256:256,1,110,4|0,0:0|1:0,0:0:0:0:
320,312,33029,6,0,P|380:324|456:292,1,110,4|4,0:0|3:0,0:0:0:0:
456,268,33568,1,4,3:0:0:0:
476,160,33928,2,0,L|388:84,1,110,0|2,0:0|0:0,0:0:0:0:
348,56,34467,1,0,1:0:0:0:
312,160,34826,1,0,1:0:0:0:
312,160,35006,1,0,1:0:0:0:
208,332,35904,5,4,0:3:0:0:
116,132,37341,1,4,0:3:0:0:
320,44,38778,5,4,3:0:0:0:
412,244,40215,1,4,3:0:0:0:
292,148,40934,1,0,0:0:0:0:
192,268,41652,5,4,0:3:0:0:
76,168,42371,1,4,0:3:0:0:
176,48,43089,1,4,0:3:0:0:
292,148,43808,1,4,0:3:0:0:
436,92,44526,5,4,3:0:0:0:
407,242,45245,2,0,B|359:208|359:208|346:155,1,110,0|0,1:0|0:0,0:0:0:0:
240,128,45964,2,0,L|156:108,1,55,0|0,1:0|1:0,0:0:0:0:
152,12,46502,2,0,P|104:40|96:176,1,165,0|0,1:0|1:0,0:0:0:0:
48,248,47401,6,0,P|101:254|148:226,1,110,4|0,0:0|1:0,0:0:0:0:
244,172,48119,2,0,P|290:144|344:150,1,110,0|0,3:0|1:0,0:0:0:0:
380,192,48658,2,0,B|428:232|484:240|484:240|488:200|480:180,1,165,4|0,3:0|1:0,0:0:0:0:
444,88,49556,1,2,3:2:0:0:
336,64,49916,1,2,1:2:0:0:
248,128,50275,6,0,P|232:176|248:248,1,110,4|0,3:0|1:0,0:0:0:0:
196,336,50993,1,4,3:0:0:0:
196,336,51173,2,0,P|249:345|301:328,1,110,4|2,3:0|0:0,0:0:0:0:
344,296,51712,2,0,P|360:248|344:176,1,110,0|0,0:0|1:0,0:0:0:0:
328,84,52431,1,2,0:0:0:0:
224,52,52790,1,2,3:0:0:0:
148,132,53149,6,0,L|156:256,1,110,4|0,3:0|1:0,0:0:0:0:
200,340,53868,2,0,P|146:349|94:332,1,110,0|0,3:0|1:0,0:0:0:0:
52,300,54407,2,0,L|44:136,2,165,4|0|4,3:0|1:0|3:0,0:0:0:0:
88,340,55664,1,0,1:0:0:0:
184,288,56023,6,0,P|235:271|289:280,1,110,4|0,3:0|1:0,0:0:0:0:
372,352,56742,2,0,P|425:361|477:344,1,110,0|0,3:0|1:0,0:0:0:0:
504,296,57281,2,0,L|476:116,1,165,4|0,0:0|1:0,0:0:0:0:
416,44,58179,1,0,1:0:0:0:
308,48,58538,1,0,1:0:0:0:
216,108,58898,6,0,L|244:252,1,110,4|2,0:0|3:2,0:0:0:0:
196,320,59616,1,0,1:0:0:0:
88,320,59975,1,2,0:0:0:0:
24,228,60335,2,0,L|60:100,1,110,0|0,1:0|3:0,0:0:0:0:
144,60,61053,1,0,1:0:0:0:
256,60,61413,1,2,3:2:0:0:
308,156,61772,6,0,L|180:156,1,110,4|2,3:0|0:0,0:0:0:0:
140,252,62490,1,0,1:0:0:0:
252,252,62850,1,8,3:0:0:0:
304,348,63209,2,0,L|176:348,1,110,4|4,3:0|3:0,0:0:0:0:
140,348,63748,2,0,L|56:348,2,55,0|8|4,1:0|3:0|0:0,0:0:0:0:
240,216,64646,5,6,3:0:0:0:
344,180,65005,1,0,1:0:0:0:
448,212,65365,2,0,P|464:268|444:320,1,110,2|0,0:0|1:0,0:0:0:0:
352,368,66083,1,4,3:0:0:0:
260,308,66443,2,0,P|208:292|132:336,1,110,0|0,1:0|0:0,0:0:0:0:
108,332,66981,2,0,L|32:316,2,55,4|0|0,3:0|1:0|0:0,0:0:0:0:
152,368,67520,6,0,L|140:232,1,110,4|0,3:0|1:0,0:0:0:0:
68,176,68239,2,0,L|80:40,1,110,4|0,3:0|1:0,0:0:0:0:
180,24,68958,1,0,1:0:0:0:
264,96,69317,1,2,1:0:0:0:
224,200,69676,1,0,1:0:0:0:
284,292,70035,1,2,1:0:0:0:
392,276,70395,6,0,L|424:144,1,110,4|0,1:0|1:0,0:0:0:0:
476,76,71113,2,0,P|436:56|366:72,1,110,4|0,3:0|1:0,0:0:0:0:
340,112,71652,2,0,B|312:212|312:212|288:152,1,165,4|0,0:0|1:0,0:0:0:0:
248,116,72371,2,0,P|184:96|80:152,1,165,4|0,0:0|1:0,0:0:0:0:
44,228,73269,5,2,1:0:0:0:
104,320,73628,2,0,P|44:340|-24:316,2,110,0|2|0,1:0|3:2|1:0,0:0:0:0:
148,288,74526,2,0,B|276:268|276:268|244:344,1,165,2|0,1:0|1:0,0:0:0:0:
280,352,75245,2,0,P|340:376|400:312,1,110,2|4,0:0|3:0,0:0:0:0:
504,252,76143,5,0,1:0:0:0:
500,144,76502,1,0,1:0:0:0:
416,76,76862,2,0,P|368:44|232:84,1,165,4|0,3:0|0:0,0:0:0:0:
232,96,77580,2,0,P|216:151|241:202,1,110,4|0,0:0|1:0,0:0:0:0:
292,212,78119,2,0,L|396:220,1,100.833333333333,4|4,3:0|3:0,0:0:0:0:
456,224,78658,1,0,1:0:0:0:
416,328,79017,6,0,B|376:304|336:328|332:328|328:328|292:360|220:312,1,165,4|4,3:0|3:0,0:0:0:0:
224,284,79736,2,0,P|160:276|104:308,1,110,0|2,1:0|3:2,0:0:0:0:
24,348,80455,1,2,1:0:0:0:
24,348,80634,1,2,1:2:0:0:
44,240,80993,1,0,1:0:0:0:
64,132,81353,2,0,P|124:144|200:116,1,110,4|4,3:0|3:0,0:0:0:0:
208,92,81892,6,0,P|260:72|336:100,1,110,4|0,1:0|1:0,0:0:0:0:
364,180,82610,2,0,P|420:192|470:172,1,110,2|0,0:0|1:0,0:0:0:0:
492,124,83149,2,0,B|480:12|480:12|444:76,1,165,4|0,0:0|1:0,0:0:0:0:
412,92,83868,2,0,P|340:104|244:48,1,165,4|0,0:0|1:0,0:0:0:0:
168,4,84766,5,4,1:3:0:0:
104,88,85125,2,0,P|52:72|-16:96,2,110,0|8|4,1:0|3:0|3:0,0:0:0:0:
144,124,86023,2,0,B|184:240|184:240|128:220,1,165,2|0,1:0|1:0,0:0:0:0:
88,236,86742,2,0,P|64:296|76:345,1,110,2|2,1:0|3:2,0:0:0:0:
236,348,87640,5,0,1:0:0:0:
344,344,87999,1,0,1:0:0:0:
412,260,88359,2,0,P|444:212|404:76,1,165,4|4,3:0|3:0,0:0:0:0:
392,72,89077,2,0,P|335:59|286:86,1,110,4|0,0:0|1:0,0:0:0:0:
272,136,89616,2,0,L|272:252,1,110,4|4,3:0|3:0,0:0:0:0:
240,292,90155,1,0,1:0:0:0:
136,332,90514,6,0,B|112:292|136:252|136:248|136:244|168:208|120:136,1,165,4|4,3:0|3:0,0:0:0:0:
92,140,91233,1,0,1:0:0:0:
156,52,91592,2,0,B|208:32|208:32|276:48,1,110,2|4,3:2|1:2,0:0:0:0:
372,56,92311,1,0,1:0:0:0:
372,56,92490,1,0,1:0:0:0:
472,308,93389,6,0,L|324:316,1,110,6|0,1:0|1:0,0:0:0:0:
260,356,94107,2,0,P|249:302|269:252,1,110,4|0,3:0|1:0,0:0:0:0:
300,208,94646,2,0,B|316:88|316:88|276:120,1,165,2|0,1:0|1:0,0:0:0:0:
234,144,95365,2,0,P|142:160|78:112,1,165,6|0,1:2|1:0,0:0:0:0:
172,56,96263,6,0,B|222:36|222:36|278:40,1,110,4|0,3:0|1:0,0:0:0:0:
332,48,96802,2,0,L|420:56,2,55,2|4|2,0:0|3:0|0:0,0:0:0:0:
252,124,97520,2,0,B|392:136,1,110,2|4,1:0|3:0,0:0:0:0:
404,168,98059,1,0,1:0:0:0:
444,208,98239,2,0,P|468:264|424:328,1,110,2|2,2:0|1:0,0:0:0:0:
292,352,99137,5,2,1:0:0:0:
184,340,99496,1,2,1:0:0:0:
76,324,99856,2,0,P|64:256|96:188,1,110,4|0,3:0|0:0,0:0:0:0:
112,180,100395,2,0,B|236:164|236:164|164:208,1,165,6|0,0:0|1:0,0:0:0:0:
196,240,101113,2,0,P|260:256|324:168,1,165,6|0,0:0|1:0,0:0:0:0:
368,88,102011,6,0,P|448:80|416:160,1,165,4|4,3:0|3:0,0:0:0:0:
408,185,102730,2,0,P|392:241|412:305,1,110,0|2,1:0|3:2,0:0:0:0:
495,350,103449,1,2,1:2:0:0:
512,245,103808,1,0,1:0:0:0:
512,245,103987,1,2,1:0:0:0:
384,64,104886,5,2,3:2:0:0:
276,40,105245,1,0,3:0:0:0:
176,80,105604,2,0,P|164:144|204:204,1,110,2|0,0:0|0:0,0:0:0:0:
236,184,106143,2,0,P|296:164|400:192,1,165,2|2,3:2|3:0,0:0:0:0:
400,240,106862,2,0,P|354:283|200:288,1,220,2|0,0:0|3:0,0:0:0:0:
160,260,107760,5,2,3:2:0:0:
160,96,108299,2,0,L|172:36,2,55,0|2|0,3:0|3:2|3:0,0:0:0:0:
68,160,109017,2,0,P|115:196|218:187,1,165,0|2,3:2|3:0,0:0:0:0:
252,144,109736,1,2,0:0:0:0:
476,300,110634,5,0,1:0:0:0:
372,268,110993,1,0,1:0:0:0:
268,236,111353,2,0,P|188:224|108:260,1,165,2|0,0:0|0:0,0:0:0:0:
116,312,112071,2,0,P|188:334|258:312,1,110,4|0,3:0|3:0,0:0:0:0:
276,316,112610,1,2,0:0:0:0:
380,352,112970,1,0,3:0:0:0:
380,352,113149,1,2,0:0:0:0:
468,284,113508,6,0,P|456:164|268:144,1,330,2|0,0:0|0:0,0:0:0:0:
192,212,114946,1,2,1:0:0:0:
172,104,115305,1,0,1:0:0:0:
172,104,115484,1,0,1:0:0:0:
