osu file format v14

[General]
AudioFilename: audio.mp3
AudioLeadIn: 0
PreviewTime: 0
Countdown: 0
SampleSet: Soft
StackLeniency: 0.2
Mode: 0
LetterboxInBreaks: 0
WidescreenStoryboard: 1

[Editor]
DistanceSpacing: 0.8
BeatDivisor: 4
GridSize: 32
TimelineZoom: 1.7

[Metadata]
Title:Pink Love (feat. Lency)
TitleUnicode:Pink Love (feat. Lency)
Artist:IAHN
ArtistUnicode:IAHN
Creator:_83
Version:Lasse's Insane
Source:osu!
Tags:kwk lasse
BeatmapID:1412393
BeatmapSetID:667043

[Difficulty]
HPDrainRate:5
CircleSize:3.8
OverallDifficulty:7
ApproachRate:8.7
SliderMultiplier:1.96
SliderTickRate:1

[Events]
//Background and Video events
0,0,"qNlaBNM.jpg",0,0
//Break Periods
//Storyboard Layer 0 (Background)
//Storyboard Layer 1 (Fail)
//Storyboard Layer 2 (Pass)
//Storyboard Layer 3 (Foreground)
//Storyboard Sound Samples

[TimingPoints]
-24,359.281437125748,4,2,0,60,1,0
1413,-142.857142857143,4,2,0,60,0,0
2131,-71.4285714285714,4,2,0,60,0,0
7161,-83.3333333333333,4,2,0,60,0,0
7431,-62.5,4,2,0,5,0,0
7520,-83.3333333333333,4,2,0,60,0,0
8598,-111.111111111111,4,2,0,60,0,0
11473,-111.111111111111,4,2,0,80,0,0
11832,-71.4285714285714,4,2,0,80,0,0
12371,-100,4,2,0,80,0,0
12910,-90.9090909090909,4,2,0,80,0,0
17041,-74.0740740740741,4,2,0,85,0,0
17580,-100,4,2,0,85,0,0
18658,-125,4,2,0,80,0,0
19377,-62.5,4,2,0,80,0,0
19736,-100,4,2,0,80,0,0
20095,-125,4,2,0,80,0,0
20634,-100,4,2,0,80,0,0
21532,-166.666666666667,4,2,0,80,0,0
22071,-83.3333333333333,4,2,0,80,0,0
23868,-125,4,2,0,80,0,0
24407,-71.4285714285714,4,2,0,100,0,0
26383,-62.5,4,2,0,100,0,0
26652,-62.5,4,2,0,5,0,0
26742,-71.4285714285714,4,2,0,100,0,0
27371,-71.4285714285714,4,2,0,5,0,0
27461,-71.4285714285714,4,2,0,100,0,0
29616,-128.205128205128,4,2,0,100,0,0
30155,-71.4285714285714,4,2,0,100,0,0
31413,-62.5,4,2,0,100,0,0
31682,-62.5,4,2,0,5,0,0
31772,-71.4285714285714,4,2,0,100,0,0
32311,-62.5,4,2,0,100,0,0
33029,-100,4,2,0,100,0,0
35904,-166.666666666667,4,2,0,50,0,0
47401,-100,4,2,0,65,0,0
57281,-66.6666666666667,4,2,0,65,0,0
58898,-90.9090909090909,4,2,0,65,0,0
63748,-111.111111111111,4,2,0,65,0,0
64107,-66.6666666666667,4,2,0,65,0,0
64646,-83.3333333333333,4,2,0,65,0,0
68958,-76.9230769230769,4,2,0,65,0,0
70395,-83.3333333333333,4,2,0,80,0,0
74526,-71.4285714285714,4,2,0,80,0,0
75604,-100,4,2,0,80,0,0
76143,-117.647058823529,4,2,0,80,0,0
76862,-58.8235294117647,4,2,0,80,0,0
77580,-117.647058823529,4,2,0,80,0,0
78119,-90.9090909090909,4,2,0,80,0,0
79017,-153.846153846153,4,2,0,80,0,0
79556,-76.9230769230769,4,2,0,80,0,0
81263,-62.5,4,2,0,5,0,0
81353,-83.3333333333333,4,2,0,80,0,0
81892,-80,4,2,0,80,0,0
86023,-63.6942675159236,4,2,0,80,0,0
87101,-100,4,2,0,80,0,0
87640,-117.647058823529,4,2,0,80,0,0
88359,-58.8235294117647,4,2,0,80,0,0
89077,-117.647058823529,4,2,0,80,0,0
89616,-90.9090909090909,4,2,0,80,0,0
90514,-153.846153846154,4,2,0,80,0,0
91053,-71.4285714285714,4,2,0,80,0,0
92850,-125,4,2,0,80,0,0
93299,-100,4,2,0,95,0,0
93389,-66.6666666666667,4,2,0,95,0,0
95365,-58.8235294117647,4,2,0,95,0,0
95634,-62.5,4,2,0,5,0,0
95724,-66.6666666666667,4,2,0,95,0,0
96263,-58.8235294117647,4,2,0,95,0,0
96622,-66.6666666666667,4,2,0,95,0,0
97431,-62.5,4,2,0,5,0,0
97520,-58.8235294117647,4,2,0,95,0,0
97790,-62.5,4,2,0,5,0,0
97880,-66.6666666666667,4,2,0,95,0,0
98598,-120.481927710843,4,2,0,95,0,0
99137,-50,4,2,0,95,0,0
99856,-55.5555555555556,4,2,0,95,0,0
100395,-52.6315789473684,4,2,0,95,0,0
100664,-62.5,4,2,0,5,0,0
100754,-62.5,4,2,0,95,0,0
101113,-58.8235294117647,4,2,0,95,0,0
101293,-58.8235294117647,4,2,0,95,0,0
101832,-83.3333333333333,4,2,0,95,0,0
101922,-83.3333333333333,4,2,0,5,0,0
102011,-100,4,2,0,85,0,0
103987,-142.857142857143,4,2,0,85,0,0
104886,-133.333333333333,4,2,0,60,0,0
110634,-133.333333333333,4,2,0,70,0,0
114946,-100,4,2,0,60,0,0
115305,-50,4,2,0,60,0,0

[Colours]
Combo1 : 190,5,43
Combo2 : 255,128,192
Combo3 : 255,0,128

[HitObjects]
144,66,1413,6,0,P|202:108|209:178,1,137.199995812988,4|2,0:0|0:0,0:0:0:0:
202,189,2131,6,0,P|191:123|136:86,1,137.199995812988,2|0,0:0|3:3,0:0:0:0:
115,89,2670,1,0,3:3:0:0:
24,117,3029,5,0,3:0:0:0:
37,135,3209,1,0,3:0:0:0:
43,156,3389,1,2,0:0:0:0:
202,189,3748,5,2,0:0:0:0:
189,207,3928,1,0,3:0:0:0:
183,228,4108,1,0,3:0:0:0:
313,280,4826,6,0,P|250:253|182:249,2,137.199995812988,0|2|0,3:0|0:0|3:0,0:0:0:0:
325,300,5544,1,2,0:0:0:0:
416,367,5904,5,2,0:0:0:0:
409,344,6084,1,0,3:0:0:0:
411,322,6263,1,2,0:0:0:0:
485,278,6443,1,0,0:0:0:0:
478,272,6622,1,0,0:0:0:0:
472,269,6802,1,2,3:0:0:0:
467,270,6981,1,2,0:0:0:0:
480,192,7161,6,0,P|421:137|331:179,1,176.399994616699,4|0,0:3|0:0,0:0:0:0:
339,166,7520,2,0,L|329:44,1,117.599996411133,4|0,0:3|0:0,0:0:0:0:
327,32,7880,5,0,3:0:0:0:
258,101,8059,1,2,0:0:0:0:
325,16,8419,5,0,3:0:0:0:
260,117,8598,2,0,L|84:101,1,176.399994616699,2|0,0:0|3:0,0:0:0:0:
66,98,9137,1,2,0:0:0:0:
43,198,9496,5,0,3:0:0:0:
48,95,9676,1,2,3:0:0:0:
31,94,10035,6,0,L|218:113,2,176.399994616699,4|0|2,0:3|3:0|3:0,0:0:0:0:
219,198,11113,6,0,P|220:154|207:113,1,88.1999973083497,0|0,3:0|0:0,0:0:0:0:
193,94,11473,5,2,1:0:0:0:
154,338,11652,1,0,1:0:0:0:
455,22,12011,6,0,P|368:126|356:261,1,274.399991625977,4|0,3:0|3:0,0:0:0:0:
365,272,12461,1,0,3:0:0:0:
377,278,12550,1,2,3:0:0:0:
391,279,12640,1,2,3:0:0:0:
405,275,12730,1,0,1:0:0:0:
416,265,12820,1,0,1:0:0:0:
423,252,12910,6,0,L|192:238,1,215.60000657959,4|0,1:0|1:0,0:0:0:0:
423,252,13628,1,8,3:0:0:0:
339,231,13808,2,0,P|320:181|336:130,1,107.800003289795,4|0,3:0|1:0,0:0:0:0:
334,31,14167,6,0,P|352:80|336:131,1,107.800003289795,6|0,0:0|0:0,0:0:0:0:
264,83,14526,1,0,3:0:0:0:
336,131,14706,1,0,1:0:0:0:
180,101,14886,1,4,0:0:0:0:
336,131,15245,5,0,3:0:0:0:
264,83,15425,1,0,1:0:0:0:
180,101,15604,1,0,3:0:0:0:
336,131,15784,2,0,B|312:95|264:83|264:83|233:156|256:222,1,215.60000657959,4|0,0:0|1:0,0:0:0:0:
173,242,16323,5,8,3:0:0:0:
252,207,16502,1,4,3:0:0:0:
333,237,16682,1,0,3:0:0:0:
370,314,16862,1,2,3:0:0:0:
173,242,17041,6,0,P|290:212|370:322,1,264.600001009369,2|4,1:0|0:3,0:0:0:0:
256,319,17580,1,0,1:0:0:0:
173,242,17760,1,2,1:0:0:0:
157,247,18119,2,0,L|32:238,2,98,4|0|2,3:0|3:0|3:0,0:0:0:0:
173,242,18658,6,0,P|201:167|124:107,1,156.8,2|2,1:2|1:2,0:0:0:0:
140,118,19377,6,0,P|185:177|156:246,1,156.8,4|0,3:0|1:0,0:0:0:0:
142,252,19916,5,0,3:0:0:0:
125,123,20095,2,0,P|170:182|142:252,1,156.8,6|0,0:0|1:0,0:0:0:0:
129,258,20634,6,0,B|82:267|30:254|8:211|8:211|28:195|74:201,1,196,4|4,3:0|3:0,0:0:0:0:
74,205,21173,1,0,1:0:0:0:
74,205,21532,6,0,L|82:63,1,117.599996411133,2|0,3:0|3:0,0:0:0:0:
88,74,22071,6,0,L|205:69,1,117.599996411133,4|0,3:0|1:0,0:0:0:0:
221,84,22610,1,2,1:2:0:0:
221,84,22700,1,2,1:2:0:0:
221,84,22790,1,2,1:2:0:0:
221,84,22880,1,2,1:2:0:0:
221,84,22970,1,6,0:0:0:0:
88,74,23329,5,0,1:0:0:0:
221,84,23508,1,0,1:0:0:0:
221,84,23868,6,0,L|308:79,2,78.4,0|0|0,3:2|3:2|3:2,0:0:0:0:
201,90,24407,6,0,B|235:259|235:259|295:169,1,274.399991625977,4|0,1:0|1:0,0:0:0:0:
458,255,25125,2,0,B|364:223|364:223|391:279,2,137.199995812988,4|8|0,3:0|3:0|1:0,0:0:0:0:
381,257,25664,6,0,B|415:88|415:88|471:172,1,274.399991625977,2|4,3:2|3:0,0:0:0:0:
472,173,26203,1,0,1:0:0:0:
415,89,26383,6,0,B|434:17|434:17|471:172,1,235.2,4|0,0:0|0:0,0:0:0:0:
396,186,26742,2,0,B|302:154|302:154|318:188,2,137.199995812988,0|0|8,0:0|1:0|3:0,0:0:0:0:
321,330,27281,6,0,B|300:361|300:361|286:290,1,68.5999979064942,4|0,3:0|2:0,0:0:0:0:
407,324,27461,2,0,B|481:258|481:258|443:255,2,137.199995812988,2|0|0,1:0|1:0|0:2,0:0:0:0:
318,188,27999,2,0,B|302:154|302:154|396:186,1,137.199995812988,8|8,3:0|3:0,0:0:0:0:
482,91,28359,2,0,B|460:121|460:121|441:24,1,137.199995812988,4|2,3:0|3:0,0:0:0:0:
316,0,28718,6,0,B|353:3|353:3|278:68,2,137.199995812988,2|4|0,1:2|3:0|1:0,0:0:0:0:
396,186,29257,2,0,B|302:154|302:154|318:188,1,137.199995812988,6|0,0:0|0:0,0:0:0:0:
407,323,29616,2,0,L|452:237,2,76.4400025660401,4|0|0,3:0|3:0|3:0,0:0:0:0:
246,271,30155,6,0,B|443:255|443:255|407:323,1,274.399991625977,2|2,1:2|1:2,0:0:0:0:
113,336,30874,2,0,B|96:301|96:301|190:333,2,137.199995812988,4|0|0,3:0|1:0|0:0,0:0:0:0:
190,333,31413,6,0,B|172:165|172:165|127:231,1,235.2,4|0,0:0|0:0,0:0:0:0:
190,333,31772,2,0,B|284:365|284:365|267:330,2,137.199995812988,0|0|0,3:0|3:0|3:0,0:0:0:0:
135,219,32311,6,0,B|155:15|155:15|217:114,1,313.6,4|0,0:0|1:0,0:0:0:0:
213,107,33029,6,0,B|417:87|417:87|318:25,1,294,4|4,0:0|3:0,0:0:0:0:
341,39,33928,2,0,L|335:155,1,98,0|2,0:0|0:0,0:0:0:0:
336,146,34197,1,2,0:0:0:0:
336,155,34287,1,2,0:0:0:0:
336,164,34377,1,2,0:0:0:0:
337,173,34467,1,0,1:0:0:0:
341,39,34826,5,0,1:0:0:0:
337,173,35005,1,0,1:0:0:0:
337,173,35904,6,0,P|166:243|335:319,2,470.399985644532,4|4|4,0:3|0:3|3:0,0:0:0:0:
337,173,40215,6,0,P|242:181|240:60,1,235.199992822266,4|4,3:0|0:3,0:0:0:0:
337,173,41652,2,0,P|259:227|194:123,1,235.199992822266,4|4,0:3|0:3,0:0:0:0:
191,132,43089,6,0,P|143:84|85:94,1,117.599996411133,4|2,0:3|3:0,0:0:0:0:
191,132,43808,2,0,P|173:66|118:46,1,117.599996411133,4|0,0:3|3:0,0:0:0:0:
132,46,44526,6,0,P|69:72|57:130,1,117.599996411133,4|0,3:0|3:0,0:0:0:0:
132,186,45245,2,0,P|109:133|55:115,1,117.599996411133,0|0,1:0|0:0,0:0:0:0:
55,115,45964,6,0,L|40:195,1,58.7999982055665,0|0,1:0|1:0,0:0:0:0:
44,172,46502,2,0,L|29:252,1,58.7999982055665,0|4,1:0|0:3,0:0:0:0:
36,247,46772,1,4,0:3:0:0:
41,263,46862,6,0,L|49:307,1,29.3999991027832,8|8,0:3|0:3,0:0:0:0:
124,303,47041,2,0,L|143:343,1,29.3999991027832,0|0,1:0|1:0,0:0:0:0:
214,320,47221,2,0,L|242:354,1,29.3999991027832,0|0,1:0|1:0,0:0:0:0:
305,313,47401,6,0,P|387:294|503:311,1,196,4|0,0:0|1:0,0:0:0:0:
359,151,48119,1,0,3:0:0:0:
437,209,48299,2,0,P|394:186|360:152,1,98,4|0,3:0|1:0,0:0:0:0:
155,136,48658,6,0,B|184:81|249:88|249:88|274:129|274:180|259:228|225:254,1,294,4|0,3:0|1:0,0:0:0:0:
226,253,49556,2,0,P|174:240|109:246,1,98,2|4,3:2|3:0,0:0:0:0:
226,253,49916,2,0,P|278:266|343:260,1,98,2|0,1:2|0:0,0:0:0:0:
130,242,50275,6,0,P|226:241|328:267,1,196,4|0,3:0|1:0,0:0:0:0:
213,108,50993,1,4,3:0:0:0:
294,160,51173,2,0,P|249:140|213:108,1,98,4|0,3:0|1:0,0:0:0:0:
132,56,51532,6,0,P|176:76|213:108,1,98,2|0,0:0|0:0,0:0:0:0:
294,160,51892,2,0,P|341:169|390:164,2,98,4|0|0,3:0|1:0|0:0,0:0:0:0:
213,108,52431,5,2,0:0:0:0:
214,127,52610,1,0,3:0:0:0:
212,139,52790,1,2,3:0:0:0:
209,147,52970,1,0,1:0:0:0:
96,103,53149,6,0,P|123:198|126:295,1,196,4|0,3:0|1:0,0:0:0:0:
209,147,53868,1,0,3:0:0:0:
219,243,54047,2,0,P|206:196|209:147,1,98,4|0,3:0|1:0,0:0:0:0:
327,96,54407,6,0,B|353:129|401:144|452:144|493:119|493:119|500:54|445:25,1,294,4|0,3:0|1:0,0:0:0:0:
327,96,55125,1,2,0:0:0:0:
327,96,55484,2,0,L|318:214,2,98,4|0|2,3:0|1:0|0:0,0:0:0:0:
412,236,56023,6,0,P|341:210|213:202,1,196,4|0,3:0|1:0,0:0:0:0:
376,328,56742,1,0,3:0:0:0:
282,305,56922,2,0,P|331:309|376:328,1,98,4|0,3:0|1:0,0:0:0:0:
448,211,57281,6,0,B|419:155|354:162|354:162|329:203|329:254|344:302|377:329,1,294.00001121521,4|4,0:0|3:0,0:0:0:0:
457,227,57820,1,0,1:0:0:0:
393,331,57999,1,0,0:0:0:0:
466,243,58179,5,0,1:0:0:0:
475,259,58269,1,2,3:0:0:0:
484,275,58359,1,4,3:0:0:0:
412,331,58538,1,0,1:0:0:0:
429,339,58898,6,0,P|327:303|220:298,1,215.60000657959,4|2,0:0|3:2,0:0:0:0:
136,317,59437,1,4,3:0:0:0:
59,278,59616,2,0,L|60:33,1,215.60000657959,0|2,1:0|0:0,0:0:0:0:
132,15,60155,1,4,3:0:0:0:
237,96,60335,6,0,P|344:90|445:55,1,215.60000657959,0|0,1:0|3:0,0:0:0:0:
505,117,60874,1,4,3:0:0:0:
482,199,61053,2,0,P|374:190|269:213,1,215.60000657959,0|2,1:0|3:2,0:0:0:0:
216,281,61592,1,8,3:0:0:0:
151,176,61772,5,4,3:0:0:0:
151,176,62131,2,0,L|144:63,1,107.800003289795,2|4,0:0|3:0,0:0:0:0:
67,28,62490,1,0,1:0:0:0:
67,28,62850,2,0,L|60:141,1,107.800003289795,8|2,3:0|0:0,0:0:0:0:
48,276,63209,5,4,3:0:0:0:
48,276,63568,1,4,3:0:0:0:
151,176,63748,2,0,L|273:163,1,88.1999973083497,0|8,1:0|3:0,0:0:0:0:
337,152,64107,6,0,P|241:170|334:139,1,294.00001121521,4|0,0:0|0:0,0:0:0:0:
309,288,64646,6,0,B|276:248|266:204|275:147|303:110|303:110|324:118|334:139,1,235.199992822266,6|0,3:0|1:0,0:0:0:0:
334,139,65365,2,0,P|390:149|460:130,1,117.599996411133,2|4,0:0|3:0,0:0:0:0:
492,264,65724,2,0,P|438:241|366:245,1,117.599996411133,0|0,1:0|3:0,0:0:0:0:
266,232,66083,5,4,0:3:0:0:
313,335,66263,2,0,P|356:295|380:242,1,117.599996411133,2|0,3:2|1:0,0:0:0:0:
380,243,66802,2,0,P|367:185|333:138,1,117.599996411133,2|4,0:0|3:0,0:0:0:0:
286,34,67161,1,0,1:0:0:0:
333,138,67341,1,0,0:0:0:0:
214,101,67520,5,4,3:0:0:0:
307,130,67700,1,0,0:0:0:0:
286,34,67880,1,0,1:0:0:0:
206,127,68059,2,0,P|158:160|102:174,1,117.599996411133,2|4,0:0|3:0,0:0:0:0:
1,232,68419,2,0,P|46:194|101:175,1,117.599996411133,0|0,0:0|1:0,0:0:0:0:
101,175,68778,1,2,0:0:0:0:
1,232,68958,5,0,1:0:0:0:
100,291,69137,1,0,1:0:0:0:
101,175,69317,2,0,L|102:32,1,127.399994168091,2|0,1:0|0:0,0:0:0:0:
224,91,69676,1,0,1:0:0:0:
209,87,69766,1,0,1:0:0:0:
195,81,69856,1,4,3:0:0:0:
322,91,70035,2,0,L|186:80,1,127.399994168091,2|0,1:0|0:0,0:0:0:0:
347,265,70395,6,0,P|351:148|396:39,1,235.199992822266,4|0,1:0|1:0,0:0:0:0:
401,352,71113,1,4,3:0:0:0:
332,286,71293,2,0,P|326:267|326:161,1,117.599996411133,4|0,3:0|1:0,0:0:0:0:
171,273,71652,6,0,P|190:217|193:159,1,117.599996411133,4|0,0:0|0:0,0:0:0:0:
182,65,72011,1,4,3:0:0:0:
94,28,72191,1,0,1:0:0:0:
2,59,72371,1,4,0:0:0:0:
182,65,72730,5,4,3:0:0:0:
94,28,72910,1,0,1:0:0:0:
2,59,73089,1,4,3:0:0:0:
182,65,73269,2,0,B|150:26|94:28|94:28|68:71|72:117|100:163,1,235.199992822266,2|0,1:0|1:0,0:0:0:0:
7,198,73808,5,4,3:0:0:0:
96,157,73987,1,2,3:2:0:0:
183,191,74167,2,0,P|212:241|217:299,1,117.599996411133,4|0,3:0|1:0,0:0:0:0:
7,197,74526,6,0,P|113:157|218:277,1,274.399991625977,2|4,1:0|3:0,0:0:0:0:
97,285,75065,1,0,1:0:0:0:
7,197,75245,1,2,0:0:0:0:
1,176,75604,2,0,L|4:69,2,98,4|0|2,3:0|3:0|3:0,0:0:0:0:
7,197,76143,6,0,P|66:151|142:197,1,166.600003177643,0|0,1:0|1:0,0:0:0:0:
13,218,76862,6,0,P|77:172|145:212,1,166.600003177643,4|0,3:0|1:0,0:0:0:0:
150,232,77401,5,0,0:0:0:0:
18,238,77580,2,0,P|82:192|150:232,1,166.600003177643,4|0,0:0|1:0,0:0:0:0:
156,252,78119,6,0,B|210:291|268:248|268:248|330:263|331:321,1,215.60000657959,4|4,3:0|3:0,0:0:0:0:
336,330,78658,1,0,1:0:0:0:
336,330,79017,6,0,L|346:175,1,127.399994168091,4|2,3:0|3:0,0:0:0:0:
353,219,79556,6,0,L|363:64,1,127.399994168091,4|0,3:0|1:0,0:0:0:0:
376,107,80095,1,2,3:2:0:0:
376,107,80185,1,2,3:2:0:0:
376,107,80275,1,2,3:2:0:0:
376,107,80365,1,2,3:2:0:0:
376,107,80455,5,2,1:0:0:0:
353,219,80634,1,2,1:2:0:0:
353,219,80993,2,0,B|291:173|211:186|211:186|209:201|224:224,1,191.099991252137,0|0,1:0|0:0,0:0:0:0:
233,240,81353,2,0,L|102:216,1,117.599996411133,4|8,3:0|3:0,0:0:0:0:
95,222,81622,1,8,3:0:0:0:
77,229,81712,1,4,3:0:0:0:
65,244,81802,1,4,3:0:0:0:
60,262,81892,6,0,P|67:92|46:12,1,245,4|0,1:0|1:0,0:0:0:0:
141,335,82610,1,2,0:0:0:0:
52,291,82790,2,0,P|38:231|42:168,1,122.5,4|0,3:0|1:0,0:0:0:0:
230,291,83149,6,0,P|244:231|240:168,1,122.5,4|0,0:0|0:0,0:0:0:0:
294,88,83508,1,4,3:0:0:0:
389,65,83688,1,0,1:0:0:0:
478,104,83868,1,4,0:0:0:0:
294,88,84227,5,0,3:0:0:0:
389,65,84407,1,0,1:0:0:0:
478,104,84586,1,2,0:0:0:0:
294,88,84766,2,0,B|325:47|390:65|390:65|405:101|389:138|377:127|366:169|393:216,1,245,4|0,1:3|1:0,0:0:0:0:
474,242,85305,5,2,0:0:0:0:
385,200,85484,1,8,3:0:0:0:
303,254,85664,1,4,3:0:0:0:
309,352,85844,1,4,3:0:0:0:
474,242,86023,6,0,P|368:202|319:364,1,307.720001173859,2|4,1:0|3:0,0:0:0:0:
392,296,86562,1,0,1:0:0:0:
474,242,86742,1,2,1:0:0:0:
484,227,87101,2,0,L|487:120,2,98,2|0|8,3:2|3:0|3:0,0:0:0:0:
474,242,87640,6,0,P|414:200|329:223,1,166.600003177643,0|0,1:0|1:0,0:0:0:0:
463,265,88359,6,0,P|403:223|318:246,1,166.600003177643,4|0,3:0|1:0,0:0:0:0:
308,261,88898,5,4,3:0:0:0:
453,280,89077,2,0,P|393:238|308:261,1,166.600003177643,4|0,0:0|1:0,0:0:0:0:
298,275,89616,6,0,B|244:314|191:286|191:286|172:233|217:192,1,215.60000657959,4|4,3:0|3:0,0:0:0:0:
231,189,90155,1,0,1:0:0:0:
231,189,90514,6,0,L|221:34,1,127.399994168091,4|0,3:0|3:0,0:0:0:0:
214,78,91053,6,0,L|77:64,1,137.199995812988,4|0,3:0|1:0,0:0:0:0:
93,80,91592,1,2,3:2:0:0:
93,80,91682,1,2,3:2:0:0:
93,80,91772,1,2,3:2:0:0:
93,80,91862,1,2,3:2:0:0:
93,80,91952,1,4,1:2:0:0:
214,78,92311,5,0,1:0:0:0:
93,80,92490,1,0,1:0:0:0:
93,80,92850,6,0,L|-8:67,2,78.4,0|0|0,3:0|3:0|3:0,0:0:0:0:
111,86,93389,6,0,B|150:279|150:279|231:174,1,294.00001121521,6|0,1:0|1:0,0:0:0:0:
31,315,94107,2,0,B|52:276|52:276|79:375,2,147.000005607605,4|4|0,3:0|3:0|1:0,0:0:0:0:
151,278,94646,6,0,B|260:142|260:142|133:181,1,294.00001121521,2|4,1:0|3:0,0:0:0:0:
145,177,95185,1,0,1:0:0:0:
260,142,95365,6,0,B|100:105|100:105|150:186,1,249.900004766464,6|0,1:2|0:0,0:0:0:0:
227,270,95724,2,0,B|242:229|242:229|151:278,2,147.000005607605,4|0|0,3:0|1:0|0:0,0:0:0:0:
377,318,96263,6,0,B|151:279|151:279|241:229,1,333.200006355286,4|0,3:0|1:0,0:0:0:0:
369,207,96802,2,0,B|335:223|335:223|366:117,2,147.000005607605,2|4|2,0:0|3:0|0:0,0:0:0:0:
423,21,97341,2,0,B|419:-9|419:-9|401:30,1,73.5000028038026,0|0,1:0|0:0,0:0:0:0:
366,118,97520,6,0,B|344:196|344:196|300:30,1,249.900004766464,2|0,1:0|0:0,0:0:0:0:
211,29,97880,2,0,B|195:63|195:63|301:32,1,147.000005607605,4|0,3:0|1:0,0:0:0:0:
344,196,98239,2,0,B|360:162|360:162|254:193,1,147.000005607605,2|0,2:0|0:0,0:0:0:0:
211,29,98598,2,0,L|251:129,2,81.3400011790924,2|2|0,1:0|3:0|1:0,0:0:0:0:
241,104,99137,6,0,B|-18:72|-18:72|78:175,1,392,2|2,1:0|1:0,0:0:0:0:
347,196,99856,2,0,B|481:168|481:168|464:203,2,176.399994616699,4|2|0,3:0|1:2|0:0,0:0:0:0:
370,370,100395,6,0,B|347:196|347:196|304:290,1,279.299992541886,6|0,0:0|0:0,0:0:0:0:
258,358,100754,2,0,B|145:327|145:327|181:361,1,156.8,0|0,1:0|1:0,0:0:0:0:
304,290,101113,6,0,B|286:77|286:77|222:185,1,333.200006355286,6|4,0:0|3:0,0:0:0:0:
225,179,101652,1,0,1:0:0:0:
169,68,101832,6,0,B|167:30|167:30|184:55,1,58.7999982055665
285,78,102011,2,0,B|489:58|489:58|391:12,1,294,4|4,3:0|3:0,0:0:0:0:
408,20,102730,6,0,L|394:215,1,196,0|2,1:0|3:2,0:0:0:0:
394,224,103179,1,2,3:2:0:0:
394,233,103269,1,2,3:2:0:0:
394,242,103359,1,2,3:2:0:0:
395,251,103449,1,2,1:2:0:0:
488,166,103808,5,0,1:0:0:0:
395,251,103987,2,0,L|38:226,1,342.999989532471,2|4,1:0|3:2,0:0:0:0:
43,109,105245,1,0,3:0:0:0:
53,228,105604,5,2,0:0:0:0:
43,109,105784,1,0,3:0:0:0:
43,109,106143,5,2,3:2:0:0:
53,228,106502,1,0,3:0:0:0:
99,163,106681,1,2,3:0:0:0:
43,109,106861,1,2,0:0:0:0:
43,109,107221,5,0,3:0:0:0:
99,163,107401,1,2,3:2:0:0:
174,181,107580,1,0,3:0:0:0:
247,159,107760,1,2,3:2:0:0:
247,159,108299,5,0,3:0:0:0:
174,181,108479,1,2,3:2:0:0:
99,163,108658,1,0,3:0:0:0:
43,109,108838,1,0,3:0:0:0:
25,185,109017,1,0,3:2:0:0:
25,185,109377,5,0,3:0:0:0:
99,163,109556,1,2,3:0:0:0:
174,181,109736,1,2,0:0:0:0:
247,159,109916,1,0,0:0:0:0:
238,141,110095,1,0,0:0:0:0:
240,125,110275,1,0,3:0:0:0:
248,117,110455,1,0,3:0:0:0:
316,57,110634,5,0,1:0:0:0:
316,57,110993,1,0,1:0:0:0:
248,117,111353,5,2,0:0:0:0:
316,57,111532,1,2,3:2:0:0:
308,183,111892,5,0,0:0:0:0:
316,57,112071,1,4,3:0:0:0:
375,123,112431,5,0,3:0:0:0:
316,57,112610,1,2,0:0:0:0:
442,63,112970,5,0,3:0:0:0:
375,123,113149,1,2,0:0:0:0:
375,123,113508,5,2,0:0:0:0:
373,141,114227,5,2,0:0:0:0:
104,362,114946,5,2,1:0:0:0:
43,99,115305,5,0,1:0:0:0:
104,362,115484,1,0,1:0:0:0:
