osu file format v14

[General]
AudioFilename: audio.mp3
AudioLeadIn: 0
PreviewTime: 0
Countdown: 0
SampleSet: Soft
StackLeniency: 0.7
Mode: 0
LetterboxInBreaks: 0
WidescreenStoryboard: 0

[Editor]
Bookmarks: 1413,12910,24407,35904,47401,58898,70395,81892,93389,104886,114946,116383
DistanceSpacing: 0.8
BeatDivisor: 4
GridSize: 32
TimelineZoom: 1

[Metadata]
Title:Pink Love (feat. Lency)
TitleUnicode:Pink Love (feat. Lency)
Artist:IAHN
ArtistUnicode:IAHN
Creator:_83
Version:Insane
Source:osu!
Tags:kwk lasse
BeatmapID:1411543
BeatmapSetID:667043

[Difficulty]
HPDrainRate:5
CircleSize:4
OverallDifficulty:8
ApproachRate:9
SliderMultiplier:1.9
SliderTickRate:1

[Events]
//Background and Video events
0,0,"qNlaBNM.jpg",0,0
//Break Periods
//Storyboard Layer 0 (Background)
//Storyboard Layer 1 (Fail)
//Storyboard Layer 2 (Pass)
//Storyboard Layer 3 (Foreground)
//Storyboard Sound Samples

[TimingPoints]
-24,359.281437125748,4,2,0,60,1,0
1413,-133.333333333333,4,2,0,60,0,0
11473,-133.333333333333,4,2,0,80,0,0
12910,-100,4,2,0,80,0,0
17041,-76.9230769230769,4,2,0,85,0,0
18658,-100,4,2,0,80,0,0
24407,-76.9230769230769,4,2,0,100,0,0
33029,-100,4,2,0,100,0,0
35904,-133.333333333333,4,2,0,50,0,0
47401,-100,4,2,0,65,0,0
70395,-76.9230769230769,4,2,0,80,0,1
93299,-100,4,2,0,95,0,0
93389,-66.6666666666667,4,2,0,95,0,1
102011,-76.9230769230769,4,2,0,85,0,1
104886,-133.333333333333,4,2,0,60,0,0
110634,-133.333333333333,4,2,0,70,0,0
114946,-100,4,2,0,60,0,0

[Colours]
Combo1 : 190,5,43
Combo2 : 255,128,192
Combo3 : 255,0,128

[HitObjects]
52,231,1413,6,0,P|73:301|82:388,1,142.500005435944,4|2,0:0|0:0,0:0:0:0:
185,205,2131,1,2,0:0:0:0:
136,141,2311,2,0,P|133:67|147:-18,1,142.500005435944,0|0,3:3|3:3,0:0:0:0:
334,21,3029,1,0,3:0:0:0:
300,99,3209,2,0,P|268:118|221:135,1,71.2500027179719,0|2,3:0|0:0,0:0:0:0:
389,85,3748,1,2,0:0:0:0:
467,118,3928,2,0,P|486:147|497:197,1,71.2500027179719,0|0,3:0|3:0,0:0:0:0:
128,342,4826,5,0,3:0:0:0:
138,253,5005,2,0,P|169:264|206:291,1,71.2500027179719,2|0,0:0|3:0,0:0:0:0:
0,220,5544,1,2,0:0:0:0:
66,20,5904,1,2,0:0:0:0:
4,87,6083,2,0,P|39:92|90:110,1,71.2500027179719,0|2,3:0|0:0,0:0:0:0:
278,134,6712,1,0,3:0:0:0:
282,123,6802,1,2,3:0:0:0:
258,42,6981,1,2,0:0:0:0:
176,58,7161,5,4,0:3:0:0:
176,58,7520,1,4,0:3:0:0:
405,33,7880,1,0,3:0:0:0:
438,114,8059,2,0,P|361:129|305:171,1,142.500005435944,2|0,0:0|3:0,0:0:0:0:
189,145,8598,2,0,P|126:130|65:74,1,142.500005435944,2|0,0:0|3:0,0:0:0:0:
218,42,9137,2,0,P|214:92|199:129,1,71.2500027179719,2|0,0:0|3:0,0:0:0:0:
128,175,9496,1,0,3:0:0:0:
81,257,9676,1,2,3:0:0:0:
323,366,10035,6,0,P|286:304|219:275,1,142.500005435944,4|0,0:3|3:0,0:0:0:0:
403,108,10754,2,2,P|341:144|312:212,1,142.500005435944,2|0,3:0|3:0,0:2:0:0:
512,384,11473,5,2,1:0:0:0:
512,294,11652,1,0,1:0:0:0:
421,318,12011,1,4,3:0:0:0:
330,342,12371,1,0,3:0:0:0:
297,326,12461,1,0,3:0:0:0:
263,313,12550,1,2,3:0:0:0:
227,317,12640,1,2,3:0:0:0:
193,327,12730,1,0,1:0:0:0:
157,323,12820,1,0,1:0:0:0:
125,305,12910,6,0,P|89:255|134:136,2,190,4|0|8,1:0|1:0|3:0,0:0:0:0:
263,313,13808,2,0,P|296:284|311:231,1,95,4|0,3:0|1:0,0:0:0:0:
245,115,14167,6,0,P|313:196|420:173,1,190,6|0,0:0|3:0,0:0:0:0:
509,115,14706,1,0,1:0:0:0:
417,12,14886,2,0,P|325:15|271:90,1,190,4|0,0:0|3:0,0:0:0:0:
325,205,15425,1,0,1:0:0:0:
268,317,15604,1,0,3:0:0:0:
141,301,15784,6,0,P|50:299|19:407,1,190,4|0,0:0|1:0,0:0:0:0:
0,195,16323,1,8,3:0:0:0:
117,124,16502,2,0,P|167:134|222:164,2,95,4|0|2,3:0|3:0|3:0,0:0:0:0:
13,34,17041,6,0,P|97:101|233:115,1,246.999988693238,2|4,1:0|0:3,0:0:0:0:
382,29,17580,1,0,1:0:0:0:
501,142,17760,2,0,P|494:229|335:233,1,246.999988693238,2|4,1:0|3:0,0:0:0:0:
215,149,18299,1,0,3:0:0:0:
174,133,18389,1,0,3:0:0:0:
131,139,18478,1,2,3:0:0:0:
96,164,18568,1,2,3:0:0:0:
72,200,18658,5,2,1:2:0:0:
166,234,19017,1,2,1:2:0:0:
260,268,19377,1,4,3:0:0:0:
177,326,19556,2,0,P|248:286|354:321,1,190,0|0,1:0|3:0,0:0:0:0:
461,384,20095,6,0,P|506:311|476:217,1,190,6|0,0:0|1:0,0:0:0:0:
372,134,20634,2,0,P|370:61|477:88,1,190,4|4,3:0|3:0,0:0:0:0:
391,218,21173,2,0,P|347:232|270:224,1,95,0|0,1:0|0:0,0:0:0:0:
204,173,21532,6,0,L|177:371,1,190,2|0,3:0|3:0,0:0:0:0:
13,377,22071,1,4,3:0:0:0:
24,276,22251,2,0,P|66:310|112:328,1,95,0|0,1:0|0:0,0:0:0:0:
228,272,22610,1,2,1:2:0:0:
254,251,22700,1,2,1:2:0:0:
269,221,22790,1,2,1:2:0:0:
272,187,22880,1,2,1:2:0:0:
267,153,22970,6,0,P|265:84|369:40,1,190,6|0,0:0|1:0,0:0:0:0:
462,62,23508,1,0,1:0:0:0:
202,7,23868,5,0,3:2:0:0:
126,63,24047,1,0,3:2:0:0:
85,149,24227,1,0,3:2:0:0:
133,240,24407,6,0,B|144:342|86:382|86:382|39:358|42:305,2,246.999988693238,4|0|4,1:0|1:0|3:0,0:0:0:0:
55,103,25305,2,0,P|69:33|123:-7,1,123.499994346619,8|0,3:0|1:0,0:0:0:0:
262,22,25664,2,0,P|317:102|239:227,1,246.999988693238,2|4,3:2|3:0,0:0:0:0:
80,237,26203,1,0,1:0:0:0:
177,380,26383,6,0,P|254:317|210:168,1,246.999988693238,4|0,0:0|0:0,0:0:0:0:
93,79,26922,1,0,1:0:0:0:
250,0,27101,1,8,3:0:0:0:
196,154,27281,1,4,3:0:0:0:
309,316,27461,5,2,1:0:0:0:
485,274,27640,1,0,1:0:0:0:
493,137,27820,1,0,3:0:0:0:
408,87,27999,5,8,3:0:0:0:
343,142,28180,1,8,3:0:0:0:
376,216,28359,1,4,3:0:0:0:
380,297,28538,1,2,3:0:0:0:
230,356,28718,5,2,1:2:0:0:
133,228,28898,1,4,3:0:0:0:
256,126,29077,1,0,1:0:0:0:
351,255,29257,2,0,P|283:344|141:318,1,246.999988693238,6|4,0:0|3:0,0:0:0:0:
87,186,29796,1,0,3:0:0:0:
81,143,29886,1,0,1:0:0:0:
90,101,29975,1,0,3:0:0:0:
228,0,30155,6,0,P|210:60|168:113,1,123.499994346619,2|0,1:2|3:0,0:0:0:0:
0,212,30514,2,0,P|82:125|205:152,1,246.999988693238,2|4,1:2|3:0,0:0:0:0:
321,258,31053,2,0,P|372:296|449:303,1,123.499994346619,0|0,1:0|0:0,0:0:0:0:
496,143,31413,6,0,P|371:174|328:282,1,246.999988693238,4|0,0:0|3:0,0:0:0:0:
460,384,31952,1,0,3:0:0:0:
506,227,32131,1,0,3:0:0:0:
509,183,32221,1,2,3:0:0:0:
496,143,32311,2,0,P|371:174|328:282,1,246.999988693238,4|0,0:0|1:0,0:0:0:0:
4,86,33029,6,0,P|69:129|194:137,1,190,4|4,0:0|3:0,0:0:0:0:
294,100,33568,1,4,3:0:0:0:
408,149,33748,2,0,P|443:192|463:253,1,95,0|0,1:0|0:0,0:0:0:0:
372,350,34107,1,2,0:0:0:0:
339,350,34197,1,2,0:0:0:0:
309,339,34287,1,2,0:0:0:0:
282,320,34377,1,2,0:0:0:0:
261,294,34467,6,0,P|228:255|160:230,1,95,0|4,1:0|3:0,0:0:0:0:
65,263,34826,1,0,1:0:0:0:
106,380,35005,1,0,1:0:0:0:
314,31,35904,6,0,L|472:13,1,142.500005435944,4|0,0:3|3:0,0:0:0:0:
503,169,36622,1,0,3:0:0:0:
412,176,36802,2,0,P|359:130|354:61,1,142.500005435944,2|0,0:0|0:0,0:0:0:0:
455,14,37341,1,4,0:3:0:0:
383,74,37700,1,0,3:0:0:0:
290,89,38059,1,0,3:0:0:0:
325,12,38239,5,2,0:0:0:0:
306,105,38419,1,0,3:0:0:0:
215,135,38598,1,0,3:0:0:0:
121,113,38778,6,0,P|77:127|28:208,1,142.500005435944,4|0,3:0|3:0,0:0:0:0:
161,293,39496,1,0,3:0:0:0:
137,214,39675,2,0,P|70:236|1:223,1,142.500005435944,2|0,0:0|0:0,0:0:0:0:
0,128,40215,5,4,3:0:0:0:
76,167,40395,1,0,3:0:0:0:
107,246,40574,1,0,3:0:0:0:
99,331,40754,2,0,P|136:378|223:372,1,142.500005435944,2|0,0:0|3:0,0:0:0:0:
221,384,41203,1,0,3:0:0:0:
221,384,41293,2,0,P|260:370|315:374,1,71.2500027179719,2|0,3:0|3:0,0:0:0:0:
403,384,41652,6,0,P|458:361|492:273,1,142.500005435944,4|0,0:3|3:0,0:0:0:0:
393,150,42371,1,4,0:3:0:0:
343,226,42550,2,0,P|388:280|457:293,1,142.500005435944,2|0,0:0|0:0,0:0:0:0:
432,213,43089,2,0,L|444:64,2,142.500005435944,4|2|4,0:3|3:0|0:3,0:0:0:0:
469,291,43987,5,2,0:0:0:0:
452,206,44167,1,0,3:0:0:0:
376,166,44347,1,0,3:0:0:0:
290,163,44526,2,0,P|223:127|198:53,1,142.500005435944,4|0,3:0|3:0,0:0:0:0:
355,0,45245,1,0,1:0:0:0:
332,82,45425,1,0,3:0:0:0:
202,193,45784,1,2,0:0:0:0:
223,275,45964,6,0,P|187:270|141:242,1,71.2500027179719,0|0,1:0|1:0,0:0:0:0:
401,373,46502,1,0,1:0:0:0:
474,302,46682,1,4,0:3:0:0:
452,264,46772,1,4,0:3:0:0:
437,223,46862,1,8,0:3:0:0:
439,180,46952,1,8,0:3:0:0:
466,147,47041,1,0,1:0:0:0:
492,113,47131,1,0,1:0:0:0:
485,70,47221,1,0,1:0:0:0:
453,41,47311,1,0,1:0:0:0:
406,32,47401,6,0,B|341:69|370:144|370:144|413:136|428:105,1,190,4|0,0:0|1:0,0:0:0:0:
186,0,48119,1,0,3:0:0:0:
203,81,48299,2,0,P|179:137|141:168,1,95,4|0,3:0|1:0,0:0:0:0:
55,175,48658,2,0,P|166:200|173:297,1,190,4|0,3:0|0:0,0:0:0:0:
132,348,49197,1,0,1:0:0:0:
401,346,49556,5,2,3:2:0:0:
326,293,49736,2,0,P|378:275|418:230,2,95,4|2|0,3:0|1:2|0:0,0:0:0:0:
322,201,50275,6,0,P|371:221|412:363,1,190,4|0,3:0|1:0,0:0:0:0:
512,174,50993,1,4,3:0:0:0:
416,156,51173,2,0,P|366:126|333:92,1,95,4|0,3:0|1:0,0:0:0:0:
334,18,51532,2,0,B|328:93|275:117|275:117|242:80|251:43,1,190,2|4,0:0|3:0,0:0:0:0:
115,12,52071,2,0,P|153:54|176:117,1,95,0|0,1:0|0:0,0:0:0:0:
119,171,52431,5,2,0:0:0:0:
25,192,52610,1,0,3:0:0:0:
20,183,52700,1,0,3:0:0:0:
15,174,52790,1,2,3:0:0:0:
63,104,52970,1,0,1:0:0:0:
141,203,53149,6,0,P|234:210|282:132,1,190,4|0,3:0|1:0,0:0:0:0:
428,0,53868,1,0,3:0:0:0:
348,33,54047,2,0,P|314:95|309:144,1,95,4|0,3:0|1:0,0:0:0:0:
406,215,54407,2,0,B|482:217|507:159|507:159|469:132|426:144,1,190,4|0,3:0|0:0,0:0:0:0:
321,145,54946,2,0,P|286:179|255:260,1,95,0|2,1:0|0:0,0:0:0:0:
432,377,55484,5,4,3:0:0:0:
455,305,55664,2,0,P|408:282|356:278,1,95,0|2,1:0|0:0,0:0:0:0:
286,334,56023,6,0,P|212:348|98:272,1,190,4|0,3:0|1:0,0:0:0:0:
65,118,56742,1,0,3:0:0:0:
138,173,56922,2,0,P|137:228|116:284,1,95,4|0,3:0|1:0,0:0:0:0:
200,384,57281,2,0,P|207:293|325:271,1,190,4|4,0:0|3:0,0:0:0:0:
384,308,57820,2,0,P|433:320|493:323,1,95,0|0,1:0|0:0,0:0:0:0:
475,174,58179,5,0,1:0:0:0:
441,192,58269,1,2,3:0:0:0:
414,219,58359,1,4,3:0:0:0:
450,95,58538,1,0,1:0:0:0:
450,95,58898,6,0,L|248:76,1,190,4|2,0:0|3:2,0:0:0:0:
155,92,59437,2,0,L|220:6,1,95,4|0,3:0|1:0,0:0:0:0:
38,120,59975,2,0,P|61:170|68:227,1,95,2|4,0:0|3:0,0:0:0:0:
76,294,60335,2,0,P|89:209|160:122,1,190,0|0,1:0|3:0,0:0:0:0:
260,154,60874,2,0,P|178:164|137:151,1,95,4|0,3:0|1:0,0:0:0:0:
174,358,61413,1,2,3:2:0:0:
117,289,61592,1,8,3:0:0:0:
123,198,61772,6,0,P|143:249|275:268,1,190,4|2,3:0|0:0,0:0:0:0:
382,234,62311,2,0,P|350:273|331:332,1,95,4|0,3:0|1:0,0:0:0:0:
499,241,62850,2,0,L|488:124,1,95,8|2,3:0|0:0,0:0:0:0:
491,37,63209,2,0,P|488:117|387:95,1,190,4|4,3:0|3:0,0:0:0:0:
334,21,63748,1,0,1:0:0:0:
229,9,63928,1,8,3:0:0:0:
152,76,64107,2,0,P|90:126|-16:111,1,190,4|0,0:0|0:0,0:0:0:0:
8,24,64646,6,0,P|58:99|29:212,1,190,6|0,3:0|1:0,0:0:0:0:
85,384,65365,2,0,P|99:329|141:275,1,95,2|4,0:0|3:0,0:0:0:0:
236,249,65724,1,0,1:0:0:0:
296,356,65904,1,0,3:0:0:0:
193,379,66083,6,0,P|157:342|142:290,1,95,4|2,3:0|0:0,0:0:0:0:
172,174,66443,1,0,1:0:0:0:
278,260,66622,6,0,L|497:222,1,190,2|4,0:0|3:0,0:0:0:0:
512,134,67161,2,0,P|459:109|415:55,1,95,0|0,1:0|0:0,0:0:0:0:
475,0,67520,6,0,L|454:117,1,95,4|0,3:0|0:0,0:0:0:0:
379,168,67880,1,0,0:0:0:0:
487,175,68059,2,0,P|465:131|416:96,1,95,2|4,0:0|3:0,0:0:0:0:
306,127,68419,2,0,P|283:173|297:243,1,95,0|0,0:0|1:0,0:0:0:0:
318,301,68778,1,2,0:0:0:0:
207,215,68958,5,0,1:0:0:0:
207,215,69137,1,0,1:0:0:0:
207,307,69317,6,0,P|247:323|319:327,1,95,2|0,1:0|0:0,0:0:0:0:
422,269,69676,1,0,1:0:0:0:
457,282,69766,1,0,1:0:0:0:
487,304,69856,1,4,3:0:0:0:
380,381,70035,2,0,P|377:313|426:218,1,142.5,2|0,1:0|0:0,0:0:0:0:
431,221,70395,6,0,P|446:169|432:98,1,123.499994346619,4|0,1:0|0:0,0:0:0:0:
289,67,70754,2,0,P|326:105|395:129,1,123.499994346619,0|0,1:0|0:0,0:0:0:0:
504,21,71113,1,4,3:0:0:0:
353,0,71293,2,0,P|274:40|248:79,1,123.499994346619,4|0,3:0|1:0,0:0:0:0:
232,180,71652,6,0,P|217:49|88:24,1,246.999988693238,4|4,0:0|3:0,0:0:0:0:
0,122,72191,1,0,1:0:0:0:
96,252,72371,2,0,P|152:232|201:184,1,123.499994346619,4|0,0:0|0:0,0:0:0:0:
280,40,72730,1,4,3:0:0:0:
322,14,72820,1,2,3:0:0:0:
371,7,72910,1,0,1:0:0:0:
477,53,73089,1,4,3:0:0:0:
500,166,73269,6,0,P|405:173|325:306,1,246.999988693238,2|0,1:0|1:0,0:0:0:0:
458,382,73808,1,4,3:0:0:0:
512,265,73987,1,2,3:2:0:0:
430,133,74167,2,0,P|408:73|431:-7,1,123.499994346619,4|0,3:0|1:0,0:0:0:0:
511,156,74526,6,0,P|402:220|290:165,1,246.999988693238,2|4,1:0|3:0,0:0:0:0:
205,49,75065,1,0,1:0:0:0:
365,25,75245,2,0,P|367:95|329:161,1,123.499994346619,2|2,0:0|3:0,0:0:0:0:
220,252,75604,2,0,P|157:283|81:277,1,123.499994346619,4|0,3:0|3:0,0:0:0:0:
56,271,75874,1,0,3:0:0:0:
21,235,75964,1,2,3:0:0:0:
6,188,76053,1,2,3:0:0:0:
22,141,76143,5,0,1:0:0:0:
269,384,76502,1,0,1:0:0:0:
512,281,76862,5,4,3:0:0:0:
464,354,77041,2,0,P|390:335|339:287,1,123.499994346619,0|0,1:0|0:0,0:0:0:0:
317,192,77401,1,0,0:0:0:0:
390,62,77580,6,0,P|349:211|245:209,1,246.999988693238,4|0,0:0|1:0,0:0:0:0:
116,159,78119,2,0,P|38:214|28:360,1,246.999988693238,4|4,3:0|3:0,0:0:0:0:
195,327,78658,2,0,P|198:256|179:205,1,123.499994346619,0|0,1:0|0:0,0:0:0:0:
52,91,79017,6,0,B|94:140|172:110|181:107|188:104|278:77|316:125,1,246.999988693238,4|2,3:0|3:0,0:0:0:0:
423,169,79556,2,0,P|370:138|329:79,1,123.499994346619,4|0,3:0|1:0,0:0:0:0:
506,328,80095,1,2,3:2:0:0:
466,298,80185,1,2,3:2:0:0:
418,283,80275,1,2,3:2:0:0:
368,283,80365,1,2,3:2:0:0:
321,298,80455,5,2,1:0:0:0:
212,384,80634,1,2,1:2:0:0:
420,168,80993,6,0,P|356:180|310:218,1,123.499994346619,0|0,1:0|0:0,0:0:0:0:
327,362,81353,2,0,P|340:292|325:226,1,123.499994346619,4|8,3:0|3:0,0:0:0:0:
308,203,81622,1,8,3:0:0:0:
315,160,81712,1,4,3:0:0:0:
345,128,81802,1,4,3:0:0:0:
388,125,81892,6,0,P|428:145|482:226,1,123.499994346619,4|0,1:0|0:0,0:0:0:0:
429,338,82251,2,0,P|423:278|446:208,1,123.499994346619,0|0,1:0|0:0,0:0:0:0:
512,87,82610,1,2,0:0:0:0:
390,0,82790,2,0,P|341:12|255:79,1,123.499994346619,4|0,3:0|1:0,0:0:0:0:
255,213,83149,6,0,P|271:108|157:65,1,246.999988693238,4|4,0:0|3:0,0:0:0:0:
3,143,83688,1,0,1:0:0:0:
27,312,83868,2,0,P|72:358|169:386,1,123.499994346619,4|0,0:0|0:0,0:0:0:0:
294,373,84227,1,0,3:0:0:0:
317,336,84317,1,4,3:0:0:0:
324,293,84407,1,0,1:0:0:0:
325,135,84586,1,2,0:0:0:0:
483,111,84766,6,0,P|515:217|408:240,1,246.999988693238,4|0,1:3|1:0,0:0:0:0:
273,152,85305,1,2,0:0:0:0:
322,0,85484,2,0,P|390:30|426:98,1,123.499994346619,8|4,3:0|3:0,0:0:0:0:
417,68,85844,1,4,3:0:0:0:
508,214,86023,6,0,P|454:293|286:257,1,246.999988693238,2|4,1:0|3:0,0:0:0:0:
198,151,86562,1,0,1:0:0:0:
282,0,86742,2,0,P|334:45|355:103,1,123.499994346619,2|0,1:0|0:0,0:0:0:0:
253,219,87101,2,0,P|234:322|257:375,1,123.499994346619,2|0,3:2|3:0,0:0:0:0:
273,372,87371,1,0,3:0:0:0:
321,383,87461,1,8,3:0:0:0:
369,375,87550,1,4,3:0:0:0:
405,341,87640,5,0,1:0:0:0:
104,250,87999,1,0,1:0:0:0:
172,40,88359,5,4,3:0:0:0:
224,100,88538,2,0,P|161:130|66:128,1,123.499994346619,0|0,1:0|0:0,0:0:0:0:
0,108,88898,1,4,3:0:0:0:
6,247,89077,6,0,P|112:175|228:194,1,246.999988693238,4|0,0:0|1:0,0:0:0:0:
348,295,89616,2,0,P|468:247|437:121,1,246.999988693238,4|4,3:0|3:0,0:0:0:0:
315,79,90155,2,0,P|272:125|259:195,1,123.499994346619,0|0,1:0|0:0,0:0:0:0:
389,272,90514,6,0,B|354:242|287:269|280:272|271:275|200:302|151:256,1,246.999988693238,4|0,3:0|3:0,0:0:0:0:
27,324,91053,2,0,P|84:333|145:385,1,123.499994346619,4|0,3:0|1:0,0:0:0:0:
1,115,91592,1,2,3:2:0:0:
25,71,91682,1,2,3:2:0:0:
66,43,91772,1,2,3:2:0:0:
115,36,91862,1,2,3:2:0:0:
164,42,91952,6,0,P|269:106|258:229,1,246.999988693238,4|0,1:2|1:0,0:0:0:0:
215,340,92490,1,0,1:0:0:0:
215,340,92580,1,8,3:0:0:0:
215,340,92670,1,4,3:0:0:0:
299,322,92850,1,0,3:0:0:0:
365,267,93029,1,0,3:0:0:0:
447,239,93209,1,0,3:0:0:0:
482,118,93389,6,0,P|455:217|257:192,2,285.000010871888,6|0|4,1:0|1:0|3:0,0:0:0:0:
337,0,94287,2,0,P|271:18|208:102,1,142.500005435944,4|0,3:0|1:0,0:0:0:0:
293,235,94646,6,0,P|236:343|82:323,1,285.000010871888,2|4,1:0|3:0,0:0:0:0:
0,168,95185,1,0,1:0:0:0:
143,49,95365,2,0,P|187:178|337:184,1,285.000010871888,6|4,1:2|3:0,0:0:0:0:
340,9,95904,2,0,P|294:53|279:140,1,142.500005435944,0|0,1:0|0:0,0:0:0:0:
422,253,96263,6,0,P|493:185|395:50,1,285.000010871888,4|0,3:0|1:0,0:0:0:0:
221,26,96802,1,2,0:0:0:0:
80,147,96981,2,0,P|65:211|93:292,1,142.500005435944,4|2,3:0|0:0,0:0:0:0:
267,335,97341,1,0,1:0:0:0:
428,234,97520,6,0,P|300:212|291:51,1,285.000010871888,2|4,1:0|3:0,0:0:0:0:
443,0,98059,1,0,1:0:0:0:
501,176,98239,2,0,P|454:244|352:276,1,142.500005435944,2|0,2:0|0:0,0:0:0:0:
221,231,98598,2,0,P|185:170|186:95,1,142.500005435944,2|2,1:0|3:0,0:0:0:0:
215,34,98868,1,2,3:0:0:0:
279,3,98958,1,0,1:0:0:0:
346,22,99047,1,0,1:0:0:0:
388,79,99137,5,2,1:0:0:0:
79,20,99496,1,2,1:0:0:0:
391,82,99856,5,4,3:0:0:0:
459,253,100035,2,0,P|445:324|366:389,1,142.500005435944,2|0,1:2|0:0,0:0:0:0:
212,361,100395,6,0,P|125:244|175:120,1,285.000010871888,6|0,0:0|1:0,0:0:0:0:
336,44,100934,1,0,1:0:0:0:
494,140,101113,2,0,P|429:201|253:120,1,285.000010871888,6|4,0:0|3:0,0:0:0:0:
132,5,101652,2,0,P|46:30|-11:93,1,142.500005435944,0|0,1:0|0:0,0:0:0:0:
19,224,102011,6,0,P|101:282|228:223,1,246.999988693238,4|2,3:0|3:0,0:0:0:0:
262,81,102550,2,0,P|228:130|212:210,1,123.499994346619,4|0,3:0|1:0,0:0:0:0:
435,327,103089,1,2,3:2:0:0:
470,276,103179,1,2,3:2:0:0:
485,216,103269,1,2,3:2:0:0:
466,156,103359,1,2,3:2:0:0:
422,111,103449,5,2,1:2:0:0:
243,384,103808,1,0,1:0:0:0:
364,281,103987,1,2,1:0:0:0:
364,281,104886,6,0,L|199:306,1,142.500005435944,2|0,3:2|3:0,0:0:0:0:
45,255,105604,1,2,0:0:0:0:
133,228,105784,1,0,3:0:0:0:
89,384,106143,2,0,P|152:354|189:295,1,142.500005435944,2|0,3:2|3:0,0:0:0:0:
156,205,106682,2,0,P|171:236|194:264,1,71.2500027179719,2|2,3:0|0:0,0:0:0:0:
348,285,107221,5,0,3:0:0:0:
429,306,107401,1,2,3:2:0:0:
476,376,107580,1,0,3:0:0:0:
476,376,107760,2,0,L|462:226,1,142.500005435944,2|0,3:2|3:0,0:0:0:0:
492,149,108299,1,0,3:0:0:0:
443,219,108478,1,2,3:2:0:0:
357,225,108658,1,0,3:0:0:0:
357,225,108838,1,0,3:0:0:0:
279,190,109017,6,2,P|216:211|174:293,1,142.500005435944,0|0,3:2|3:0,0:0:0:0:
225,349,109556,2,0,P|220:311|204:273,1,71.2500027179719,2|2,3:0|0:0,0:0:0:0:
83,185,110185,1,0,3:0:0:0:
83,185,110275,1,0,3:0:0:0:
47,106,110455,1,0,3:0:0:0:
80,27,110634,5,0,1:0:0:0:
80,27,110993,1,0,1:0:0:0:
280,52,111353,1,2,0:0:0:0:
214,9,111532,2,0,P|178:54|173:149,1,142.500005435944,2|0,3:2|0:0,0:0:0:0:
252,135,112071,6,0,L|393:160,1,142.500005435944,4|0,3:0|3:0,0:0:0:0:
471,133,112610,2,0,P|455:76|391:18,1,142.500005435944,2|0,0:0|3:0,0:0:0:0:
316,67,113149,1,2,0:0:0:0:
357,243,113508,1,2,0:0:0:0:
360,246,114227,1,2,0:0:0:0:
363,249,114946,6,0,P|344:340|234:372,1,190,2|0,1:0|1:0,0:0:0:0:
181,303,115484,1,0,1:0:0:0:
