osu file format v14

[General]
AudioFilename: audio.mp3
AudioLeadIn: 0
PreviewTime: 0
Countdown: 0
SampleSet: Soft
StackLeniency: 0.8
Mode: 0
LetterboxInBreaks: 0
WidescreenStoryboard: 1

[Editor]
Bookmarks: 1413,12910,24407,35904,47401,58898,70395,81892,93389,104886,114946,116383
DistanceSpacing: 1.06
BeatDivisor: 4
GridSize: 32
TimelineZoom: 1

[Metadata]
Title:Pink Love (feat. Lency)
TitleUnicode:Pink Love (feat. Lency)
Artist:IAHN
ArtistUnicode:IAHN
Creator:_83
Version:Hard
Source:osu!
Tags:kwk lasse
BeatmapID:1413122
BeatmapSetID:667043

[Difficulty]
HPDrainRate:4
CircleSize:4
OverallDifficulty:7
ApproachRate:8
SliderMultiplier:1.6
SliderTickRate:1

[Events]
//Background and Video events
0,0,"qNlaBNM.jpg",0,0
//Break Periods
//Storyboard Layer 0 (Background)
//Storyboard Layer 1 (Fail)
//Storyboard Layer 2 (Pass)
//Storyboard Layer 3 (Foreground)
//Storyboard Sound Samples

[TimingPoints]
-24,359.281437125748,4,2,0,60,1,0
1413,-100,4,2,0,60,0,0
11473,-100,4,2,0,80,0,0
12910,-100,4,2,0,80,0,0
17041,-100,4,2,0,85,0,0
18658,-100,4,2,0,80,0,0
24407,-100,4,2,0,100,0,0
33029,-100,4,2,0,100,0,0
35904,-125,4,2,0,50,0,0
47401,-100,4,2,0,65,0,0
58898,-125,4,2,0,65,0,0
70395,-100,4,2,0,80,0,1
93299,-100,4,2,0,95,0,0
93389,-83.3333333333333,4,2,0,95,0,1
102011,-100,4,2,0,85,0,1
104886,-100,4,2,0,60,0,0
110634,-100,4,2,0,70,0,0
114946,-100,4,2,0,60,0,0

[Colours]
Combo1 : 190,5,43
Combo2 : 255,128,192
Combo3 : 255,0,128

[HitObjects]
26,268,1413,6,0,B|103:299|103:299|206:259,1,160,4|2,0:0|0:0,0:0:0:0:
327,242,2131,2,0,L|226:227,1,80,2|0,0:0|3:3,0:0:0:0:
316,381,2670,1,0,3:3:0:0:
420,291,3029,2,0,P|404:332|395:386,2,80,0|0|2,3:0|3:0|0:0,0:0:0:0:
420,291,3748,1,2,0:0:0:0:
496,244,3928,2,0,P|487:198|466:161,1,80,0|0,3:0|3:0,0:0:0:0:
185,14,4826,5,0,3:0:0:0:
224,84,5005,2,0,P|275:98|315:101,1,80,2|0,0:0|3:0,0:0:0:0:
137,98,5544,2,0,P|101:142|89:246,1,160,2|2,0:0|0:0,0:0:0:0:
142,304,6083,2,0,P|134:363|120:404,1,80,0|2,3:0|0:0,0:0:0:0:
455,146,7161,6,0,L|432:329,1,160,4|4,0:3|0:3,0:0:0:0:
330,170,7880,1,0,3:0:0:0:
289,100,8059,2,0,P|327:43|418:23,1,160,2|0,0:0|3:0,0:0:0:0:
415,24,8598,2,0,L|238:40,1,160,2|0,0:0|3:0,0:0:0:0:
174,47,9137,2,0,B|95:23|95:23|41:96,1,160,2|0,0:0|3:0,0:0:0:0:
3,152,9676,1,2,3:0:0:0:
70,301,10035,5,4,0:3:0:0:
70,301,11473,1,2,1:0:0:0:
138,348,11652,2,0,P|178:360|229:364,1,80,0|0,1:0|0:0,0:0:0:0:
292,331,12011,2,0,P|332:319|383:315,1,80,4|0,3:0|0:0,0:0:0:0:
457,340,12371,1,0,3:0:0:0:
457,340,12461,1,0,3:0:0:0:
457,340,12550,2,0,L|462:300,3,40,2|2|0|0,3:0|3:0|1:0|1:0,0:0:0:0:
485,264,12910,6,0,P|493:195|398:144,1,160,4|0,1:0|1:0,0:0:0:0:
261,154,13628,1,8,3:0:0:0:
187,115,13808,2,0,P|181:68|188:21,1,80,4|0,3:0|1:0,0:0:0:0:
265,0,14167,6,0,P|235:56|119:58,1,160,6|0,0:0|3:0,0:0:0:0:
68,40,14706,1,0,1:0:0:0:
15,106,14886,2,0,L|35:284,1,160,4|0,0:0|3:0,0:0:0:0:
103,311,15425,2,0,P|114:272|146:221,1,80,0|0,1:0|3:0,0:0:0:0:
207,197,15784,5,4,0:0:0:0:
442,294,16323,1,8,3:0:0:0:
390,360,16502,2,0,P|353:372|305:373,2,80,4|0|2,3:0|3:0|3:0,0:0:0:0:
442,294,17041,6,0,P|390:264|283:282,1,160,2|4,1:0|0:3,0:0:0:0:
234,335,17580,1,0,1:0:0:0:
158,374,17760,2,0,P|155:330|141:281,1,80,2|0,1:0|0:0,0:0:0:0:
71,255,18119,2,0,P|61:293|59:333,1,80,4|0,3:0|3:0,0:0:0:0:
12,170,18658,5,2,1:2:0:0:
12,170,19017,1,2,1:2:0:0:
12,170,19377,1,4,3:0:0:0:
75,113,19556,2,0,P|152:117|214:178,1,160,0|0,1:0|3:0,0:0:0:0:
245,248,20095,5,6,0:0:0:0:
486,168,20634,2,0,P|406:151|348:94,1,160,4|4,3:0|3:0,0:0:0:0:
430,68,21173,2,0,P|412:133|390:159,1,80,0|0,1:0|0:0,0:0:0:0:
344,201,21532,6,0,P|312:255|319:357,2,160,2|0|0,3:0|3:0|1:0,0:0:0:0:
499,268,22610,1,2,1:2:0:0:
499,268,22700,1,2,1:2:0:0:
499,268,22790,2,0,L|453:278,1,40,2|2,1:2|1:2,0:0:0:0:
418,286,22970,6,0,P|349:278|288:197,1,160,6|0,0:0|1:0,0:0:0:0:
275,129,23508,1,0,1:0:0:0:
424,47,23868,2,0,P|456:40|502:7,2,80,0|0|0,3:2|3:2|3:2,0:0:0:0:
344,17,24407,6,0,B|262:7|262:7|194:62,1,160,4|0,1:0|1:0,0:0:0:0:
48,127,25125,2,0,L|132:145,2,80,4|8|0,3:0|3:0|1:0,0:0:0:0:
14,205,25664,2,0,B|58:271|58:271|20:356,1,160,2|4,3:2|3:0,0:0:0:0:
102,380,26203,1,0,1:0:0:0:
102,380,26383,2,0,B|177:353|177:353|210:253,1,160,4|0,0:0|0:0,0:0:0:0:
188,192,26922,2,0,L|286:203,1,80,0|8,1:0|3:0,0:0:0:0:
350,216,27281,5,4,3:0:0:0:
315,293,27461,1,2,1:0:0:0:
315,293,27640,2,0,P|350:305|392:340,1,80,0|0,1:0|3:0,0:0:0:0:
443,269,27999,2,0,P|474:244|512:231,1,80,8|8,3:0|3:0,0:0:0:0:
464,160,28359,2,0,L|448:69,1,80,4|2,3:0|3:0,0:0:0:0:
376,38,28718,1,2,1:2:0:0:
376,38,28898,2,0,L|359:139,1,80,4|0,3:0|1:0,0:0:0:0:
336,197,29257,2,0,B|259:222|259:222|182:155,1,160,6|4,0:0|3:0,0:0:0:0:
143,105,29796,2,0,L|151:59,3,40,0|0|0|0,3:0|1:0|3:0|0:0,0:0:0:0:
180,36,30155,5,2,1:2:0:0:
180,36,30514,1,2,1:2:0:0:
19,92,30874,1,4,3:0:0:0:
18,176,31053,2,0,P|55:186|93:204,1,80,0|0,1:0|0:0,0:0:0:0:
135,277,31413,2,0,B|192:331|192:331|306:331,1,160,4|0,0:0|3:0,0:0:0:0:
358,338,31952,2,0,L|438:338,1,80,0|0,3:0|3:0,0:0:0:0:
438,338,32221,1,2,3:0:0:0:
438,338,32311,2,0,P|413:250|466:178,1,160,4|0,0:0|1:0,0:0:0:0:
499,33,33029,6,0,L|321:18,1,160,4|4,0:0|3:0,0:0:0:0:
258,43,33568,2,0,B|336:27|336:27|410:62,1,160,4|0,3:0|0:0,0:0:0:0:
473,116,34107,2,0,L|454:163,3,40,2|2|2|2,0:0|0:0|0:0|0:0,0:0:0:0:
461,195,34467,5,0,1:0:0:0:
461,195,34826,1,0,1:0:0:0:
429,273,35005,1,0,1:0:0:0:
429,273,35904,6,0,P|392:325|321:346,1,128,4|0,0:3|3:0,0:0:0:0:
246,227,36622,1,0,3:0:0:0:
246,227,36802,2,0,P|302:263|324:325,1,128,2|0,0:0|0:0,0:0:0:0:
272,376,37341,1,4,0:3:0:0:
28,195,38239,2,0,L|15:273,2,64,2|0|0,0:0|3:0|3:0,0:0:0:0:
19,115,38778,6,0,L|150:155,1,128,4|0,3:0|3:0,0:0:0:0:
233,51,39496,1,0,3:0:0:0:
233,51,39676,2,0,P|177:69|129:132,1,128,2|0,0:0|0:0,0:0:0:0:
136,198,40215,2,0,P|163:237|191:259,2,64,4|0|0,3:0|3:0|3:0,0:0:0:0:
210,178,40754,2,0,L|408:207,1,192,2|2,0:0|3:0,0:0:0:0:
492,82,41652,6,0,P|435:117|415:197,1,128,4|0,0:3|3:0,0:0:0:0:
506,259,42371,1,4,0:3:0:0:
506,259,42550,2,0,P|475:222|386:209,1,128,2|0,0:0|0:0,0:0:0:0:
334,250,43089,1,4,0:3:0:0:
334,250,43808,1,4,0:3:0:0:
264,296,43987,2,0,P|276:320|285:377,2,64,2|0|0,0:0|3:0|3:0,0:0:0:0:
192,337,44526,6,0,L|44:344,1,128,4|0,3:0|3:0,0:0:0:0:
12,212,45245,1,0,1:0:0:0:
12,212,45425,1,0,3:0:0:0:
75,79,45784,1,2,0:0:0:0:
75,79,45964,6,0,P|111:100|137:131,1,64,0|0,1:0|1:0,0:0:0:0:
259,26,46502,1,0,1:0:0:0:
224,101,46682,1,4,0:3:0:0:
224,101,46772,1,4,0:3:0:0:
224,101,46862,2,0,P|228:121|231:146,5,32,8|8|0|0|0|0,0:3|0:3|1:0|1:0|1:0|1:0,0:0:0:0:
211,164,47401,6,0,L|195:327,1,160,4|0,0:0|1:0,0:0:0:0:
352,384,48119,1,0,3:0:0:0:
429,348,48299,2,0,P|419:297|389:261,1,80,4|0,3:0|1:0,0:0:0:0:
332,227,48658,6,0,P|344:161|423:119,1,160,4|0,3:0|0:0,0:0:0:0:
501,143,49197,1,0,1:0:0:0:
401,5,49556,1,2,3:2:0:0:
324,42,49736,1,4,3:0:0:0:
324,42,49916,2,0,P|283:57|232:58,1,80,2|0,1:2|0:0,0:0:0:0:
177,11,50275,6,0,P|106:17|41:107,1,160,4|0,3:0|1:0,0:0:0:0:
3,261,50993,1,4,3:0:0:0:
57,326,51173,2,0,P|98:361|150:380,1,80,4|0,3:0|1:0,0:0:0:0:
205,360,51532,6,0,P|228:316|145:244,1,160,2|4,0:0|3:0,0:0:0:0:
214,173,52071,2,0,L|308:179,1,80,0|0,1:0|0:0,0:0:0:0:
365,225,52431,2,0,L|420:219,2,40,2|0|0,0:0|0:0|3:0,0:0:0:0:
332,303,52790,2,0,L|313:397,1,80,2|0,3:0|1:0,0:0:0:0:
398,360,53149,6,0,P|472:304|479:215,1,160,4|0,3:0|1:0,0:0:0:0:
383,105,53868,1,0,3:0:0:0:
407,24,54047,2,0,P|444:13|494:8,1,80,4|0,3:0|1:0,0:0:0:0:
493,93,54407,6,0,P|420:130|392:202,1,160,4|0,3:0|0:0,0:0:0:0:
442,267,54946,1,0,1:0:0:0:
315,379,55305,1,0,0:0:0:0:
244,333,55484,2,0,P|220:362|174:389,2,80,4|0|2,3:0|1:0|0:0,0:0:0:0:
244,248,56023,6,0,P|173:270|114:338,1,160,4|0,3:0|1:0,0:0:0:0:
0,194,56742,1,0,3:0:0:0:
40,130,56922,2,0,P|85:133|130:156,1,80,4|0,3:0|1:0,0:0:0:0:
190,204,57281,1,4,0:0:0:0:
128,41,57640,5,4,3:0:0:0:
207,9,57820,2,0,L|312:21,1,80,0|0,1:0|0:0,0:0:0:0:
348,76,58179,2,0,L|412:75,2,40,0|2|4,1:0|3:0|3:0,0:0:0:0:
291,139,58538,1,0,1:0:0:0:
435,180,58898,6,0,P|423:242|420:312,2,128,4|2|0,0:0|3:2|1:0,0:0:0:0:
333,283,59975,2,0,P|343:314|349:359,1,64,2|4,0:0|3:0,0:0:0:0:
272,365,60335,2,0,P|210:358|122:333,1,128,0|0,1:0|3:0,0:0:0:0:
101,278,60874,2,0,P|127:210|235:219,1,192,4|2,3:0|3:2,0:0:0:0:
196,63,61772,6,0,P|163:136|111:179,2,128,4|2|0,3:0|0:0|1:0,0:0:0:0:
232,215,62850,2,0,P|261:228|314:239,1,64,8|2,3:0|0:0,0:0:0:0:
368,247,63209,2,0,P|433:230|499:179,1,128,4|4,3:0|3:0,0:0:0:0:
493,119,63748,2,0,L|411:130,1,64,0|8,1:0|3:0,0:0:0:0:
365,171,64107,2,0,P|352:238|374:308,1,128,4|0,0:0|0:0,0:0:0:0:
423,354,64646,6,0,P|363:327|289:339,1,128,6|0,3:0|1:0,0:0:0:0:
151,367,65365,2,0,P|99:365|77:356,2,64,2|4|0,0:0|3:0|1:0,0:0:0:0:
211,315,65904,1,0,3:0:0:0:
211,315,66083,2,0,P|203:275|183:242,1,64,4|2,3:0|0:0,0:0:0:0:
126,201,66443,1,0,1:0:0:0:
35,217,66622,2,0,P|6:164|14:78,1,128,2|4,0:0|3:0,0:0:0:0:
34,19,67161,1,0,1:0:0:0:
196,7,67520,6,0,P|203:73|200:142,1,128,4|0,3:0|1:0,0:0:0:0:
256,207,68059,2,0,P|317:191|390:190,2,128,2|0|2,0:0|0:0|0:0,0:0:0:0:
195,273,68958,5,0,1:0:0:0:
195,273,69137,1,0,1:0:0:0:
230,353,69317,2,0,P|262:362|308:368,1,64,2|0,1:0|0:0,0:0:0:0:
363,315,69676,2,0,L|368:269,2,32,0|0|4,1:0|1:0|3:0,0:0:0:0:
440,346,70035,1,2,1:0:0:0:
479,178,70395,6,0,P|394:172|322:123,1,160,4|0,1:0|1:0,0:0:0:0:
434,0,71113,2,0,P|429:50|409:96,1,80,4|4,3:0|3:0,0:0:0:0:
353,132,71473,1,0,1:0:0:0:
269,118,71652,6,0,P|215:141|188:246,1,160,4|4,0:0|3:0,0:0:0:0:
248,287,72191,1,0,1:0:0:0:
248,287,72371,2,0,P|184:243|92:239,1,160,4|4,0:0|3:0,0:0:0:0:
42,177,72910,2,0,P|78:147|111:105,1,80,0|4,1:0|3:0,0:0:0:0:
86,37,73269,5,2,1:0:0:0:
22,283,73808,1,4,3:0:0:0:
78,346,73987,2,0,P|113:358|154:386,2,80,2|4|0,3:2|3:0|1:0,0:0:0:0:
0,380,74526,6,0,P|78:329|105:268,1,160,2|4,1:0|3:0,0:0:0:0:
86,187,75065,1,0,1:0:0:0:
48,110,75245,2,0,P|93:63|125:50,1,80,2|2,0:0|3:0,0:0:0:0:
187,78,75604,2,0,P|227:85|288:85,1,80,4|0,3:0|3:0,0:0:0:0:
341,28,75964,1,2,3:0:0:0:
341,28,76053,1,2,3:0:0:0:
341,28,76143,6,0,L|356:195,1,160,0|0,1:0|1:0,0:0:0:0:
494,285,76862,1,4,3:0:0:0:
460,207,77041,2,0,P|421:238|394:341,1,160,0|0,1:0|0:0,0:0:0:0:
319,381,77580,6,0,P|279:306|286:216,1,160,4|0,0:0|1:0,0:0:0:0:
329,163,78119,2,0,P|324:118|223:104,1,160,4|4,3:0|3:0,0:0:0:0:
178,170,78658,2,0,L|88:176,1,80,0|0,1:0|0:0,0:0:0:0:
45,242,79017,6,0,P|96:270|111:369,1,160,4|2,3:0|3:0,0:0:0:0:
29,381,79556,1,4,3:0:0:0:
29,381,79736,1,0,1:0:0:0:
198,371,80095,1,2,3:2:0:0:
198,371,80185,1,2,3:2:0:0:
198,371,80275,2,0,L|211:310,1,40,2|2,3:2|3:2,0:0:0:0:
222,291,80455,6,0,P|241:249|279:218,1,80,2|2,1:0|1:2,0:0:0:0:
398,331,80993,1,0,1:0:0:0:
337,172,81353,1,4,3:0:0:0:
389,105,81532,2,0,L|448:97,3,40,8|8|4|4,3:0|3:0|3:0|3:0,0:0:0:0:
457,67,81892,6,0,P|375:65|288:22,1,160,4|0,1:0|1:0,0:0:0:0:
136,11,82610,2,0,P|130:50|103:95,1,80,2|4,0:0|3:0,0:0:0:0:
42,136,82970,1,0,1:0:0:0:
16,216,83149,6,0,P|68:249|171:243,1,160,4|4,0:0|3:0,0:0:0:0:
228,191,83688,1,0,1:0:0:0:
228,191,83868,2,0,P|212:269|145:342,1,160,4|0,0:0|3:0,0:0:0:0:
228,383,84407,2,0,L|327:370,1,80,0|2,1:0|0:0,0:0:0:0:
391,358,84766,5,4,1:3:0:0:
482,120,85305,1,2,0:0:0:0:
418,63,85484,2,0,P|369:55|319:30,2,80,8|4|4,3:0|3:0|3:0,0:0:0:0:
482,7,86023,6,0,P|457:90|405:143,1,160,2|4,1:0|3:0,0:0:0:0:
330,178,86562,1,0,1:0:0:0:
259,224,86742,2,0,P|239:264|244:335,1,80,2|0,1:0|0:0,0:0:0:0:
291,362,87101,2,0,P|332:351|382:350,1,80,2|0,3:2|3:0,0:0:0:0:
460,375,87461,1,8,3:0:0:0:
460,375,87550,1,4,3:0:0:0:
460,375,87640,6,0,L|481:208,1,160,0|0,1:0|1:0,0:0:0:0:
406,63,88359,1,4,3:0:0:0:
488,39,88538,2,0,P|469:109|379:162,1,160,0|4,1:0|3:0,0:0:0:0:
317,138,89077,6,0,P|227:170|190:243,1,160,4|0,0:0|1:0,0:0:0:0:
225,300,89616,2,0,P|220:353|127:358,1,160,4|4,3:0|3:0,0:0:0:0:
77,293,90155,2,0,P|25:296|-11:309,1,80,0|0,1:0|0:0,0:0:0:0:
0,218,90514,6,0,L|28:49,1,160,4|0,3:0|3:0,0:0:0:0:
101,20,91053,1,4,3:0:0:0:
101,20,91233,1,0,1:0:0:0:
239,118,91592,1,2,3:2:0:0:
239,118,91682,1,2,3:2:0:0:
239,118,91772,2,0,P|230:98|221:69,1,40,2|2,3:2|3:2,0:0:0:0:
212,39,91952,6,0,P|194:115|184:206,1,160,4|0,1:2|1:0,0:0:0:0:
222,271,92490,1,0,1:0:0:0:
82,368,92850,2,0,P|101:325|105:288,2,80,0|0|0,3:0|3:0|3:0,0:0:0:0:
0,365,93389,6,0,P|12:269|67:189,1,191.999994140625,6|0,1:0|1:0,0:0:0:0:
203,43,94107,2,0,P|191:93|156:157,2,95.9999970703126,4|4|0,3:0|3:0|1:0,0:0:0:0:
107,8,94646,6,0,P|160:71|287:65,1,191.999994140625,2|4,1:0|3:0,0:0:0:0:
357,36,95185,1,0,1:0:0:0:
357,36,95365,2,0,P|450:41|505:130,1,191.999994140625,6|4,1:2|3:0,0:0:0:0:
468,212,95904,2,0,P|452:259|457:344,1,95.9999970703126,0|0,1:0|0:0,0:0:0:0:
364,361,96263,6,0,P|333:260|344:162,1,191.999994140625,4|0,3:0|1:0,0:0:0:0:
326,74,96802,1,2,0:0:0:0:
326,74,96981,2,0,P|272:33|218:21,2,95.9999970703126,4|2|0,3:0|0:0|1:0,0:0:0:0:
254,147,97520,6,0,P|154:133|78:62,1,191.999994140625,2|4,1:0|3:0,0:0:0:0:
169,16,98059,1,0,1:0:0:0:
254,71,98239,2,0,P|205:185|121:224,1,191.999994140625,2|2,2:0|1:0,0:0:0:0:
65,274,98778,2,0,L|-10:261,2,47.9999985351563,2|2|0,3:0|3:0|1:0,0:0:0:0:
123,357,99137,5,2,1:0:0:0:
70,160,99496,1,2,1:0:0:0:
198,318,99856,2,0,P|244:315|301:330,1,95.9999970703126,4|2,3:0|1:2,0:0:0:0:
394,359,100215,1,0,0:0:0:0:
394,359,100395,6,0,P|381:295|482:237,1,191.999994140625,6|0,0:0|1:0,0:0:0:0:
499,136,100934,1,0,1:0:0:0:
499,136,101113,2,0,P|437:197|313:208,1,191.999994140625,6|4,0:0|3:0,0:0:0:0:
237,188,101652,2,0,P|188:152|160:98,1,95.9999970703126,0|0,1:0|0:0,0:0:0:0:
163,38,102011,6,0,P|199:93|177:197,1,160,4|2,3:0|3:0,0:0:0:0:
116,229,102550,1,4,3:0:0:0:
116,229,102730,2,0,P|72:227|17:215,1,80,0|0,1:0|0:0,0:0:0:0:
8,300,103089,1,2,3:2:0:0:
8,300,103179,1,2,3:2:0:0:
8,300,103269,2,0,L|37:346,1,40,2|2,3:2|3:2,0:0:0:0:
55,367,103449,6,0,P|112:377|200:305,1,160,2|0,1:2|1:0,0:0:0:0:
211,240,103987,1,2,1:0:0:0:
211,240,104886,6,0,P|228:316|292:371,1,160,2|0,3:2|3:0,0:0:0:0:
453,337,105604,2,0,P|409:330|356:340,1,80,2|0,0:0|3:0,0:0:0:0:
496,215,106143,1,2,3:2:0:0:
496,215,106502,2,0,P|430:193|402:177,2,80,0|2|2,3:0|3:0|0:0,0:0:0:0:
405,71,107221,2,0,P|445:41|468:8,2,80,0|2|0,3:0|3:2|3:0,0:0:0:0:
322,51,107760,5,2,3:2:0:0:
68,32,108299,1,0,3:0:0:0:
83,115,108478,2,0,P|123:102|174:97,2,80,2|0|0,3:2|3:0|3:0,0:0:0:0:
25,177,109017,2,0,P|31:244|111:311,1,160,0|0,3:2|3:0,0:0:0:0:
179,297,109556,2,0,P|234:324|256:362,1,80,2|2,3:0|0:0,0:0:0:0:
248,341,110634,5,0,1:0:0:0:
248,341,110993,1,0,1:0:0:0:
82,379,111353,1,2,0:0:0:0:
22,318,111532,2,0,P|33:272|118:199,1,160,2|0,3:2|0:0,0:0:0:0:
194,230,112071,6,0,P|277:223|366:205,1,160,4|0,3:0|3:0,0:0:0:0:
415,152,112610,1,2,0:0:0:0:
345,0,112970,2,0,P|349:46|372:101,1,80,0|2,3:0|0:0,0:0:0:0:
506,162,113508,5,2,0:0:0:0:
506,162,114227,1,2,0:0:0:0:
506,162,114946,6,0,L|316:189,1,160,2|0,1:0|1:0,0:0:0:0:
285,241,115484,1,0,1:0:0:0:
