osu file format v14

[General]
AudioFilename: audio.mp3
AudioLeadIn: 0
PreviewTime: 70545
Countdown: 0
SampleSet: Soft
StackLeniency: 1
Mode: 3
LetterboxInBreaks: 0
SpecialStyle: 0
WidescreenStoryboard: 0

[Editor]
Bookmarks: 4443,73425,107916
DistanceSpacing: 1.3
BeatDivisor: 4
GridSize: 32
TimelineZoom: 1

[Metadata]
Title:Pink Love (feat. Lency)
TitleUnicode:Pink Love (feat. Lency)
Artist:IAHN
ArtistUnicode:IAHN
Creator:Feerum
Version:4K Hard
Source:osu!
Tags:featured artist electronic korean mappers' guild
BeatmapID:1160646
BeatmapSetID:548030

[Difficulty]
HPDrainRate:8
CircleSize:4
OverallDifficulty:8
ApproachRate:10
SliderMultiplier:1.4
SliderTickRate:1

[Events]
//Background and Video events
0,0,"BG.jpg",0,0
//Break Periods
//Storyboard Layer 0 (Background)
//Storyboard Layer 1 (Fail)
//Storyboard Layer 2 (Pass)
//Storyboard Layer 3 (Foreground)
//Storyboard Layer 4 (Overlay)
//Storyboard Sound Samples
Sample,4437,0,"twinkling.wav",50
Sample,73419,0,"twinkling.wav",50
Sample,107910,0,"twinkling.wav",50

[TimingPoints]
126,359.281437125748,4,2,1,45,1,0
70545,-100,4,2,1,45,0,1
80605,-100,4,2,1,45,0,0
82042,-100,4,2,1,45,0,1
93539,-100,4,2,1,45,0,0

[HitObjects]
192,192,126,5,0,0:0:0:0:
192,192,485,1,0,0:0:0:0:
192,192,844,1,0,0:0:0:0:
192,192,1203,1,0,0:0:0:0:
448,192,1563,1,0,3:0:0:0:
64,192,1563,1,4,3:0:0:0:
192,192,1922,1,0,0:0:0:0:
320,192,2281,1,0,0:0:0:0:
64,192,2461,1,0,0:0:0:0:
192,192,2820,1,0,0:0:0:0:
64,192,3179,1,0,0:0:0:0:
192,192,3359,1,0,0:0:0:0:
320,192,3539,1,0,0:0:0:0:
320,192,3898,1,0,0:0:0:0:
192,192,4078,1,0,0:0:0:0:
64,192,4257,1,0,0:0:0:0:
448,192,4437,1,0,0:0:0:0:
320,192,4976,1,0,0:0:0:0:
192,192,5155,1,0,0:0:0:0:
64,192,5335,1,0,0:0:0:0:
320,192,5694,1,0,0:0:0:0:
448,192,6054,1,0,0:0:0:0:
192,192,6233,1,0,0:0:0:0:
320,192,6413,1,0,0:0:0:0:
64,192,6593,1,0,0:0:0:0:
448,192,6772,1,0,0:0:0:0:
320,192,6952,1,0,0:0:0:0:
192,192,7131,1,0,0:0:0:0:
64,192,7311,1,0,0:0:0:0:
448,192,7311,1,0,3:0:0:0:
448,192,7670,1,0,0:0:0:0:
64,192,7670,1,0,3:0:0:0:
320,192,8030,1,0,0:0:0:0:
192,192,8209,1,0,0:0:0:0:
64,192,8569,1,0,0:0:0:0:
320,192,8748,1,0,0:0:0:0:
448,192,8748,1,0,3:0:0:0:
320,192,9108,1,0,0:0:0:0:
192,192,9287,1,0,0:0:0:0:
448,192,9467,1,0,0:0:0:0:
64,192,9646,1,0,0:0:0:0:
320,192,9826,1,0,0:0:0:0:
192,192,10185,1,0,0:0:0:0:
448,192,10545,128,0,11623:0:0:0:0:
64,192,10545,1,0,0:0:0:0:
64,192,10904,1,0,0:0:0:0:
64,192,11263,1,0,0:0:0:0:
192,192,11623,1,8,3:0:0:0:
64,192,11623,1,0,0:0:0:0:
320,192,11802,1,8,3:0:0:0:
448,192,11802,1,0,0:0:0:0:
320,192,12161,1,0,0:0:0:0:
64,192,12161,1,2,3:0:0:0:
192,192,12341,1,2,3:0:0:0:
320,192,12431,1,2,3:0:0:0:
448,192,12521,1,2,3:0:0:0:
64,192,12521,1,2,3:0:0:0:
192,192,12611,1,2,3:0:0:0:
320,192,12700,1,8,3:0:0:0:
64,192,12790,1,8,3:0:0:0:
448,192,12880,1,8,3:0:0:0:
320,192,12970,1,8,3:0:0:0:
192,192,13060,1,0,3:0:0:0:
64,192,13060,1,4,3:0:0:0:
448,192,13239,1,0,0:0:0:0:
320,192,13419,1,8,3:0:0:0:
192,192,13419,1,0,0:0:0:0:
64,192,13599,1,0,0:0:0:0:
192,192,13778,1,0,0:0:0:0:
448,192,13958,1,0,3:0:0:0:
320,192,14137,1,0,0:0:0:0:
192,192,14137,1,8,3:0:0:0:
64,192,14317,1,0,3:0:0:0:
320,192,14317,1,4,3:0:0:0:
448,192,14497,1,0,0:0:0:0:
192,192,14676,1,0,3:0:0:0:
320,192,14856,1,8,3:0:0:0:
64,192,14856,1,0,0:0:0:0:
448,192,15036,1,4,3:0:0:0:
192,192,15036,1,0,3:0:0:0:
320,192,15395,1,0,3:0:0:0:
192,192,15575,1,0,0:0:0:0:
448,192,15575,1,8,3:0:0:0:
64,192,15754,1,0,0:0:0:0:
320,192,15934,1,0,3:0:0:0:
192,192,15934,1,4,3:0:0:0:
448,192,16114,1,0,0:0:0:0:
64,192,16293,1,0,0:0:0:0:
320,192,16293,1,8,3:0:0:0:
192,192,16473,1,0,3:0:0:0:
448,192,16652,1,0,0:0:0:0:
64,192,16832,1,0,3:0:0:0:
192,192,17012,1,0,0:0:0:0:
320,192,17191,1,8,3:0:0:0:
448,192,17191,1,0,0:0:0:0:
64,192,17551,1,0,3:0:0:0:
192,192,17730,1,0,0:0:0:0:
320,192,17730,1,8,3:0:0:0:
448,192,17910,1,0,3:0:0:0:
64,192,18090,1,0,0:0:0:0:
320,192,18269,1,0,3:0:0:0:
448,192,18269,1,0,0:0:0:0:
192,192,18449,1,2,3:0:0:0:
320,192,18539,1,2,3:0:0:0:
448,192,18628,1,2,3:0:0:0:
64,192,18808,1,8,3:0:0:0:
192,192,18808,1,0,0:0:0:0:
192,192,19167,1,8,3:0:0:0:
64,192,19167,1,0,0:0:0:0:
448,192,19527,1,0,3:0:0:0:
320,192,19527,1,0,0:0:0:0:
192,192,19706,1,0,0:0:0:0:
64,192,19706,1,8,3:0:0:0:
320,192,20066,1,0,0:0:0:0:
192,192,20066,1,0,3:0:0:0:
448,192,20245,1,0,3:0:0:0:
64,192,20245,1,4,3:0:0:0:
320,192,20245,1,0,0:0:0:0:
448,192,20605,1,0,0:0:0:0:
320,192,20605,1,8,3:0:0:0:
64,192,20784,1,0,3:0:0:0:
192,192,20964,1,0,0:0:0:0:
448,192,21143,1,0,3:0:0:0:
320,192,21323,1,0,0:0:0:0:
64,192,21323,1,8,3:0:0:0:
192,192,21503,1,0,0:0:0:0:
448,192,21682,128,0,22401:0:0:0:0:
64,192,21682,1,0,3:0:0:0:
192,192,22042,1,0,0:0:0:0:
64,192,22221,1,0,3:0:0:0:
320,192,22401,1,8,3:0:0:0:
192,192,22401,1,0,0:0:0:0:
64,192,22760,1,8,3:0:0:0:
192,192,22850,1,8,3:0:0:0:
320,192,22940,1,8,3:0:0:0:
448,192,23030,1,8,3:0:0:0:
64,192,23120,1,8,3:0:0:0:
192,192,23120,1,0,0:0:0:0:
320,192,23479,1,0,0:0:0:0:
448,192,23479,1,8,3:0:0:0:
192,192,23658,1,0,0:0:0:0:
64,192,23658,1,8,3:0:0:0:
448,192,23838,1,2,3:0:0:0:
64,192,24018,1,2,3:0:0:0:
320,192,24197,1,2,3:0:0:0:
64,192,24377,1,2,3:0:0:0:
192,192,24557,1,0,3:0:0:0:
448,192,24557,128,4,25275:3:0:0:0:
320,192,24557,1,0,0:0:0:0:
64,192,24916,1,8,3:0:0:0:
320,192,25096,1,0,3:0:0:0:
192,192,25275,128,0,25455:0:0:0:0:
64,192,25455,128,0,25634:3:0:0:0:
448,192,25634,1,8,3:0:0:0:
320,192,25634,1,0,0:0:0:0:
192,192,25814,128,0,26533:3:0:0:0:
320,192,25814,1,0,3:0:0:0:
448,192,25994,1,0,0:0:0:0:
64,192,26173,1,0,3:0:0:0:
320,192,26353,1,0,0:0:0:0:
448,192,26353,1,8,3:0:0:0:
64,192,26533,1,0,3:0:0:0:
320,192,26533,128,4,26892:3:0:0:0:
192,192,26892,1,0,3:0:0:0:
448,192,27072,1,0,0:0:0:0:
64,192,27072,1,8,3:0:0:0:
320,192,27251,1,0,0:0:0:0:
192,192,27431,1,0,3:0:0:0:
448,192,27611,128,0,27790:0:0:0:0:
320,192,27790,128,0,27970:0:0:0:0:
64,192,27790,1,8,3:0:0:0:
192,192,27970,128,0,28149:3:0:0:0:
448,192,28149,128,0,28329:0:0:0:0:
64,192,28329,128,0,28509:3:0:0:0:
320,192,28509,128,0,28688:0:0:0:0:
192,192,28688,1,8,3:0:0:0:
448,192,28688,128,0,28868:0:0:0:0:
64,192,28868,1,0,0:0:0:0:
320,192,29048,1,0,3:0:0:0:
192,192,29227,1,8,3:0:0:0:
448,192,29227,1,0,0:0:0:0:
64,192,29407,128,0,29946:0:0:0:0:
320,192,29407,1,0,3:0:0:0:
448,192,29587,1,0,0:0:0:0:
192,192,29766,1,0,3:0:0:0:
320,192,29946,1,2,3:0:0:0:
192,192,30036,1,2,3:0:0:0:
64,192,30125,1,2,3:0:0:0:
320,192,30305,1,0,0:0:0:0:
448,192,30305,1,8,3:0:0:0:
448,192,30664,1,0,0:0:0:0:
320,192,30664,1,8,3:0:0:0:
192,192,31024,1,0,0:0:0:0:
64,192,31024,1,0,3:0:0:0:
320,192,31203,1,8,3:0:0:0:
448,192,31203,1,0,0:0:0:0:
192,192,31383,1,0,0:0:0:0:
448,192,31563,128,4,31922:3:0:0:0:
64,192,31563,1,0,3:0:0:0:
320,192,31922,128,0,32102:0:0:0:0:
192,192,31922,1,8,3:0:0:0:
64,192,32102,128,0,32281:0:0:0:0:
448,192,32102,1,8,3:0:0:0:
192,192,32281,128,0,32461:0:0:0:0:
320,192,32281,1,8,3:0:0:0:
448,192,32461,1,0,3:0:0:0:
64,192,32461,1,4,3:0:0:0:
320,192,32640,1,0,0:0:0:0:
192,192,32820,1,8,3:0:0:0:
448,192,32820,1,0,0:0:0:0:
64,192,33000,1,0,0:0:0:0:
320,192,33179,128,0,33718:0:0:0:0:
448,192,33179,1,0,3:0:0:0:
64,192,33539,1,0,0:0:0:0:
192,192,33718,128,0,33898:3:0:0:0:
448,192,33898,1,8,3:0:0:0:
320,192,33898,1,0,0:0:0:0:
64,192,34078,128,0,34257:0:0:0:0:
320,192,34257,1,8,3:0:0:0:
448,192,34347,1,8,3:0:0:0:
192,192,34437,1,8,3:0:0:0:
64,192,34527,1,8,3:0:0:0:
320,192,34617,1,8,3:0:0:0:
448,192,34617,1,0,0:0:0:0:
320,192,34976,1,8,3:0:0:0:
448,192,34976,1,0,0:0:0:0:
192,192,35155,1,0,0:0:0:0:
64,192,35155,1,8,3:0:0:0:
448,192,36054,1,2,0:0:0:0:
64,192,36054,1,4,3:0:0:0:
448,192,36413,1,2,0:0:0:0:
448,192,36772,1,2,0:0:0:0:
448,192,37131,1,2,0:0:0:0:
192,192,37311,1,0,0:0:0:0:
320,192,37491,1,2,0:0:0:0:
64,192,37491,1,0,3:0:0:0:
320,192,37850,1,2,0:0:0:0:
320,192,38209,1,2,0:0:0:0:
320,192,38569,1,2,0:0:0:0:
64,192,38928,1,2,0:0:0:0:
448,192,38928,1,0,3:0:0:0:
192,192,39287,1,2,0:0:0:0:
320,192,39646,1,2,0:0:0:0:
448,192,40006,1,2,0:0:0:0:
320,192,40365,1,0,3:0:0:0:
64,192,40365,1,2,0:0:0:0:
192,192,40724,1,2,0:0:0:0:
448,192,41084,1,2,0:0:0:0:
64,192,41084,1,0,3:0:0:0:
192,192,41353,1,2,0:0:0:0:
320,192,41443,1,2,0:0:0:0:
448,192,41623,1,2,0:0:0:0:
192,192,41802,1,2,0:0:0:0:
64,192,41802,1,0,3:0:0:0:
320,192,42161,1,2,0:0:0:0:
448,192,42521,1,2,0:0:0:0:
64,192,42521,1,0,3:0:0:0:
192,192,42880,1,2,0:0:0:0:
320,192,43239,1,2,0:0:0:0:
64,192,43239,1,0,3:0:0:0:
448,192,43599,1,2,0:0:0:0:
320,192,43958,1,2,0:0:0:0:
64,192,43958,1,0,3:0:0:0:
192,192,44317,1,2,0:0:0:0:
448,192,44676,1,0,3:0:0:0:
64,192,44676,1,2,0:0:0:0:
320,192,45036,1,2,0:0:0:0:
64,192,45395,1,2,0:0:0:0:
192,192,45395,1,8,3:0:0:0:
448,192,45754,1,2,0:0:0:0:
320,192,46114,1,0,0:0:0:0:
192,192,46114,1,8,3:0:0:0:
448,192,46293,1,8,3:0:0:0:
64,192,46293,1,0,0:0:0:0:
320,192,46652,1,8,3:0:0:0:
448,192,46652,1,0,0:0:0:0:
64,192,46832,1,0,0:0:0:45:tom.wav
192,192,46922,1,0,0:0:0:45:tom.wav
320,192,47012,1,8,3:0:0:0:
64,192,47102,1,8,3:0:0:0:
448,192,47191,1,8,3:0:0:0:
320,192,47281,1,8,3:0:0:0:
192,192,47371,1,8,3:0:0:0:
64,192,47461,1,8,3:0:0:0:
448,192,47551,1,0,3:0:0:0:
320,192,47551,1,4,3:0:0:0:
192,192,47730,1,0,0:0:0:0:
320,192,47910,1,8,3:0:0:0:
64,192,47910,1,0,0:0:0:0:
448,192,48090,1,0,0:0:0:0:
192,192,48269,1,0,0:0:0:0:
320,192,48449,1,0,3:0:0:0:
64,192,48628,1,0,0:0:0:0:
448,192,48628,1,8,3:0:0:0:
192,192,48808,1,0,3:0:0:0:
320,192,48988,1,0,0:0:0:0:
192,192,49347,1,8,3:0:0:0:
64,192,49347,1,0,0:0:0:0:
448,192,49706,1,0,0:0:0:0:
192,192,49886,1,0,3:0:0:0:
320,192,50066,1,8,3:0:0:0:
64,192,50066,1,0,0:0:0:0:
448,192,50245,1,0,0:0:0:0:
192,192,50425,1,0,3:0:0:0:
320,192,50784,1,8,3:0:0:0:
64,192,50784,1,0,0:0:0:0:
448,192,51143,1,0,3:0:0:0:
192,192,51323,1,0,3:0:0:0:
320,192,51503,1,8,3:0:0:0:
448,192,51503,1,0,0:0:0:0:
64,192,51682,1,0,0:0:0:0:
448,192,51862,1,0,3:0:0:0:
320,192,52042,1,0,0:0:0:0:
192,192,52221,1,8,3:0:0:0:
448,192,52221,1,0,0:0:0:0:
64,192,52401,1,0,0:0:0:0:
320,192,52581,1,2,0:0:0:0:
192,192,52760,1,2,0:0:0:0:
448,192,52850,1,2,0:0:0:0:
64,192,52940,1,2,0:0:0:0:
320,192,53120,1,8,3:0:0:0:
192,192,53120,1,2,0:0:0:0:
448,192,53299,1,0,0:0:0:0:
320,192,53299,1,0,3:0:0:0:
64,192,53658,1,0,0:0:0:0:
192,192,53658,1,8,3:0:0:0:
448,192,54018,1,0,0:0:0:0:
320,192,54197,1,0,3:0:0:0:
192,192,54377,1,0,0:0:0:0:
448,192,54377,1,8,3:0:0:0:
64,192,54557,1,0,3:0:0:0:
320,192,54736,1,0,0:0:0:0:
192,192,55096,1,8,3:0:0:0:
448,192,55096,1,0,0:0:0:0:
64,192,55275,1,0,0:0:0:0:
320,192,55455,1,0,0:0:0:0:
192,192,55634,1,0,3:0:0:0:
448,192,55814,1,0,0:0:0:0:
320,192,55814,1,8,3:0:0:0:
64,192,55994,1,0,0:0:0:0:
192,192,56173,1,0,3:0:0:0:
320,192,56533,1,8,3:0:0:0:
64,192,56533,1,0,0:0:0:0:
448,192,56892,1,0,0:0:0:0:
192,192,57072,1,0,3:0:0:0:
320,192,57251,1,8,3:0:0:0:
448,192,57251,1,0,0:0:0:0:
64,192,57431,1,0,3:0:0:0:
320,192,57431,1,0,0:0:0:0:
192,192,57431,1,4,3:0:0:0:
192,192,57790,1,0,3:0:0:0:
448,192,57970,1,0,0:0:0:0:
320,192,57970,1,8,3:0:0:0:
64,192,58149,1,0,3:0:0:0:
192,192,58329,1,0,0:0:0:45:tom.wav
320,192,58329,1,8,3:0:0:0:
64,192,58419,1,0,0:0:0:45:tom.wav
448,192,58509,1,0,0:0:0:45:tom.wav
192,192,58688,1,0,0:0:0:0:
64,192,58688,1,8,3:0:0:0:
320,192,58868,1,0,0:0:0:0:
448,192,59048,1,4,3:0:0:0:
192,192,59048,1,0,3:0:0:0:
64,192,59048,1,0,0:0:0:0:
320,192,59407,1,0,0:0:0:0:
64,192,59587,1,0,3:0:0:0:
192,192,59766,1,8,3:0:0:0:
448,192,59766,1,0,0:0:0:0:
448,192,60125,1,0,3:0:0:0:
320,192,60305,1,0,0:0:0:0:
192,192,60485,1,0,3:0:0:0:
64,192,60485,1,0,0:0:0:0:
320,192,60844,1,0,0:0:0:0:
192,192,61024,1,0,3:0:0:0:
448,192,61203,1,8,3:0:0:0:
320,192,61203,1,0,0:0:0:0:
320,192,61563,1,0,3:0:0:0:
192,192,61742,1,0,0:0:0:0:
64,192,61922,1,0,3:0:0:0:
448,192,61922,1,0,0:0:0:0:
320,192,62281,1,0,0:0:0:0:
192,192,62461,1,0,3:0:0:0:
448,192,62640,1,8,3:0:0:0:
320,192,62640,1,0,0:0:0:0:
64,192,63000,1,0,3:0:0:0:
192,192,63179,1,0,0:0:0:0:
320,192,63359,1,0,3:0:0:0:
64,192,63359,1,0,0:0:0:0:
448,192,63718,1,0,3:0:0:0:
192,192,63898,1,8,3:0:0:0:
320,192,63898,1,0,0:0:0:0:
64,192,64078,1,0,0:0:0:45:tom.wav
448,192,64257,1,8,3:0:0:0:
320,192,64257,1,4,3:0:0:0:
64,192,64617,1,0,3:0:0:0:
320,192,64796,1,0,3:0:0:0:
192,192,64796,1,0,0:0:0:0:
448,192,64796,1,4,3:0:0:0:
448,192,65155,1,0,0:0:0:0:
192,192,65155,1,8,3:0:0:0:
64,192,65515,1,0,0:0:0:0:
320,192,65694,1,0,3:0:0:0:
448,192,65874,1,0,0:0:0:0:
192,192,65874,1,8,3:0:0:0:
64,192,66054,1,0,0:0:0:0:
320,192,66233,1,0,3:0:0:0:
192,192,66413,1,0,0:0:0:0:
320,192,66593,1,8,3:0:0:0:
448,192,66593,1,0,0:0:0:0:
64,192,66772,1,0,0:0:0:0:
192,192,66952,1,0,0:0:0:0:
320,192,67131,1,0,3:0:0:0:
64,192,67311,1,0,0:0:0:0:
448,192,67311,1,8,3:0:0:0:
192,192,67491,1,0,0:0:0:0:
320,192,67670,1,0,3:0:0:0:
64,192,67850,1,0,0:0:0:0:
192,192,68030,1,8,3:0:0:0:
448,192,68030,1,0,0:0:0:0:
320,192,68209,1,0,0:0:0:0:
192,192,68389,1,0,3:0:0:0:
64,192,68569,1,0,3:0:0:0:
448,192,68748,1,8,3:0:0:0:
320,192,68748,1,0,0:0:0:0:
192,192,68928,1,0,0:0:0:0:
64,192,69108,1,0,0:0:0:0:
448,192,69108,1,2,3:0:0:0:
320,192,69287,1,2,3:0:0:0:
192,192,69287,1,0,0:0:0:0:
448,192,69467,1,0,0:0:0:0:
64,192,69646,1,0,3:0:0:0:
448,192,69826,1,0,0:0:0:0:
192,192,69826,1,8,3:0:0:0:
320,192,69916,1,8,3:0:0:0:
64,192,70006,1,0,3:0:0:0:
192,192,70185,1,0,0:0:0:0:
320,192,70185,1,8,3:0:0:0:
448,192,70545,1,0,0:0:0:0:
64,192,70545,1,0,3:0:0:0:
192,192,70545,1,4,3:0:0:0:
320,192,70724,1,0,0:0:0:0:
192,192,70904,1,8,3:0:0:0:
448,192,70904,1,0,0:0:0:0:
64,192,71084,1,0,0:0:0:0:
320,192,71263,1,0,0:0:0:0:
192,192,71443,1,0,3:0:0:0:
448,192,71623,1,8,3:0:0:0:
320,192,71623,1,0,0:0:0:0:
64,192,71802,1,0,0:0:0:0:
192,192,71982,1,0,0:0:0:0:
448,192,72161,1,0,3:0:0:0:
320,192,72341,1,0,0:0:0:0:
64,192,72341,1,8,3:0:0:0:
192,192,72521,1,0,0:0:0:0:
448,192,72521,1,4,3:0:0:0:
320,192,72521,1,0,3:0:0:0:
64,192,72880,1,0,3:0:0:0:
320,192,73060,1,8,3:0:0:0:
192,192,73060,1,0,0:0:0:0:
448,192,73239,1,0,0:0:0:0:
192,192,73419,1,0,3:0:0:0:
64,192,73419,1,4,3:0:0:0:
320,192,73599,1,0,0:0:0:0:
448,192,73778,1,0,0:0:0:0:
64,192,73778,1,8,3:0:0:0:
192,192,73958,1,0,3:0:0:0:
320,192,74137,1,0,0:0:0:0:
192,192,74317,1,0,3:0:0:0:
448,192,74497,1,0,0:0:0:0:
320,192,74676,1,8,3:0:0:0:
64,192,74676,1,0,0:0:0:0:
192,192,75036,1,0,3:0:0:0:
64,192,75036,1,0,0:0:0:0:
320,192,75215,1,0,0:0:0:0:
448,192,75215,1,8,3:0:0:0:
192,192,75395,1,0,3:0:0:0:
320,192,75395,1,0,0:0:0:0:
448,192,75754,1,0,0:0:0:0:
64,192,75754,1,0,3:0:0:0:
192,192,75934,1,2,3:0:0:0:
320,192,76024,1,2,3:0:0:0:
64,192,76114,1,2,3:0:0:0:
192,192,76293,1,8,3:0:0:0:
320,192,76293,1,0,0:0:0:0:
192,192,76652,1,0,0:0:0:0:
320,192,76652,1,8,3:0:0:0:
64,192,77012,1,0,3:0:0:0:
192,192,77012,1,0,0:0:0:0:
320,192,77191,1,0,0:0:0:0:
448,192,77191,1,8,3:0:0:0:
320,192,77551,1,0,0:0:0:0:
192,192,77551,1,0,3:0:0:0:
448,192,77730,1,0,0:0:0:0:
64,192,77730,1,0,3:0:0:0:
192,192,77730,1,4,3:0:0:0:
320,192,78090,1,8,3:0:0:0:
448,192,78090,1,0,0:0:0:0:
192,192,78269,1,0,3:0:0:0:
64,192,78449,1,0,0:0:0:0:
448,192,78628,1,0,3:0:0:0:
320,192,78808,1,0,0:0:0:0:
192,192,78808,1,8,3:0:0:0:
64,192,78988,1,0,0:0:0:0:
448,192,79167,1,0,3:0:0:0:
320,192,79527,1,0,0:0:0:0:
192,192,79706,1,0,3:0:0:0:
448,192,79886,1,8,3:0:0:0:
64,192,79886,128,0,80245:0:0:0:0:
320,192,79886,1,0,0:0:0:0:
192,192,80245,1,8,3:0:0:0:
320,192,80335,1,8,3:0:0:0:
448,192,80425,1,8,3:0:0:0:
64,192,80515,1,8,3:0:0:0:
192,192,80605,1,4,3:0:0:0:
320,192,80605,1,8,3:0:0:0:
448,192,80784,1,8,3:0:0:0:
64,192,80784,1,0,0:0:0:0:
320,192,81143,1,8,3:0:0:0:
448,192,81143,1,0,0:0:0:0:
192,192,81503,1,0,0:0:0:0:
64,192,81503,1,8,3:0:0:0:
448,192,81682,1,0,0:0:0:45:tom.wav
320,192,81772,1,0,0:0:0:45:tom.wav
64,192,81862,1,0,0:0:0:45:tom.wav
192,192,81952,1,0,0:0:0:45:tom.wav
448,192,82042,1,4,3:0:0:0:
320,192,82042,1,0,3:0:0:0:
192,192,82401,1,0,0:0:0:0:
64,192,82401,1,8,3:0:0:0:
448,192,82581,1,0,0:0:0:0:
320,192,82760,1,0,0:0:0:0:
64,192,82940,1,0,3:0:0:0:
192,192,83120,1,0,0:0:0:0:
448,192,83120,1,8,3:0:0:0:
320,192,83299,1,0,0:0:0:0:
64,192,83479,1,0,0:0:0:0:
192,192,83658,1,0,3:0:0:0:
448,192,83838,1,8,3:0:0:0:
320,192,83838,1,0,0:0:0:0:
64,192,84018,1,0,0:0:0:0:
448,192,84018,1,4,3:0:0:0:
192,192,84018,1,0,3:0:0:0:
192,192,84377,1,0,3:0:0:0:
320,192,84557,1,8,3:0:0:0:
64,192,84557,1,0,0:0:0:0:
448,192,84736,1,0,0:0:0:0:
192,192,84916,1,4,3:0:0:0:
320,192,84916,1,0,0:0:0:0:
448,192,85096,1,0,0:0:0:0:
64,192,85275,1,8,3:0:0:0:
192,192,85275,1,0,0:0:0:0:
320,192,85455,1,0,3:0:0:0:
448,192,85634,1,0,0:0:0:0:
64,192,85814,1,0,3:0:0:0:
192,192,85994,1,0,0:0:0:0:
448,192,86173,1,0,0:0:0:0:
320,192,86173,1,8,3:0:0:0:
64,192,86533,1,0,0:0:0:0:
320,192,86533,1,0,3:0:0:0:
192,192,86712,1,8,3:0:0:0:
448,192,86712,1,0,0:0:0:0:
192,192,86892,1,0,0:0:0:0:
64,192,86892,1,0,3:0:0:0:
320,192,87251,1,0,3:0:0:0:
448,192,87251,1,0,0:0:0:0:
192,192,87431,1,2,3:0:0:0:
320,192,87521,1,2,3:0:0:0:
448,192,87611,1,2,3:0:0:0:
64,192,87790,1,0,0:0:0:0:
192,192,87790,1,8,3:0:0:0:
192,192,88149,1,0,0:0:0:0:
64,192,88149,1,8,3:0:0:0:
448,192,88509,1,0,3:0:0:0:
64,192,88509,1,0,0:0:0:0:
192,192,88688,1,0,0:0:0:0:
320,192,88688,1,8,3:0:0:0:
320,192,89048,1,0,3:0:0:0:
448,192,89048,1,0,0:0:0:0:
64,192,89227,1,4,3:0:0:0:
192,192,89227,1,0,3:0:0:0:
448,192,89227,1,0,0:0:0:0:
320,192,89587,1,8,3:0:0:0:
448,192,89587,1,0,0:0:0:0:
64,192,89766,1,0,3:0:0:0:
320,192,89946,1,0,0:0:0:0:
192,192,90125,1,0,3:0:0:0:
448,192,90305,1,8,3:0:0:0:
64,192,90305,1,0,0:0:0:0:
192,192,90485,1,0,0:0:0:0:
320,192,90664,1,0,3:0:0:0:
64,192,90664,1,0,0:0:0:0:
448,192,91024,1,0,0:0:0:0:
192,192,91203,1,0,3:0:0:0:
320,192,91383,1,8,3:0:0:0:
64,192,91383,1,0,0:0:0:0:
448,192,91563,1,0,0:0:0:0:
192,192,91742,1,8,3:0:0:0:
320,192,91832,1,8,3:0:0:0:
64,192,91922,1,8,3:0:0:0:
192,192,92012,1,8,3:0:0:0:
448,192,92102,1,8,3:0:0:0:
320,192,92102,1,0,0:0:0:0:
64,192,92461,1,8,3:0:0:0:
192,192,92461,1,0,0:0:0:0:
448,192,92640,1,8,3:0:0:0:
64,192,92640,1,0,0:0:0:0:
192,192,92820,1,2,3:0:0:0:
320,192,93000,1,2,3:0:0:0:
192,192,93179,1,2,3:0:0:0:
320,192,93359,1,2,3:0:0:0:
64,192,93539,128,0,94257:0:0:0:0:
448,192,93539,1,4,3:0:0:0:
192,192,93539,1,0,3:0:0:0:
320,192,93898,1,8,3:0:0:0:
192,192,93898,1,0,0:0:0:0:
448,192,94078,1,0,0:0:0:0:
320,192,94257,1,0,0:0:0:0:
192,192,94437,1,0,3:0:0:0:
64,192,94617,1,0,0:0:0:0:
448,192,94617,1,8,3:0:0:0:
192,192,94796,128,0,95515:0:0:0:0:
320,192,94796,1,0,0:0:0:0:
448,192,94976,1,0,0:0:0:0:
64,192,95155,1,0,3:0:0:0:
320,192,95335,1,0,0:0:0:0:
448,192,95335,1,8,3:0:0:0:
64,192,95515,128,4,95874:3:0:0:0:
320,192,95515,1,0,3:0:0:0:
320,192,95874,1,0,3:0:0:0:
192,192,96054,1,0,0:0:0:0:
448,192,96054,1,8,3:0:0:0:
64,192,96233,1,0,0:0:0:0:
320,192,96413,128,0,96952:0:0:0:0:
192,192,96413,1,0,3:0:0:0:
64,192,96772,1,8,3:0:0:0:
448,192,96772,1,0,0:0:0:0:
192,192,96952,1,0,3:0:0:0:
448,192,97131,1,0,0:0:0:0:
64,192,97311,1,0,3:0:0:0:
320,192,97491,1,0,0:0:0:0:
192,192,97670,1,8,3:0:0:0:
448,192,97670,128,0,98030:0:0:0:0:
192,192,98030,1,0,3:0:0:0:
64,192,98030,128,0,98389:0:0:0:0:
320,192,98209,1,8,3:0:0:0:
448,192,98389,1,0,3:0:0:0:
192,192,98389,128,0,98748:0:0:0:0:
448,192,98748,1,0,3:0:0:0:
320,192,98748,128,0,99108:0:0:0:0:
64,192,98928,1,2,3:0:0:0:
192,192,99108,128,2,99287:3:0:0:0:
64,192,99287,1,0,0:0:0:0:
448,192,99287,1,8,3:0:0:0:
64,192,99646,1,8,3:0:0:0:
448,192,99646,1,0,0:0:0:0:
448,192,100006,128,0,100185:0:0:0:0:
64,192,100006,1,0,3:0:0:0:
320,192,100185,128,0,100365:0:0:0:0:
192,192,100185,1,8,3:0:0:0:
64,192,100365,128,0,100545:0:0:0:0:
448,192,100545,128,0,100904:3:0:0:0:
320,192,100545,1,4,3:0:0:0:
192,192,100724,1,0,0:0:0:0:
64,192,100904,1,8,3:0:0:0:
320,192,100904,1,0,0:0:0:0:
192,192,101084,1,0,0:0:0:0:
448,192,101084,1,8,3:0:0:0:
64,192,101263,128,0,101623:0:0:0:0:
320,192,101263,1,4,3:0:0:0:
448,192,101623,128,0,101982:0:0:0:0:
192,192,101623,1,0,3:0:0:0:
320,192,101802,1,8,3:0:0:0:
64,192,101802,1,0,0:0:0:0:
192,192,101982,1,0,0:0:0:0:
192,192,102161,128,0,102880:0:0:0:0:
320,192,102161,1,0,3:0:0:0:
320,192,102521,1,0,0:0:0:0:
448,192,102700,1,0,3:0:0:0:
64,192,102880,1,8,3:0:0:0:
320,192,102880,1,0,0:0:0:0:
448,192,103239,1,8,3:0:0:0:
320,192,103329,1,8,3:0:0:0:
64,192,103419,1,8,3:0:0:0:
192,192,103509,1,8,3:0:0:0:
320,192,103599,1,0,0:0:0:0:
448,192,103599,1,8,3:0:0:0:
320,192,103958,1,8,3:0:0:0:
448,192,103958,1,0,0:0:0:0:
192,192,104137,1,8,3:0:0:0:
64,192,104137,128,0,105036:0:0:0:0:
448,192,105036,1,4,3:0:0:0:
192,192,105036,1,0,3:0:0:0:
320,192,105395,1,0,0:0:0:0:
192,192,105754,1,0,0:0:0:0:
64,192,105934,1,0,0:0:0:0:
320,192,106293,1,0,0:0:0:0:
64,192,106652,1,0,0:0:0:0:
192,192,106832,1,0,0:0:0:0:
320,192,107012,1,0,0:0:0:0:
320,192,107371,1,0,0:0:0:0:
192,192,107551,1,0,0:0:0:0:
64,192,107730,1,0,0:0:0:0:
64,192,107910,1,0,0:0:0:0:
320,192,108449,1,0,0:0:0:0:
192,192,108628,1,0,0:0:0:0:
64,192,108808,1,0,0:0:0:0:
64,192,108988,1,0,0:0:0:0:
320,192,109167,1,0,0:0:0:0:
448,192,109527,1,0,0:0:0:0:
192,192,109706,1,0,0:0:0:0:
320,192,109886,1,0,0:0:0:0:
64,192,110066,1,0,0:0:0:0:
448,192,110245,1,0,0:0:0:0:
320,192,110425,1,0,0:0:0:0:
192,192,110605,1,0,0:0:0:0:
64,192,110784,1,0,3:0:0:0:
448,192,110784,1,0,0:0:0:0:
448,192,111143,1,0,0:0:0:0:
64,192,111143,1,0,3:0:0:0:
320,192,111503,1,0,0:0:0:0:
64,192,111682,1,0,0:0:0:0:
192,192,112042,1,0,0:0:0:0:
448,192,112221,1,0,3:0:0:0:
320,192,112221,1,0,0:0:0:0:
320,192,112581,1,0,0:0:0:0:
64,192,112760,1,0,0:0:0:0:
320,192,113120,1,0,0:0:0:0:
448,192,113299,1,0,0:0:0:0:
192,192,113658,1,0,0:0:0:0:
64,192,114018,1,2,0:0:0:0:
64,192,114377,1,2,0:0:0:0:
64,192,114736,1,2,0:0:0:0:
448,192,115096,1,8,3:0:0:0:
320,192,115096,1,0,0:0:0:0:
448,192,115455,1,0,0:0:0:0:
320,192,115455,1,4,3:0:0:0:
64,192,115455,1,8,3:0:0:0:
192,192,115634,1,0,0:0:0:0:
64,192,115634,1,0,0:0:0:0:
448,192,115634,1,8,3:0:0:0:
