osu file format v14

[General]
AudioFilename: audio.mp3
AudioLeadIn: 0
PreviewTime: 36152
Countdown: 0
SampleSet: Soft
StackLeniency: 0.7
Mode: 3
LetterboxInBreaks: 0
SpecialStyle: 0
WidescreenStoryboard: 0

[Editor]
DistanceSpacing: 1.4
BeatDivisor: 8
GridSize: 4
TimelineZoom: 2

[Metadata]
Title:Parasite (Original Mix)
TitleUnicode:Parasite (Original Mix)
Artist:IAHN
ArtistUnicode:IAHN
Creator:Ryu Sei
Version:Hostless
Source:
Tags:electronic instrumental featured artist fa full LN only
BeatmapID:1928274
BeatmapSetID:923388

[Difficulty]
HPDrainRate:8.2
CircleSize:4
OverallDifficulty:6.5
ApproachRate:5
SliderMultiplier:1.4
SliderTickRate:1

[Events]
//Background and Video events
0,0,"stupud parasite.png",0,0
//Break Periods
//Storyboard Layer 0 (Background)
//Storyboard Layer 1 (Fail)
//Storyboard Layer 2 (Pass)
//Storyboard Layer 3 (Foreground)
//Storyboard Layer 4 (Overlay)
//Storyboard Sound Samples

[TimingPoints]
5676.00075413244,476.190476190476,4,2,1,72,1,0
20914,-64.5161290322581,4,2,1,72,0,0
20943,-222.222222222222,4,2,1,72,0,0
20973,-62.5,4,2,1,72,0,0
21003,-250,4,2,1,72,0,0
21033,-60.6060606060606,4,2,1,72,0,0
21062,-285.714285714286,4,2,1,72,0,0
21092,-58.8235294117647,4,2,1,72,0,0
21122,-333.333333333333,4,2,1,72,0,0
21152,-57.1428571428571,4,2,1,72,0,0
21181,-400,4,2,1,72,0,0
21211,-55.5555555555556,4,2,1,72,0,0
21241,-500,4,2,1,72,0,0
21271,-54.054054054054,4,2,1,72,0,0
21301,-666.666666666667,4,2,1,72,0,0
21330,-52.6315789473684,4,2,1,72,0,0
21360,-1000,4,2,1,72,0,0
21390,-100,4,2,1,72,0,0
35735,-1000,4,2,1,72,0,0
35765,-52.6315789473684,4,2,1,72,0,0
35795,-100,4,2,1,72,0,0
35854,-1000,4,2,1,72,0,0
35884,-52.6315789473684,4,2,1,72,0,0
35914,-100,4,2,1,72,0,0
35973,-1000,4,2,1,72,0,0
36003,-52.6315789473684,4,2,1,72,0,0
36033,-100,4,2,1,72,0,0
36092,-1000,4,2,1,72,0,0
36122,-52.6315789473684,4,2,1,72,0,0
36152,-100,4,2,1,72,0,1
49485,-100,4,2,1,72,0,0
49723,-200,4,2,1,72,0,0
49902,-40,4,2,1,72,0,0
49961,-100,4,2,1,72,0,0
50080,-1000,4,2,1,72,0,0
50140,-52.6315789473684,4,2,1,72,0,0
50199,-100,4,2,1,72,0,0
50318,-1000,4,2,1,72,0,0
50378,-52.6315789473684,4,2,1,72,0,0
50437,-100,4,2,1,72,0,0
50497,-1000,4,2,1,72,0,0
50527,-52.6315789473684,4,2,1,72,0,0
50556,-100,4,2,1,72,0,0
50616,-1000,4,2,1,72,0,0
50646,-52.6315789473684,4,2,1,72,0,0
50676,-100,4,2,1,72,0,0
50735,-1000,4,2,1,72,0,0
50765,-52.6315789473684,4,2,1,72,0,0
50795,-100,4,2,1,72,0,0
50854,-1000,4,2,1,72,0,0
50884,-52.6315789473684,4,2,1,72,0,0
50914,-100,4,2,1,72,0,0
50973,-1000,4,2,1,72,0,0
51003,-52.6315789473684,4,2,1,72,0,0
51033,-66.6666666666667,4,2,1,72,0,0
51062,-200,4,2,1,72,0,0
51092,-66.6666666666667,4,2,1,72,0,0
51122,-200,4,2,1,72,0,0
51152,-66.6666666666667,4,2,1,72,0,0
51181,-200,4,2,1,72,0,0
51211,-66.6666666666667,4,2,1,72,0,0
51241,-200,4,2,1,72,0,0
51271,-66.6666666666667,4,2,1,72,0,0
51301,-200,4,2,1,72,0,0
51330,-66.6666666666667,4,2,1,72,0,0
51360,-200,4,2,1,72,0,0
51390,-100,4,2,1,72,0,1
66628,-64.5161290322581,4,2,1,72,0,0
66657,-222.222222222222,4,2,1,72,0,0
66687,-62.5,4,2,1,72,0,0
66717,-250,4,2,1,72,0,0
66747,-60.6060606060606,4,2,1,72,0,0
66776,-285.714285714286,4,2,1,72,0,0
66806,-58.8235294117647,4,2,1,72,0,0
66836,-333.333333333333,4,2,1,72,0,0
66866,-57.1428571428571,4,2,1,72,0,0
66895,-400,4,2,1,72,0,0
66925,-55.5555555555556,4,2,1,72,0,0
66955,-500,4,2,1,72,0,0
66985,-54.054054054054,4,2,1,72,0,0
67015,-666.666666666667,4,2,1,72,0,0
67044,-52.6315789473684,4,2,1,72,0,0
67074,-1000,4,2,1,72,0,0
67104,-100,4,2,1,72,0,1
74247,-64.5161290322581,4,2,1,72,0,0
74276,-222.222222222222,4,2,1,72,0,0
74306,-62.5,4,2,1,72,0,0
74336,-250,4,2,1,72,0,0
74366,-60.6060606060606,4,2,1,72,0,0
74395,-285.714285714286,4,2,1,72,0,0
74425,-58.8235294117647,4,2,1,72,0,0
74455,-333.333333333333,4,2,1,72,0,0
74485,-57.1428571428571,4,2,1,72,0,0
74514,-400,4,2,1,72,0,0
74544,-55.5555555555556,4,2,1,72,0,0
74574,-500,4,2,1,72,0,0
74604,-54.054054054054,4,2,1,72,0,0
74634,-666.666666666667,4,2,1,72,0,0
74663,-52.6315789473684,4,2,1,72,0,0
74693,-1000,4,2,1,72,0,0
74723,-100,4,2,1,72,0,1
81390,-52.6315789473684,4,2,1,72,0,1
81420,-1000,4,2,1,72,0,1
81449,-100,4,2,1,72,0,1
81509,-52.6315789473684,4,2,1,72,0,1
81539,-1000,4,2,1,72,0,1
81568,-100,4,2,1,72,0,1
81628,-52.6315789473684,4,2,1,72,0,1
81658,-1000,4,2,1,72,0,1
81687,-52.6315789473684,4,2,1,72,0,1
81717,-1000,4,2,1,72,0,1
81747,-52.6315789473684,4,2,1,72,0,1
81777,-1000,4,2,1,72,0,1
81806,-52.6315789473684,4,2,1,72,0,1
81836,-1000,4,2,1,72,0,1
81866,-64.5161290322581,4,2,1,72,0,0
81895,-222.222222222222,4,2,1,72,0,0
81925,-62.5,4,2,1,72,0,0
81955,-250,4,2,1,72,0,0
81985,-60.6060606060606,4,2,1,72,0,0
82014,-285.714285714286,4,2,1,72,0,0
82044,-58.8235294117647,4,2,1,72,0,0
82074,-333.333333333333,4,2,1,72,0,0
82104,-57.1428571428571,4,2,1,72,0,0
82133,-400,4,2,1,72,0,0
82163,-55.5555555555556,4,2,1,72,0,0
82193,-500,4,2,1,72,0,0
82223,-54.054054054054,4,2,1,72,0,0
82253,-666.666666666667,4,2,1,72,0,0
82282,-52.6315789473684,4,2,1,72,0,0
82312,-1000,4,2,1,72,0,0
82342,-100,4,2,1,72,0,0
97104,-66.6666666666667,4,2,1,72,0,0
97164,-200,4,2,1,72,0,0
97223,-66.6666666666667,4,2,1,72,0,0
97283,-200,4,2,1,72,0,0
97342,-66.6666666666667,4,2,1,72,0,0
97402,-200,4,2,1,72,0,0
97461,-66.6666666666667,4,2,1,72,0,0
97521,-200,4,2,1,72,0,0
97580,-66.6666666666667,4,2,1,72,0,0
97640,-200,4,2,1,72,0,0
97699,-66.6666666666667,4,2,1,72,0,0
97759,-200,4,2,1,72,0,0
97818,-66.6666666666667,4,2,1,72,0,0
97878,-200,4,2,1,72,0,0
97937,-66.6666666666667,4,2,1,72,0,0
97997,-200,4,2,1,72,0,0

[HitObjects]
64,192,5676,128,0,6152:0:0:0:0:
448,192,5914,128,0,6152:0:0:0:0:
320,192,6152,128,0,6628:0:0:0:0:
192,192,6390,128,0,6628:0:0:0:0:
64,192,6628,128,0,7104:0:0:0:0:
320,192,6866,128,0,7104:0:0:0:0:
192,192,7104,128,0,7580:0:0:0:0:
448,192,7342,128,0,7580:0:0:0:0:
320,192,7580,128,0,8056:0:0:0:0:
64,192,7818,128,0,8056:0:0:0:0:
448,192,8056,128,0,8533:0:0:0:0:
192,192,8295,128,0,8533:0:0:0:0:
320,192,8533,128,0,9009:0:0:0:0:
64,192,8771,128,0,9009:0:0:0:0:
448,192,9009,128,0,9485:0:0:0:0:
192,192,9247,128,0,9485:0:0:0:0:
64,192,9485,128,0,9604:0:0:0:0:
320,192,9604,128,0,9723:0:0:0:0:
448,192,9723,128,0,9842:0:0:0:0:
192,192,9842,128,0,9961:0:0:0:0:
64,192,9961,128,0,10199:0:0:0:0:
320,192,10199,128,0,10318:0:0:0:0:
448,192,10318,128,0,10437:0:0:0:0:
320,192,10556,128,0,10676:0:0:0:0:
448,192,10676,128,0,10735:0:0:0:0:
448,192,10795,128,0,10854:0:0:0:0:
64,192,10914,128,0,11033:0:0:0:0:
192,192,11033,128,0,11152:0:0:0:0:
448,192,11152,128,0,11271:0:0:0:0:
320,192,11271,128,0,11390:0:0:0:0:
64,192,11390,128,0,11509:0:0:0:0:
320,192,11509,128,0,11628:0:0:0:0:
448,192,11628,128,0,11747:0:0:0:0:
64,192,11747,128,0,11866:0:0:0:0:
320,192,11866,128,0,12104:0:0:0:0:
192,192,12104,128,0,12223:0:0:0:0:
64,192,12223,128,0,12342:0:0:0:0:
192,192,12461,128,0,12580:0:0:0:0:
64,192,12580,128,0,12640:0:0:0:0:
64,192,12699,128,0,12759:0:0:0:0:
192,192,12818,128,0,12937:0:0:0:0:
320,192,12937,128,0,13056:0:0:0:0:
448,192,13176,128,0,13295:0:0:0:0:
64,192,13295,128,0,13414:0:0:0:0:
320,192,13414,128,0,13533:0:0:0:0:
448,192,13533,128,0,13652:0:0:0:0:
64,192,13533,128,0,13771:0:0:0:0:
192,192,13652,128,0,13771:0:0:0:0:
448,192,13771,128,0,14009:0:0:0:0:
320,192,14009,128,0,14128:0:0:0:0:
64,192,14009,128,0,14247:0:0:0:0:
192,192,14128,128,0,14247:0:0:0:0:
192,192,14366,128,0,14485:0:0:0:0:
320,192,14485,128,0,14604:0:0:0:0:
448,192,14485,128,0,14723:0:0:0:0:
192,192,14604,128,0,14723:0:0:0:0:
64,192,14723,128,0,14842:0:0:0:0:
320,192,14842,128,0,14961:0:0:0:0:
448,192,14961,128,0,15080:0:0:0:0:
192,192,14961,128,0,15199:0:0:0:0:
320,192,15080,128,0,15199:0:0:0:0:
64,192,15199,128,0,15318:0:0:0:0:
320,192,15318,128,0,15437:0:0:0:0:
448,192,15437,128,0,15556:0:0:0:0:
192,192,15437,128,0,15676:0:0:0:0:
64,192,15556,128,0,15676:0:0:0:0:
320,192,15676,128,0,15914:0:0:0:0:
192,192,15914,128,0,16033:0:0:0:0:
448,192,15914,128,0,16152:0:0:0:0:
64,192,16033,128,0,16152:0:0:0:0:
320,192,16271,128,0,16390:0:0:0:0:
192,192,16390,128,0,16509:0:0:0:0:
448,192,16390,128,0,16628:0:0:0:0:
320,192,16509,128,0,16628:0:0:0:0:
64,192,16628,128,0,16747:0:0:0:0:
192,192,16747,128,0,16866:0:0:0:0:
320,192,16866,128,0,17104:0:0:0:0:
448,192,16985,128,0,17104:0:0:0:0:
64,192,17104,128,0,17223:0:0:0:0:
192,192,17223,128,0,17342:0:0:0:0:
448,192,17342,128,0,17461:0:0:0:0:
64,192,17342,128,0,17580:0:0:0:0:
320,192,17461,128,0,17580:0:0:0:0:
448,192,17580,128,0,17818:0:0:0:0:
192,192,17818,128,0,17937:0:0:0:0:
64,192,17818,128,0,18056:0:0:0:0:
320,192,17937,128,0,18056:0:0:0:0:
320,192,18176,128,0,18295:0:0:0:0:
192,192,18295,128,0,18414:0:0:0:0:
448,192,18295,128,0,18533:0:0:0:0:
320,192,18414,128,0,18533:0:0:0:0:
64,192,18533,128,0,18652:0:0:0:0:
192,192,18652,128,0,18771:0:0:0:0:
448,192,18771,128,0,18890:0:0:0:0:
320,192,18771,128,0,19009:0:0:0:0:
192,192,18890,128,0,19009:0:0:0:0:
64,192,19009,128,0,19128:0:0:0:0:
192,192,19128,128,0,19247:0:0:0:0:
448,192,19247,128,0,19366:0:0:0:0:
320,192,19247,128,0,19485:0:0:0:0:
64,192,19366,128,0,19485:0:0:0:0:
192,192,19485,128,0,19723:0:0:0:0:
320,192,19723,128,0,19842:0:0:0:0:
448,192,19723,128,0,19961:0:0:0:0:
64,192,19842,128,0,19961:0:0:0:0:
192,192,20080,128,0,20199:0:0:0:0:
320,192,20199,128,0,20318:0:0:0:0:
448,192,20199,128,0,20437:0:0:0:0:
192,192,20318,128,0,20437:0:0:0:0:
64,192,20437,128,0,20556:0:0:0:0:
320,192,20556,128,0,20676:0:0:0:0:
192,192,20676,128,0,20914:0:0:0:0:
448,192,20795,128,0,20914:0:0:0:0:
64,192,20914,128,0,21390:0:0:0:0:
320,192,20914,128,0,21390:0:0:0:0:
448,192,21390,128,0,21628:0:0:0:0:
192,192,21390,128,0,21628:0:0:0:0:
320,192,21628,128,0,21866:0:0:0:0:
64,192,21866,128,0,22104:0:0:0:0:
448,192,22104,128,0,22342:0:0:0:0:
64,192,22342,128,0,22580:0:0:0:0:
448,192,22580,128,0,22818:0:0:0:0:
192,192,22580,128,0,22818:0:0:0:0:
64,192,22818,128,0,23295:0:0:0:0:
320,192,22818,128,0,23056:0:0:0:0:
192,192,23056,128,0,23295:0:0:0:0:
448,192,23295,128,0,23533:0:0:0:0:
64,192,23533,128,0,23771:0:0:0:0:
320,192,23771,128,0,24009:0:0:0:0:
448,192,24009,128,0,24247:0:0:0:0:
64,192,24247,128,0,24485:0:0:0:0:
192,192,24247,128,0,24723:0:0:0:0:
320,192,24485,128,0,24723:0:0:0:0:
64,192,24723,128,0,24961:0:0:0:0:
448,192,24723,128,0,25199:0:0:0:0:
320,192,24961,128,0,25199:0:0:0:0:
64,192,25199,128,0,25437:0:0:0:0:
320,192,25437,128,0,25676:0:0:0:0:
448,192,25676,128,0,25914:0:0:0:0:
192,192,25914,128,0,26152:0:0:0:0:
320,192,26152,128,0,26390:0:0:0:0:
64,192,26390,128,0,26628:0:0:0:0:
448,192,26628,128,0,27580:0:0:0:0:
192,192,26628,128,0,26866:0:0:0:0:
320,192,26866,128,0,27104:0:0:0:0:
64,192,27104,128,0,27342:0:0:0:0:
320,192,27342,128,0,27580:0:0:0:0:
64,192,27580,128,0,28533:0:0:0:0:
192,192,27580,128,0,27818:0:0:0:0:
448,192,27818,128,0,28056:0:0:0:0:
320,192,28056,128,0,28295:0:0:0:0:
192,192,28295,128,0,28533:0:0:0:0:
320,192,28533,128,0,30437:0:0:0:0:
448,192,28533,128,0,28771:0:0:0:0:
64,192,28771,128,0,29009:0:0:0:0:
192,192,29009,128,0,29247:0:0:0:0:
448,192,29247,128,0,29485:0:0:0:0:
64,192,29485,128,0,29723:0:0:0:0:
192,192,29723,128,0,29961:0:0:0:0:
448,192,29961,128,0,30199:0:0:0:0:
192,192,30199,128,0,30437:0:0:0:0:
64,192,30437,128,0,32342:0:0:0:0:
448,192,30437,128,0,30676:0:0:0:0:
320,192,30676,128,0,30914:0:0:0:0:
448,192,30914,128,0,31152:0:0:0:0:
192,192,31152,128,0,31390:0:0:0:0:
320,192,31390,128,0,31628:0:0:0:0:
448,192,31628,128,0,31866:0:0:0:0:
192,192,31866,128,0,32104:0:0:0:0:
320,192,32104,128,0,32342:0:0:0:0:
192,192,32342,128,0,33295:0:0:0:0:
448,192,32342,128,0,32461:0:0:0:0:
320,192,32461,128,0,32580:0:0:0:0:
64,192,32580,128,0,32699:0:0:0:0:
320,192,32699,128,0,32818:0:0:0:0:
448,192,32818,128,0,32937:0:0:0:0:
320,192,32937,128,0,33056:0:0:0:0:
64,192,33056,128,0,33176:0:0:0:0:
320,192,33176,128,0,33295:0:0:0:0:
448,192,33295,128,0,34247:0:0:0:0:
64,192,33295,128,0,33414:0:0:0:0:
192,192,33414,128,0,33533:0:0:0:0:
320,192,33533,128,0,33652:0:0:0:0:
192,192,33652,128,0,33771:0:0:0:0:
64,192,33771,128,0,33890:0:0:0:0:
192,192,33890,128,0,34009:0:0:0:0:
320,192,34009,128,0,34128:0:0:0:0:
192,192,34128,128,0,34247:0:0:0:0:
320,192,34247,128,0,35437:0:0:0:0:
64,192,34247,128,0,34366:0:0:0:0:
192,192,34366,128,0,34485:0:0:0:0:
448,192,34485,128,0,34604:0:0:0:0:
192,192,34604,128,0,34723:0:0:0:0:
64,192,34723,128,0,34961:0:0:0:0:
448,192,34961,128,0,35080:0:0:0:0:
192,192,35080,128,0,35199:0:0:0:0:
448,192,35318,128,0,35437:0:0:0:0:
64,192,35437,128,0,35556:0:0:0:0:
448,192,35556,128,0,35676:0:0:0:0:
64,192,35676,128,0,35735:0:0:0:0:
320,192,35676,128,0,35735:0:0:0:0:
64,192,35795,128,0,35854:0:0:0:0:
320,192,35795,128,0,35854:0:0:0:0:
448,192,35914,128,0,35973:0:0:0:0:
192,192,35914,128,0,35973:0:0:0:0:
192,192,36033,128,0,36092:0:0:0:0:
448,192,36033,128,0,36092:0:0:0:0:
64,192,36152,128,0,36390:0:0:0:0:
320,192,36152,128,0,36271:0:0:0:0:
192,192,36152,128,0,36390:0:0:0:0:
448,192,36271,128,0,36390:0:0:0:0:
320,192,36390,128,0,36509:0:0:0:0:
192,192,36509,128,0,36628:0:0:0:0:
64,192,36628,128,0,36866:0:0:0:0:
320,192,36628,128,0,36866:0:0:0:0:
448,192,36866,128,0,36985:0:0:0:0:
192,192,36985,128,0,37104:0:0:0:0:
320,192,37104,128,0,37342:0:0:0:0:
448,192,37223,128,0,37342:0:0:0:0:
64,192,37342,128,0,37461:0:0:0:0:
448,192,37461,128,0,37580:0:0:0:0:
64,192,37580,128,0,37818:0:0:0:0:
192,192,37699,128,0,37818:0:0:0:0:
320,192,37818,128,0,37937:0:0:0:0:
192,192,37937,128,0,38056:0:0:0:0:
64,192,38056,128,0,38176:0:0:0:0:
448,192,38056,128,0,38295:0:0:0:0:
320,192,38176,128,0,38295:0:0:0:0:
64,192,38295,128,0,38414:0:0:0:0:
192,192,38414,128,0,38533:0:0:0:0:
64,192,38533,128,0,38652:0:0:0:0:
320,192,38533,128,0,38771:0:0:0:0:
192,192,38652,128,0,38771:0:0:0:0:
448,192,38771,128,0,38890:0:0:0:0:
192,192,38890,128,0,39009:0:0:0:0:
448,192,39009,128,0,39247:0:0:0:0:
320,192,39128,128,0,39247:0:0:0:0:
64,192,39247,128,0,39366:0:0:0:0:
320,192,39366,128,0,39485:0:0:0:0:
64,192,39485,128,0,39604:0:0:0:0:
448,192,39485,128,0,39723:0:0:0:0:
192,192,39604,128,0,39723:0:0:0:0:
320,192,39842,128,0,39961:0:0:0:0:
192,192,39961,128,0,40080:0:0:0:0:
448,192,39961,128,0,40199:0:0:0:0:
64,192,40080,128,0,40199:0:0:0:0:
192,192,40199,128,0,40318:0:0:0:0:
320,192,40318,128,0,40437:0:0:0:0:
448,192,40437,128,0,40676:0:0:0:0:
192,192,40437,128,0,40676:0:0:0:0:
64,192,40676,128,0,40795:0:0:0:0:
320,192,40795,128,0,40914:0:0:0:0:
192,192,40914,128,0,41152:0:0:0:0:
64,192,41033,128,0,41152:0:0:0:0:
448,192,41152,128,0,41271:0:0:0:0:
64,192,41271,128,0,41390:0:0:0:0:
448,192,41390,128,0,41628:0:0:0:0:
320,192,41509,128,0,41628:0:0:0:0:
192,192,41628,128,0,41747:0:0:0:0:
320,192,41747,128,0,41866:0:0:0:0:
448,192,41866,128,0,41985:0:0:0:0:
64,192,41866,128,0,42104:0:0:0:0:
192,192,41985,128,0,42104:0:0:0:0:
320,192,42104,128,0,42223:0:0:0:0:
64,192,42223,128,0,42342:0:0:0:0:
448,192,42342,128,0,42461:0:0:0:0:
192,192,42342,128,0,42580:0:0:0:0:
320,192,42461,128,0,42580:0:0:0:0:
64,192,42580,128,0,42699:0:0:0:0:
320,192,42699,128,0,42818:0:0:0:0:
64,192,42818,128,0,43056:0:0:0:0:
192,192,42937,128,0,43056:0:0:0:0:
320,192,43056,128,0,43176:0:0:0:0:
192,192,43176,128,0,43295:0:0:0:0:
448,192,43295,128,0,43414:0:0:0:0:
64,192,43295,128,0,43533:0:0:0:0:
320,192,43414,128,0,43533:0:0:0:0:
64,192,43652,128,0,43771:0:0:0:0:
448,192,43771,128,0,44009:0:0:0:0:
320,192,43771,128,0,43890:0:0:0:0:
192,192,43771,128,0,44009:0:0:0:0:
64,192,43890,128,0,44009:0:0:0:0:
320,192,44009,128,0,44128:0:0:0:0:
192,192,44128,128,0,44247:0:0:0:0:
448,192,44247,128,0,44485:0:0:0:0:
320,192,44247,128,0,44485:0:0:0:0:
64,192,44485,128,0,44604:0:0:0:0:
192,192,44604,128,0,44723:0:0:0:0:
320,192,44723,128,0,44961:0:0:0:0:
64,192,44842,128,0,44961:0:0:0:0:
448,192,44961,128,0,45080:0:0:0:0:
64,192,45080,128,0,45199:0:0:0:0:
448,192,45199,128,0,45437:0:0:0:0:
192,192,45318,128,0,45437:0:0:0:0:
320,192,45437,128,0,45556:0:0:0:0:
192,192,45556,128,0,45676:0:0:0:0:
448,192,45676,128,0,45795:0:0:0:0:
64,192,45676,128,0,45914:0:0:0:0:
320,192,45795,128,0,45914:0:0:0:0:
448,192,45914,128,0,46033:0:0:0:0:
192,192,46033,128,0,46152:0:0:0:0:
448,192,46152,128,0,46271:0:0:0:0:
320,192,46152,128,0,46390:0:0:0:0:
192,192,46271,128,0,46390:0:0:0:0:
64,192,46390,128,0,46509:0:0:0:0:
192,192,46509,128,0,46628:0:0:0:0:
64,192,46628,128,0,46866:0:0:0:0:
320,192,46747,128,0,46866:0:0:0:0:
448,192,46866,128,0,46985:0:0:0:0:
320,192,46985,128,0,47104:0:0:0:0:
448,192,47104,128,0,47223:0:0:0:0:
192,192,47104,128,0,47342:0:0:0:0:
64,192,47223,128,0,47342:0:0:0:0:
320,192,47461,128,0,47580:0:0:0:0:
192,192,47580,128,0,47699:0:0:0:0:
64,192,47580,128,0,47818:0:0:0:0:
448,192,47699,128,0,47818:0:0:0:0:
192,192,47818,128,0,47937:0:0:0:0:
320,192,47937,128,0,48056:0:0:0:0:
64,192,48056,128,0,48295:0:0:0:0:
192,192,48056,128,0,48295:0:0:0:0:
448,192,48295,128,0,48414:0:0:0:0:
320,192,48414,128,0,48533:0:0:0:0:
192,192,48533,128,0,48771:0:0:0:0:
448,192,48652,128,0,48771:0:0:0:0:
64,192,48771,128,0,48890:0:0:0:0:
448,192,48890,128,0,49009:0:0:0:0:
64,192,49009,128,0,49247:0:0:0:0:
320,192,49128,128,0,49247:0:0:0:0:
192,192,49247,128,0,49366:0:0:0:0:
320,192,49366,128,0,49485:0:0:0:0:
64,192,49485,128,0,49961:0:0:0:0:
320,192,49961,128,0,50021:0:0:0:0:
448,192,49961,128,0,50021:0:0:0:0:
192,192,50199,128,0,50259:0:0:0:0:
64,192,50199,128,0,50259:0:0:0:0:
192,192,50437,128,0,50497:0:0:0:0:
320,192,50437,128,0,50497:0:0:0:0:
192,192,50556,128,0,50616:0:0:0:0:
320,192,50556,128,0,50616:0:0:0:0:
448,192,50676,128,0,50735:0:0:0:0:
64,192,50676,128,0,50735:0:0:0:0:
448,192,50795,128,0,50854:0:0:0:0:
64,192,50795,128,0,50854:0:0:0:0:
192,192,50914,128,0,50973:0:0:0:0:
320,192,50914,128,0,50973:0:0:0:0:
448,192,51033,128,0,51390:0:0:0:0:
64,192,51033,128,0,51271:0:0:0:0:
320,192,51390,128,0,51628:0:0:0:0:
192,192,51390,128,0,51509:0:0:0:0:
64,192,51390,128,0,51628:0:0:0:0:
448,192,51509,128,0,51628:0:0:0:0:
192,192,51628,128,0,51747:0:0:0:0:
448,192,51747,128,0,51866:0:0:0:0:
320,192,51866,128,0,52104:0:0:0:0:
64,192,51866,128,0,52104:0:0:0:0:
192,192,52104,128,0,52223:0:0:0:0:
448,192,52223,128,0,52342:0:0:0:0:
64,192,52342,128,0,52580:0:0:0:0:
192,192,52461,128,0,52580:0:0:0:0:
320,192,52580,128,0,52640:0:0:0:0:
320,192,52699,128,0,52759:0:0:0:0:
192,192,52818,128,0,53056:0:0:0:0:
448,192,52937,128,0,53056:0:0:0:0:
320,192,53056,128,0,53176:0:0:0:0:
448,192,53176,128,0,53295:0:0:0:0:
320,192,53295,128,0,53414:0:0:0:0:
192,192,53295,128,0,53533:0:0:0:0:
64,192,53414,128,0,53533:0:0:0:0:
320,192,53533,128,0,53652:0:0:0:0:
448,192,53652,128,0,53771:0:0:0:0:
320,192,53771,128,0,53890:0:0:0:0:
64,192,53771,128,0,54009:0:0:0:0:
448,192,53890,128,0,54009:0:0:0:0:
192,192,54009,128,0,54128:0:0:0:0:
448,192,54128,128,0,54247:0:0:0:0:
320,192,54247,128,0,54485:0:0:0:0:
192,192,54366,128,0,54485:0:0:0:0:
64,192,54485,128,0,54545:0:0:0:0:
64,192,54604,128,0,54664:0:0:0:0:
320,192,54723,128,0,54842:0:0:0:0:
192,192,54723,128,0,54961:0:0:0:0:
448,192,54842,128,0,54961:0:0:0:0:
64,192,55080,128,0,55199:0:0:0:0:
448,192,55199,128,0,55318:0:0:0:0:
192,192,55199,128,0,55437:0:0:0:0:
320,192,55318,128,0,55437:0:0:0:0:
448,192,55437,128,0,55556:0:0:0:0:
64,192,55556,128,0,55676:0:0:0:0:
192,192,55676,128,0,55914:0:0:0:0:
448,192,55676,128,0,55914:0:0:0:0:
320,192,55914,128,0,56033:0:0:0:0:
64,192,56033,128,0,56152:0:0:0:0:
448,192,56152,128,0,56390:0:0:0:0:
320,192,56271,128,0,56390:0:0:0:0:
192,192,56390,128,0,56449:0:0:0:0:
192,192,56509,128,0,56568:0:0:0:0:
320,192,56628,128,0,56866:0:0:0:0:
64,192,56747,128,0,56866:0:0:0:0:
448,192,56866,128,0,56985:0:0:0:0:
64,192,56985,128,0,57104:0:0:0:0:
192,192,57104,128,0,57223:0:0:0:0:
320,192,57104,128,0,57342:0:0:0:0:
448,192,57223,128,0,57342:0:0:0:0:
192,192,57342,128,0,57461:0:0:0:0:
64,192,57461,128,0,57580:0:0:0:0:
192,192,57580,128,0,57699:0:0:0:0:
448,192,57580,128,0,57818:0:0:0:0:
64,192,57699,128,0,57818:0:0:0:0:
320,192,57818,128,0,57937:0:0:0:0:
64,192,57937,128,0,58056:0:0:0:0:
192,192,58056,128,0,58295:0:0:0:0:
320,192,58176,128,0,58295:0:0:0:0:
448,192,58295,128,0,58354:0:0:0:0:
448,192,58414,128,0,58473:0:0:0:0:
192,192,58533,128,0,58652:0:0:0:0:
320,192,58533,128,0,58771:0:0:0:0:
64,192,58652,128,0,58771:0:0:0:0:
64,192,58890,128,0,59009:0:0:0:0:
192,192,59009,128,0,59247:0:0:0:0:
320,192,59009,128,0,59128:0:0:0:0:
448,192,59009,128,0,59247:0:0:0:0:
64,192,59128,128,0,59247:0:0:0:0:
320,192,59247,128,0,59366:0:0:0:0:
64,192,59366,128,0,59485:0:0:0:0:
192,192,59485,128,0,59723:0:0:0:0:
448,192,59485,128,0,59723:0:0:0:0:
320,192,59723,128,0,59842:0:0:0:0:
64,192,59842,128,0,60021:0:0:0:0:
448,192,59961,128,0,60199:0:0:0:0:
320,192,60080,128,0,60199:0:0:0:0:
192,192,60199,128,0,60259:0:0:0:0:
192,192,60318,128,0,60378:0:0:0:0:
320,192,60437,128,0,60676:0:0:0:0:
64,192,60556,128,0,60676:0:0:0:0:
448,192,60676,128,0,60795:0:0:0:0:
64,192,60795,128,0,60914:0:0:0:0:
192,192,60914,128,0,61033:0:0:0:0:
320,192,60914,128,0,61152:0:0:0:0:
448,192,61033,128,0,61152:0:0:0:0:
192,192,61152,128,0,61271:0:0:0:0:
64,192,61271,128,0,61390:0:0:0:0:
192,192,61390,128,0,61509:0:0:0:0:
448,192,61390,128,0,61628:0:0:0:0:
64,192,61509,128,0,61628:0:0:0:0:
320,192,61628,128,0,61747:0:0:0:0:
64,192,61747,128,0,61866:0:0:0:0:
448,192,61866,128,0,62104:0:0:0:0:
320,192,61985,128,0,62104:0:0:0:0:
192,192,62104,128,0,62164:0:0:0:0:
192,192,62223,128,0,62283:0:0:0:0:
448,192,62342,128,0,62461:0:0:0:0:
320,192,62342,128,0,62580:0:0:0:0:
64,192,62461,128,0,62580:0:0:0:0:
448,192,62699,128,0,62818:0:0:0:0:
64,192,62818,128,0,62937:0:0:0:0:
320,192,62818,128,0,63056:0:0:0:0:
192,192,62937,128,0,63056:0:0:0:0:
64,192,63056,128,0,63176:0:0:0:0:
448,192,63176,128,0,63295:0:0:0:0:
320,192,63295,128,0,63533:0:0:0:0:
64,192,63295,128,0,63533:0:0:0:0:
192,192,63533,128,0,63652:0:0:0:0:
448,192,63652,128,0,63771:0:0:0:0:
64,192,63771,128,0,64009:0:0:0:0:
192,192,63890,128,0,64009:0:0:0:0:
320,192,64009,128,0,64068:0:0:0:0:
320,192,64128,128,0,64187:0:0:0:0:
192,192,64247,128,0,64485:0:0:0:0:
448,192,64366,128,0,64485:0:0:0:0:
64,192,64485,128,0,64604:0:0:0:0:
448,192,64604,128,0,64723:0:0:0:0:
320,192,64723,128,0,64842:0:0:0:0:
192,192,64723,128,0,64961:0:0:0:0:
64,192,64842,128,0,64961:0:0:0:0:
320,192,64961,128,0,65080:0:0:0:0:
448,192,65080,128,0,65199:0:0:0:0:
320,192,65199,128,0,65318:0:0:0:0:
64,192,65199,128,0,65437:0:0:0:0:
448,192,65318,128,0,65437:0:0:0:0:
192,192,65437,128,0,65556:0:0:0:0:
448,192,65556,128,0,65676:0:0:0:0:
64,192,65676,128,0,65795:0:0:0:0:
320,192,65676,128,0,65914:0:0:0:0:
448,192,65795,128,0,65914:0:0:0:0:
192,192,65914,128,0,66033:0:0:0:0:
448,192,66033,128,0,66152:0:0:0:0:
64,192,66152,128,0,66628:0:0:0:0:
192,192,66390,128,0,66628:0:0:0:0:
448,192,66628,128,0,67104:0:0:0:0:
320,192,66628,128,0,67104:0:0:0:0:
64,192,67104,128,0,67580:0:0:0:0:
192,192,67104,128,0,67342:0:0:0:0:
448,192,67342,128,0,67580:0:0:0:0:
320,192,67580,128,0,67699:0:0:0:0:
192,192,67580,128,0,67818:0:0:0:0:
448,192,67699,128,0,67818:0:0:0:0:
192,192,67937,128,0,68056:0:0:0:0:
320,192,68056,128,0,68295:0:0:0:0:
64,192,68176,128,0,68295:0:0:0:0:
448,192,68295,128,0,68414:0:0:0:0:
64,192,68414,128,0,68533:0:0:0:0:
192,192,68533,128,0,69009:0:0:0:0:
320,192,68533,128,0,69009:0:0:0:0:
448,192,68533,128,0,68771:0:0:0:0:
64,192,69009,128,0,69128:0:0:0:0:
448,192,69009,128,0,69247:0:0:0:0:
192,192,69128,128,0,69247:0:0:0:0:
448,192,69366,128,0,69485:0:0:0:0:
320,192,69485,128,0,69723:0:0:0:0:
64,192,69485,128,0,69723:0:0:0:0:
192,192,69485,128,0,69723:0:0:0:0:
448,192,69723,128,0,69961:0:0:0:0:
320,192,69961,128,0,70199:0:0:0:0:
64,192,69961,128,0,70080:0:0:0:0:
192,192,69961,128,0,70199:0:0:0:0:
64,192,70199,128,0,70437:0:0:0:0:
448,192,70199,128,0,70437:0:0:0:0:
320,192,70437,128,0,70556:0:0:0:0:
192,192,70437,128,0,70676:0:0:0:0:
448,192,70556,128,0,70676:0:0:0:0:
64,192,70676,128,0,70795:0:0:0:0:
192,192,70795,128,0,70914:0:0:0:0:
448,192,70914,128,0,71390:0:0:0:0:
320,192,70914,128,0,71033:0:0:0:0:
64,192,70914,128,0,71152:0:0:0:0:
192,192,71033,128,0,71152:0:0:0:0:
320,192,71152,128,0,71390:0:0:0:0:
64,192,71390,128,0,71509:0:0:0:0:
192,192,71390,128,0,71628:0:0:0:0:
64,192,71628,128,0,71866:0:0:0:0:
448,192,71628,128,0,71747:0:0:0:0:
192,192,71747,128,0,71866:0:0:0:0:
320,192,71866,128,0,71985:0:0:0:0:
448,192,71866,128,0,72104:0:0:0:0:
192,192,71985,128,0,72104:0:0:0:0:
64,192,72223,128,0,72342:0:0:0:0:
192,192,72342,128,0,72461:0:0:0:0:
448,192,72342,128,0,72580:0:0:0:0:
320,192,72461,128,0,72580:0:0:0:0:
448,192,72699,128,0,72818:0:0:0:0:
64,192,72818,128,0,72937:0:0:0:0:
320,192,72818,128,0,73056:0:0:0:0:
192,192,72818,128,0,73056:0:0:0:0:
448,192,73056,128,0,73295:0:0:0:0:
320,192,73295,128,0,73414:0:0:0:0:
64,192,73295,128,0,73533:0:0:0:0:
192,192,73295,128,0,73533:0:0:0:0:
448,192,73533,128,0,73771:0:0:0:0:
64,192,73771,128,0,74009:0:0:0:0:
192,192,73771,128,0,74009:0:0:0:0:
320,192,73771,128,0,73890:0:0:0:0:
448,192,74009,128,0,74247:0:0:0:0:
320,192,74009,128,0,74247:0:0:0:0:
192,192,74247,128,0,74723:0:0:0:0:
64,192,74247,128,0,74723:0:0:0:0:
320,192,74723,128,0,74961:0:0:0:0:
448,192,74723,128,0,75199:0:0:0:0:
64,192,74961,128,0,75199:0:0:0:0:
320,192,75199,128,0,75437:0:0:0:0:
192,192,75199,128,0,75318:0:0:0:0:
64,192,75318,128,0,75437:0:0:0:0:
320,192,75556,128,0,75676:0:0:0:0:
192,192,75676,128,0,75914:0:0:0:0:
448,192,75795,128,0,75914:0:0:0:0:
64,192,75914,128,0,76033:0:0:0:0:
448,192,76033,128,0,76152:0:0:0:0:
64,192,76152,128,0,76390:0:0:0:0:
192,192,76152,128,0,76628:0:0:0:0:
320,192,76152,128,0,76628:0:0:0:0:
64,192,76628,128,0,76866:0:0:0:0:
448,192,76628,128,0,76747:0:0:0:0:
320,192,76747,128,0,76866:0:0:0:0:
64,192,76985,128,0,77104:0:0:0:0:
320,192,77104,128,0,77342:0:0:0:0:
448,192,77104,128,0,77342:0:0:0:0:
192,192,77104,128,0,77342:0:0:0:0:
64,192,77342,128,0,77580:0:0:0:0:
320,192,77580,128,0,77818:0:0:0:0:
448,192,77580,128,0,77699:0:0:0:0:
192,192,77580,128,0,77818:0:0:0:0:
64,192,77818,128,0,78056:0:0:0:0:
448,192,77818,128,0,78056:0:0:0:0:
320,192,78056,128,0,78295:0:0:0:0:
192,192,78056,128,0,78176:0:0:0:0:
64,192,78176,128,0,78295:0:0:0:0:
448,192,78295,128,0,78414:0:0:0:0:
320,192,78414,128,0,78533:0:0:0:0:
448,192,78533,128,0,78771:0:0:0:0:
192,192,78533,128,0,78652:0:0:0:0:
64,192,78533,128,0,79009:0:0:0:0:
320,192,78652,128,0,78771:0:0:0:0:
192,192,78771,128,0,79009:0:0:0:0:
320,192,79009,128,0,79247:0:0:0:0:
448,192,79009,128,0,79128:0:0:0:0:
64,192,79247,128,0,79366:0:0:0:0:
448,192,79247,128,0,79485:0:0:0:0:
320,192,79366,128,0,79485:0:0:0:0:
64,192,79485,128,0,79723:0:0:0:0:
192,192,79485,128,0,79604:0:0:0:0:
320,192,79604,128,0,79723:0:0:0:0:
448,192,79842,128,0,79961:0:0:0:0:
320,192,79961,128,0,80080:0:0:0:0:
64,192,79961,128,0,80199:0:0:0:0:
192,192,80080,128,0,80199:0:0:0:0:
64,192,80318,128,0,80437:0:0:0:0:
320,192,80437,128,0,80676:0:0:0:0:
192,192,80437,128,0,80676:0:0:0:0:
448,192,80556,128,0,80676:0:0:0:0:
64,192,80676,128,0,80795:0:0:0:0:
192,192,80795,128,0,80914:0:0:0:0:
448,192,80914,128,0,81152:0:0:0:0:
64,192,80914,128,0,81152:0:0:0:0:
320,192,81033,128,0,81152:0:0:0:0:
192,192,81152,128,0,81271:0:0:0:0:
448,192,81271,128,0,81390:0:0:0:0:
192,192,81390,128,0,81449:0:0:0:0:
320,192,81390,128,0,81449:0:0:0:0:
192,192,81509,128,0,81568:0:0:0:0:
320,192,81509,128,0,81568:0:0:0:0:
448,192,81628,128,0,81866:0:0:0:0:
64,192,81628,128,0,81866:0:0:0:0:
192,192,81866,128,0,82342:0:0:0:0:
320,192,81866,128,0,82342:0:0:0:0:
448,192,82342,128,0,82580:0:0:0:0:
64,192,82342,128,0,82580:0:0:0:0:
320,192,82580,128,0,82818:0:0:0:0:
64,192,82818,128,0,83056:0:0:0:0:
448,192,83056,128,0,83295:0:0:0:0:
64,192,83295,128,0,83533:0:0:0:0:
448,192,83533,128,0,83771:0:0:0:0:
192,192,83533,128,0,83771:0:0:0:0:
64,192,83771,128,0,84247:0:0:0:0:
320,192,83771,128,0,84009:0:0:0:0:
192,192,84009,128,0,84247:0:0:0:0:
448,192,84247,128,0,84485:0:0:0:0:
64,192,84485,128,0,84723:0:0:0:0:
320,192,84723,128,0,84961:0:0:0:0:
448,192,84961,128,0,85199:0:0:0:0:
64,192,85199,128,0,85437:0:0:0:0:
192,192,85199,128,0,85676:0:0:0:0:
320,192,85437,128,0,85676:0:0:0:0:
448,192,85676,128,0,86152:0:0:0:0:
64,192,85676,128,0,85914:0:0:0:0:
320,192,85914,128,0,86152:0:0:0:0:
192,192,85914,128,0,86152:0:0:0:0:
64,192,86152,128,0,86390:0:0:0:0:
320,192,86390,128,0,86628:0:0:0:0:
192,192,86390,128,0,86628:0:0:0:0:
448,192,86628,128,0,86866:0:0:0:0:
192,192,86866,128,0,87104:0:0:0:0:
64,192,86866,128,0,87104:0:0:0:0:
448,192,87104,128,0,87342:0:0:0:0:
64,192,87342,128,0,87580:0:0:0:0:
320,192,87342,128,0,87580:0:0:0:0:
448,192,87580,128,0,88533:0:0:0:0:
192,192,87580,128,0,87818:0:0:0:0:
320,192,87818,128,0,88056:0:0:0:0:
64,192,87818,128,0,88056:0:0:0:0:
192,192,88056,128,0,88295:0:0:0:0:
320,192,88295,128,0,88533:0:0:0:0:
64,192,88295,128,0,88414:0:0:0:0:
64,192,88533,128,0,89485:0:0:0:0:
192,192,88533,128,0,88771:0:0:0:0:
448,192,88771,128,0,89009:0:0:0:0:
320,192,88771,128,0,89009:0:0:0:0:
192,192,89009,128,0,89247:0:0:0:0:
320,192,89247,128,0,89485:0:0:0:0:
448,192,89247,128,0,89366:0:0:0:0:
192,192,89485,128,0,89604:0:0:0:0:
448,192,89485,128,0,91390:0:0:0:0:
64,192,89604,128,0,89723:0:0:0:0:
192,192,89723,128,0,89842:0:0:0:0:
320,192,89723,128,0,89842:0:0:0:0:
64,192,89842,128,0,89961:0:0:0:0:
192,192,89961,128,0,90199:0:0:0:0:
320,192,90199,128,0,90318:0:0:0:0:
64,192,90199,128,0,90437:0:0:0:0:
192,192,90318,128,0,90437:0:0:0:0:
192,192,90556,128,0,90676:0:0:0:0:
64,192,90676,128,0,90735:0:0:0:0:
320,192,90676,128,0,90914:0:0:0:0:
64,192,90795,128,0,90854:0:0:0:0:
64,192,91033,128,0,91152:0:0:0:0:
320,192,91152,128,0,91271:0:0:0:0:
192,192,91152,128,0,91390:0:0:0:0:
64,192,91271,128,0,91330:0:0:0:0:
64,192,91390,128,0,93295:0:0:0:0:
320,192,91390,128,0,91509:0:0:0:0:
448,192,91509,128,0,91628:0:0:0:0:
320,192,91628,128,0,91747:0:0:0:0:
192,192,91628,128,0,91747:0:0:0:0:
448,192,91747,128,0,91866:0:0:0:0:
320,192,91866,128,0,92104:0:0:0:0:
192,192,92104,128,0,92223:0:0:0:0:
448,192,92104,128,0,92342:0:0:0:0:
320,192,92223,128,0,92342:0:0:0:0:
320,192,92461,128,0,92580:0:0:0:0:
448,192,92580,128,0,92640:0:0:0:0:
192,192,92580,128,0,92818:0:0:0:0:
448,192,92699,128,0,92759:0:0:0:0:
320,192,92818,128,0,92937:0:0:0:0:
448,192,92937,128,0,93056:0:0:0:0:
320,192,93056,128,0,93295:0:0:0:0:
448,192,93176,128,0,93235:0:0:0:0:
192,192,93295,128,0,94247:0:0:0:0:
448,192,93295,128,0,93414:0:0:0:0:
64,192,93414,128,0,93533:0:0:0:0:
320,192,93533,128,0,93652:0:0:0:0:
448,192,93652,128,0,93771:0:0:0:0:
64,192,93771,128,0,94009:0:0:0:0:
448,192,94009,128,0,94128:0:0:0:0:
64,192,94128,128,0,94247:0:0:0:0:
320,192,94247,128,0,95199:0:0:0:0:
192,192,94366,128,0,94485:0:0:0:0:
448,192,94485,128,0,94545:0:0:0:0:
448,192,94604,128,0,94664:0:0:0:0:
64,192,94842,128,0,94961:0:0:0:0:
448,192,94961,128,0,95080:0:0:0:0:
192,192,95080,128,0,95199:0:0:0:0:
64,192,95199,128,0,95437:0:0:0:0:
448,192,95199,128,0,95318:0:0:0:0:
320,192,95318,128,0,95437:0:0:0:0:
448,192,95437,128,0,95556:0:0:0:0:
320,192,95556,128,0,95676:0:0:0:0:
192,192,95676,128,0,95914:0:0:0:0:
448,192,95795,128,0,95914:0:0:0:0:
64,192,95914,128,0,96033:0:0:0:0:
192,192,96033,128,0,96152:0:0:0:0:
320,192,96152,128,0,96390:0:0:0:0:
64,192,96271,128,0,96390:0:0:0:0:
192,192,96390,128,0,96509:0:0:0:0:
320,192,96509,128,0,96628:0:0:0:0:
448,192,96628,128,0,96866:0:0:0:0:
192,192,96747,128,0,96866:0:0:0:0:
64,192,96985,128,0,97104:0:0:0:0:
448,192,97104,128,0,99009:0:0:0:0:
