osu file format v14

[General]
AudioFilename: audio.mp3
AudioLeadIn: 0
PreviewTime: 36152
Countdown: 0
SampleSet: Soft
StackLeniency: 0.7
Mode: 3
LetterboxInBreaks: 0
SpecialStyle: 0
WidescreenStoryboard: 1

[Editor]
DistanceSpacing: 1.4
BeatDivisor: 4
GridSize: 4
TimelineZoom: 1.2

[Metadata]
Title:Parasite (Original Mix)
TitleUnicode:Parasite (Original Mix)
Artist:IAHN
ArtistUnicode:IAHN
Creator:Ryu Sei
Version:Easy
Source:
Tags:electronic instrumental featured artist fa full LN only
BeatmapID:1934618
BeatmapSetID:923388

[Difficulty]
HPDrainRate:8.2
CircleSize:4
OverallDifficulty:6.5
ApproachRate:5
SliderMultiplier:1.4
SliderTickRate:1

[Events]
//Background and Video events
0,0,"stupud parasite.png",0,0
//Break Periods
//Storyboard Layer 0 (Background)
//Storyboard Layer 1 (Fail)
//Storyboard Layer 2 (Pass)
//Storyboard Layer 3 (Foreground)
//Storyboard Layer 4 (Overlay)
//Storyboard Sound Samples

[TimingPoints]
5676.00075413244,476.190476190476,4,2,1,72,1,0
36152,-100,4,2,1,72,0,1
49485,-100,4,2,1,72,0,0
51390,-100,4,2,1,72,0,1
66628,-100,4,2,1,72,0,0
67104,-100,4,2,1,72,0,1
74247,-100,4,2,1,72,0,0
74723,-100,4,2,1,72,0,1
81866,-100,4,2,1,72,0,0

[HitObjects]
64,192,5676,128,0,7580:0:0:0:0:
192,192,7580,128,0,9485:0:0:0:0:
320,192,9485,128,0,11390:0:0:0:0:
448,192,11390,128,0,13295:0:0:0:0:
64,192,13295,128,0,14247:0:0:0:0:
320,192,14247,128,0,15199:0:0:0:0:
192,192,15199,128,0,16152:0:0:0:0:
448,192,16152,128,0,17104:0:0:0:0:
64,192,17104,128,0,18056:0:0:0:0:
192,192,18056,128,0,19009:0:0:0:0:
320,192,19009,128,0,19961:0:0:0:0:
448,192,19961,128,0,20914:0:0:0:0:
64,192,20914,128,0,21390:0:0:0:0:
320,192,21390,128,0,21866:0:0:0:0:
448,192,22818,128,0,23771:0:0:0:0:
64,192,24723,128,0,25676:0:0:0:0:
320,192,26628,128,0,27580:0:0:0:0:
192,192,28533,128,0,29485:0:0:0:0:
64,192,30437,128,0,31390:0:0:0:0:
448,192,32342,128,0,33295:0:0:0:0:
192,192,33295,128,0,34247:0:0:0:0:
64,192,36152,128,0,36628:0:0:0:0:
192,192,36628,128,0,36866:0:0:0:0:
320,192,36866,128,0,37104:0:0:0:0:
320,192,37223,128,0,37461:0:0:0:0:
320,192,37699,128,0,38056:0:0:0:0:
64,192,38056,128,0,38533:0:0:0:0:
192,192,38533,128,0,38771:0:0:0:0:
320,192,38771,128,0,39009:0:0:0:0:
448,192,39128,128,0,39485:0:0:0:0:
64,192,39485,128,0,39604:0:0:0:0:
192,192,39604,128,0,39723:0:0:0:0:
320,192,39842,128,0,39961:0:0:0:0:
448,192,39961,128,0,40437:0:0:0:0:
320,192,40437,128,0,40676:0:0:0:0:
192,192,40676,128,0,40914:0:0:0:0:
192,192,41033,128,0,41271:0:0:0:0:
192,192,41509,128,0,41866:0:0:0:0:
448,192,41866,128,0,42342:0:0:0:0:
320,192,42342,128,0,42580:0:0:0:0:
192,192,42580,128,0,42818:0:0:0:0:
64,192,42937,128,0,43295:0:0:0:0:
448,192,43295,128,0,43414:0:0:0:0:
320,192,43414,128,0,43533:0:0:0:0:
192,192,43652,128,0,43771:0:0:0:0:
64,192,43771,128,0,44247:0:0:0:0:
320,192,44247,128,0,44485:0:0:0:0:
192,192,44485,128,0,44723:0:0:0:0:
192,192,44842,128,0,45080:0:0:0:0:
192,192,45318,128,0,45676:0:0:0:0:
64,192,45676,128,0,46152:0:0:0:0:
320,192,46152,128,0,46390:0:0:0:0:
192,192,46390,128,0,46628:0:0:0:0:
448,192,46747,128,0,47104:0:0:0:0:
64,192,47104,128,0,47223:0:0:0:0:
320,192,47223,128,0,47342:0:0:0:0:
192,192,47461,128,0,47580:0:0:0:0:
448,192,47580,128,0,48056:0:0:0:0:
192,192,48056,128,0,48295:0:0:0:0:
320,192,48295,128,0,48533:0:0:0:0:
320,192,48652,128,0,48890:0:0:0:0:
320,192,49128,128,0,49485:0:0:0:0:
448,192,49485,128,0,49961:0:0:0:0:
192,192,49961,128,0,50199:0:0:0:0:
320,192,50199,128,0,50437:0:0:0:0:
64,192,50437,128,0,50914:0:0:0:0:
448,192,50914,128,0,51390:0:0:0:0:
320,192,51033,128,0,51390:0:0:0:0:
64,192,51390,128,0,51866:0:0:0:0:
192,192,51866,128,0,52104:0:0:0:0:
320,192,52104,128,0,52342:0:0:0:0:
320,192,52461,128,0,52699:0:0:0:0:
320,192,52937,128,0,53295:0:0:0:0:
64,192,53295,128,0,53771:0:0:0:0:
192,192,53771,128,0,54009:0:0:0:0:
320,192,54009,128,0,54247:0:0:0:0:
448,192,54366,128,0,54723:0:0:0:0:
64,192,54723,128,0,54842:0:0:0:0:
192,192,54842,128,0,54961:0:0:0:0:
320,192,55080,128,0,55199:0:0:0:0:
448,192,55199,128,0,55676:0:0:0:0:
320,192,55676,128,0,55914:0:0:0:0:
192,192,55914,128,0,56152:0:0:0:0:
192,192,56271,128,0,56509:0:0:0:0:
192,192,56747,128,0,57104:0:0:0:0:
448,192,57104,128,0,57580:0:0:0:0:
320,192,57580,128,0,57818:0:0:0:0:
192,192,57818,128,0,58056:0:0:0:0:
64,192,58176,128,0,58533:0:0:0:0:
448,192,58533,128,0,58652:0:0:0:0:
320,192,58652,128,0,58771:0:0:0:0:
192,192,58890,128,0,59009:0:0:0:0:
320,192,59009,128,0,59485:0:0:0:0:
448,192,59485,128,0,59723:0:0:0:0:
64,192,59723,128,0,59961:0:0:0:0:
64,192,60080,128,0,60318:0:0:0:0:
64,192,60556,128,0,60914:0:0:0:0:
320,192,60914,128,0,61390:0:0:0:0:
448,192,61390,128,0,61628:0:0:0:0:
64,192,61628,128,0,61866:0:0:0:0:
192,192,61985,128,0,62342:0:0:0:0:
320,192,62342,128,0,62461:0:0:0:0:
448,192,62461,128,0,62580:0:0:0:0:
64,192,62699,128,0,62818:0:0:0:0:
192,192,62818,128,0,63295:0:0:0:0:
64,192,63295,128,0,63533:0:0:0:0:
448,192,63533,128,0,63771:0:0:0:0:
448,192,63890,128,0,64128:0:0:0:0:
448,192,64366,128,0,64723:0:0:0:0:
192,192,64723,128,0,65199:0:0:0:0:
64,192,65199,128,0,65676:0:0:0:0:
448,192,65676,128,0,66152:0:0:0:0:
320,192,66152,128,0,66628:0:0:0:0:
64,192,67104,128,0,67580:0:0:0:0:
448,192,68533,128,0,69009:0:0:0:0:
320,192,69485,128,0,69723:0:0:0:0:
192,192,69723,128,0,69961:0:0:0:0:
64,192,69961,128,0,70199:0:0:0:0:
448,192,70199,128,0,70437:0:0:0:0:
192,192,70437,128,0,70914:0:0:0:0:
448,192,71390,128,0,71628:0:0:0:0:
320,192,71628,128,0,71866:0:0:0:0:
64,192,71866,128,0,72104:0:0:0:0:
192,192,72104,128,0,72342:0:0:0:0:
448,192,72342,128,0,72461:0:0:0:0:
320,192,72461,128,0,72580:0:0:0:0:
192,192,72699,128,0,72818:0:0:0:0:
64,192,72818,128,0,73056:0:0:0:0:
192,192,73295,128,0,73533:0:0:0:0:
320,192,73771,128,0,74009:0:0:0:0:
448,192,74723,128,0,75199:0:0:0:0:
64,192,76152,128,0,76628:0:0:0:0:
192,192,77104,128,0,77342:0:0:0:0:
320,192,77342,128,0,77580:0:0:0:0:
448,192,77580,128,0,77818:0:0:0:0:
64,192,77818,128,0,78056:0:0:0:0:
320,192,78056,128,0,78533:0:0:0:0:
64,192,79009,128,0,79247:0:0:0:0:
192,192,79247,128,0,79485:0:0:0:0:
448,192,79485,128,0,79723:0:0:0:0:
320,192,79723,128,0,79961:0:0:0:0:
64,192,79961,128,0,80080:0:0:0:0:
192,192,80080,128,0,80199:0:0:0:0:
320,192,80318,128,0,80437:0:0:0:0:
448,192,80437,128,0,80676:0:0:0:0:
320,192,80914,128,0,81152:0:0:0:0:
64,192,81390,128,0,81866:0:0:0:0:
448,192,81866,128,0,82342:0:0:0:0:
192,192,82342,128,0,82818:0:0:0:0:
448,192,83771,128,0,84723:0:0:0:0:
64,192,85676,128,0,86628:0:0:0:0:
320,192,87580,128,0,88533:0:0:0:0:
448,192,89485,128,0,90437:0:0:0:0:
64,192,91390,128,0,92342:0:0:0:0:
320,192,93295,128,0,94247:0:0:0:0:
192,192,94247,128,0,95199:0:0:0:0:
64,192,95199,128,0,95676:0:0:0:0:
192,192,95676,128,0,96152:0:0:0:0:
320,192,96152,128,0,96628:0:0:0:0:
448,192,96628,128,0,97104:0:0:0:0:
64,192,97104,128,0,99009:0:0:0:0:
