osu file format v14

[General]
AudioFilename: audio.mp3
AudioLeadIn: 0
PreviewTime: 45661
Countdown: 0
SampleSet: Soft
StackLeniency: 0
Mode: 0
LetterboxInBreaks: 0
WidescreenStoryboard: 1

[Editor]
Bookmarks: 1815,16584,31353,46123,60892,75661,90430,97815,112584,127353,142123
DistanceSpacing: 1
BeatDivisor: 4
GridSize: 8
TimelineZoom: 1

[Metadata]
Title:Melody of Heaven (Original Mix)
TitleUnicode:Melody of Heaven (Original Mix)
Artist:IAHN
ArtistUnicode:IAHN
Creator:Sonnyc
Version:Insane
Source:osu!
Tags:instrumental electronic dubstep featured artist mappers' guild
BeatmapID:2130884
BeatmapSetID:1017579

[Difficulty]
HPDrainRate:6
CircleSize:4.3
OverallDifficulty:8
ApproachRate:8.5
SliderMultiplier:2
SliderTickRate:2

[Events]
//Background and Video events
0,0,"bg.jpg",0,0
//Break Periods
2,90630,97140
//Storyboard Layer 0 (Background)
//Storyboard Layer 1 (Fail)
//Storyboard Layer 2 (Pass)
//Storyboard Layer 3 (Foreground)
//Storyboard Layer 4 (Overlay)
//Storyboard Sound Samples

[TimingPoints]
1815,461.538461538462,4,2,1,50,1,0
15661,-100,4,2,1,60,0,0
16584,-100,4,2,1,60,0,0
23969,-100,4,2,1,65,0,0
31353,-100,4,2,1,70,0,0
46123,-100,4,2,1,60,0,0
53507,-100,4,2,1,65,0,0
59045,-133.333333333333,4,2,1,55,0,0
60430,-100,4,2,1,65,0,0
60892,-100,4,2,1,70,0,0
74738,-66.6666666666667,4,2,1,70,0,0
75661,-100,4,2,1,70,0,0
127353,-100,4,2,1,50,0,0
141199,-100,4,2,1,60,0,0

[Colours]
Combo1 : 244,174,151
Combo2 : 134,188,249
Combo3 : 214,174,247
Combo4 : 238,244,125

[HitObjects]
120,350,1815,5,4,0:0:0:0:
208,365,2045,1,0,0:0:0:0:
296,380,2276,1,2,0:0:0:0:
285,210,2507,6,0,P|236:203|199:234,2,100,2|0|0,0:0|0:0|0:0,0:0:0:0:
263,298,3199,1,2,0:0:0:0:
262,122,3430,38,0,P|311:115|348:146,2,100,2|0|0,0:0|0:0|0:0,0:0:0:0:
285,210,4122,1,2,0:0:0:0:
285,34,4353,6,0,P|236:27|199:58,1,100,0|0,0:0|0:0,0:0:0:0:
263,122,4815,1,0,0:0:0:0:
263,122,5045,1,0,0:0:0:0:
107,60,5276,5,0,0:0:0:0:
132,227,5507,1,2,0:0:0:0:
262,122,5738,5,0,0:0:0:0:
310,107,5853,1,2,0:0:0:0:
357,120,5968,1,2,0:0:0:0:
391,156,6084,1,0,0:0:0:0:
400,205,6199,1,2,0:0:0:0:
383,251,6315,1,0,0:0:0:0:
343,280,6430,1,2,0:0:0:0:
228,228,6661,1,0,0:0:0:0:
312,197,6891,1,2,0:0:0:0:
260,312,7122,1,0,0:0:0:0:
145,197,7353,37,2,0:0:0:0:
260,144,7584,1,0,0:0:0:0:
228,228,7815,1,2,0:0:0:0:
176,113,8045,1,0,0:0:0:0:
344,175,8276,5,2,0:1:0:0:
344,175,8738,1,2,0:1:0:0:
260,144,8968,1,2,0:0:0:0:
424,76,9199,5,4,0:0:0:0:
439,164,9430,1,0,0:0:0:0:
454,252,9661,1,2,0:0:0:0:
284,241,9891,6,0,P|279:188|323:151,2,100,2|0|0,0:0|0:0|0:0,0:0:0:0:
372,219,10584,1,2,0:0:0:0:
196,219,10815,38,0,P|191:272|235:309,2,100,2|0|0,0:0|0:0|0:0,0:0:0:0:
284,241,11507,1,2,0:0:0:0:
108,241,11738,6,0,P|103:188|147:151,1,100,0|0,0:0|0:0,0:0:0:0:
196,219,12199,21,2,0:1:0:0:
165,28,12430,1,2,0:1:0:0:
392,350,12891,5,2,0:0:0:0:
304,365,13122,1,0,0:0:0:0:
216,380,13353,1,2,0:0:0:0:
312,234,13584,6,0,P|275:203|227:210,1,100,2|0,0:0|0:0,0:0:0:0:
249,298,14045,1,0,0:0:0:0:
249,298,14276,1,2,0:0:0:0:
163,147,14507,38,0,P|200:115|248:122,1,100,2|0,0:0|0:0,0:0:0:0:
226,210,14968,1,0,0:0:0:0:
226,210,15199,1,0,0:0:0:0:
312,59,15430,1,2,0:0:0:0:
394,284,15661,37,4,1:3:0:0:
172,297,15891,1,8,1:3:0:0:
222,302,16007,1,4,1:3:0:0:
272,307,16122,1,8,1:3:0:0:
283,290,16238,1,8,1:3:0:0:
294,273,16353,1,8,1:3:0:0:
344,278,16468,1,0,0:0:0:0:
394,284,16584,1,4,1:0:0:0:
347,192,16815,5,0,0:0:0:0:
405,107,17045,1,2,0:0:0:0:
405,107,17161,2,0,B|297:95,1,100,2|0,0:0|0:0,0:0:0:0:
205,20,17507,6,0,B|227:40|227:40|217:111,1,100,0|0,0:0|0:0,0:0:0:0:
161,156,17853,1,0,0:0:0:0:
161,156,17968,2,0,B|140:137|140:137|149:67,1,100,2|0,0:0|0:0,0:0:0:0:
72,272,18430,37,0,0:0:0:0:
174,298,18661,1,0,0:0:0:0:
116,213,18891,1,2,0:0:0:0:
116,213,19007,2,0,B|224:201,1,100,2|0,0:0|0:0,0:0:0:0:
287,192,19353,1,0,0:0:0:0:
111,36,19584,21,2,0:1:0:0:
268,48,19815,1,2,0:1:0:0:
425,60,20045,1,2,0:1:0:0:
425,60,20161,2,0,B|402:237,1,150,2|0,0:1|0:0,0:0:0:0:
161,156,20738,38,0,B|140:137|140:137|149:67,1,100,2|0,0:0|0:0,0:0:0:0:
205,20,21084,1,0,0:0:0:0:
205,20,21199,2,0,B|227:40|227:40|217:111,1,100,0|0,0:0|0:0,0:0:0:0:
161,156,21545,1,0,0:0:0:0:
161,156,21661,2,0,B|140:137|140:137|149:67,1,100,2|0,0:0|0:0,0:0:0:0:
72,272,22122,21,2,1:1:0:0:
298,298,22468,1,2,0:1:0:0:
202,287,22699,1,2,0:1:0:0:
429,314,23045,1,2,0:1:0:0:
429,314,23507,1,8,1:1:0:0:
72,272,23968,5,2,0:0:0:0:
174,298,24199,1,0,0:0:0:0:
116,213,24430,1,2,0:0:0:0:
116,213,24545,2,0,B|224:201,1,100,2|0,0:0|0:0,0:0:0:0:
287,192,24891,1,0,0:0:0:0:
224,110,25122,1,0,0:0:0:0:
327,122,25353,2,0,B|435:134,1,100,2|0,0:0|0:0,0:0:0:0:
468,318,25815,6,0,P|445:284|386:289,1,100,2|0,0:0|0:0,0:0:0:0:
369,273,26161,2,0,P|346:307|287:302,1,100,2|0,0:0|0:0,0:0:0:0:
272,321,26507,2,0,P|257:258|125:251,1,200,2|0,0:0|0:0,0:0:0:0:
43,323,27199,1,2,0:1:0:0:
34,119,27430,5,0,0:0:0:0:
34,119,27545,1,2,0:0:0:0:
34,119,27661,2,0,L|146:129,1,100,2|0,0:0|0:0,0:0:0:0:
116,220,28122,1,2,0:0:0:0:
237,98,28353,1,0,0:0:0:0:
225,207,28584,2,0,L|337:217,1,100,2|0,0:0|0:0,0:0:0:0:
462,231,29045,1,2,0:1:0:0:
177,44,29507,5,2,1:1:0:0:
368,66,29853,1,2,0:1:0:0:
407,255,30199,1,2,0:1:0:0:
239,349,30545,1,2,0:1:0:0:
96,220,30891,1,2,0:1:0:0:
211,237,31122,5,2,1:0:0:0:
326,254,31353,2,0,B|359:202|320:151|308:176|268:124|300:72,1,200,6|8,1:0|1:0,0:0:0:0:
211,237,32045,1,2,0:0:0:0:
391,109,32276,6,0,B|490:120,1,100,2|2,1:0|0:0,0:0:0:0:
300,71,32738,1,10,1:1:0:0:
512,212,32968,1,2,0:0:0:0:
330,341,33199,6,0,P|273:358|216:299,1,150,2|2,1:0|0:1,0:0:0:0:
284,288,33661,1,8,1:0:0:0:
42,358,33891,2,0,L|32:248,1,100,2|0,0:1|0:0,0:0:0:0:
133,86,34353,5,2,0:1:0:0:
182,78,34468,1,2,0:0:0:0:
201,122,34584,1,10,1:0:0:0:
166,153,34699,1,2,0:0:0:0:
125,127,34815,1,0,0:1:0:0:
431,43,35045,5,2,1:0:0:0:
401,198,35276,1,0,0:0:0:0:
431,43,35507,1,10,1:0:0:0:
329,281,35738,5,2,0:1:0:0:
299,126,35968,1,2,1:0:0:0:
299,126,36084,1,0,0:0:0:0:
329,281,36315,1,2,0:1:0:0:
61,204,36661,5,2,0:1:0:0:
61,204,36776,1,2,0:1:0:0:
61,204,36891,2,0,P|149:184|204:265,1,200,2|10,1:0|1:0,0:0:0:0:
108,294,37584,1,0,0:0:0:0:
320,169,37815,5,2,1:0:0:0:
398,351,38045,1,2,1:0:0:0:
391,301,38161,1,0,1:0:0:0:
384,251,38276,1,10,1:0:0:0:
73,317,38738,6,0,B|40:265|79:214|91:239|131:187|99:135,1,200,2|8,1:0|1:0,0:0:0:0:
193,298,39430,1,2,0:0:0:0:
374,230,39661,6,0,L|274:220,1,100,2|2,1:0|0:0,0:0:0:0:
453,169,40122,1,10,1:1:0:0:
256,93,40353,1,2,0:0:0:0:
76,283,40584,6,0,P|66:240|113:190,1,100,2|0,1:0|0:0,0:0:0:0:
207,163,40930,2,0,P|174:193|107:177,1,100,2|0,1:0|0:0,0:0:0:0:
38,110,41276,1,2,1:0:0:0:
186,25,41507,5,0,1:0:0:0:
185,37,41622,1,0,1:0:0:0:
184,49,41738,1,0,1:0:0:0:
183,61,41853,1,0,1:0:0:0:
182,73,41968,5,2,1:0:0:0:
339,44,42199,1,0,0:0:0:0:
241,170,42430,2,0,P|329:150|384:231,1,200,2|10,1:0|1:0,0:0:0:0:
146,177,43122,1,0,0:0:0:0:
302,280,43353,2,0,P|214:260|159:341,1,200,2|10,1:0|1:0,0:0:0:0:
442,43,44276,22,0,P|452:86|405:136,1,100,2|0,1:0|0:0,0:0:0:0:
311,163,44622,2,0,P|344:133|411:149,1,100,2|0,1:0|0:0,0:0:0:0:
481,217,44968,1,2,1:0:0:0:
481,217,45199,1,0,1:0:0:0:
235,353,45661,5,0,1:0:0:0:
195,348,45776,1,0,0:0:0:0:
155,343,45891,1,0,1:0:0:0:
115,338,46007,1,0,1:0:0:0:
75,333,46122,6,0,P|46:296|50:242,1,100,4|0,0:0|0:0,0:0:0:0:
27,168,46584,2,0,P|73:161|118:191,1,100,2|0,0:0|0:0,0:0:0:0:
194,208,47045,2,0,P|177:251|128:275,1,100,2|0,0:0|0:0,0:0:0:0:
75,333,47507,1,2,0:0:0:0:
75,333,47738,1,0,0:0:0:0:
258,316,47968,5,2,0:0:0:0:
310,375,48199,1,0,0:0:0:0:
382,343,48430,1,2,0:0:0:0:
375,265,48661,1,0,0:0:0:0:
297,247,48891,1,2,0:0:0:0:
433,31,49353,5,2,0:0:0:0:
374,85,49584,1,2,0:0:0:0:
380,124,49699,1,0,0:0:0:0:
386,163,49815,1,2,0:0:0:0:
433,31,50045,1,2,0:0:0:0:
244,87,50276,5,6,0:0:0:0:
386,163,50507,37,2,0:0:0:0:
380,202,50622,1,0,0:0:0:0:
374,241,50738,1,2,0:0:0:0:
328,106,50968,1,2,0:0:0:0:
510,180,51199,5,6,0:0:0:0:
374,241,51430,37,2,0:0:0:0:
380,280,51545,1,0,0:0:0:0:
386,319,51661,1,2,0:0:0:0:
415,177,51891,1,2,0:0:0:0:
275,148,52122,1,2,0:0:0:0:
244,288,52353,1,0,0:0:0:0:
386,319,52584,1,2,0:1:0:0:
112,111,53045,21,2,0:0:0:0:
185,80,53276,1,0,0:0:0:0:
218,101,53391,1,0,0:0:0:0:
257,95,53507,2,0,P|286:132|282:186,1,100,2|0,0:0|0:0,0:0:0:0:
323,252,53968,2,0,P|305:295|256:319,1,100,2|0,0:0|0:0,0:0:0:0:
231,347,54315,21,0,0:0:0:0:
231,347,54430,1,2,0:0:0:0:
183,357,54545,1,0,0:0:0:0:
141,332,54661,1,2,0:0:0:0:
128,285,54776,1,0,0:0:0:0:
151,242,54891,2,0,L|201:246,3,50,2|0|2|0,0:0|0:0|0:0|0:0,0:0:0:0:
228,275,55353,5,2,0:0:0:0:
276,285,55468,1,0,0:0:0:0:
318,260,55584,1,2,0:0:0:0:
331,213,55699,1,0,0:0:0:0:
308,170,55815,2,0,L|258:174,2,50,2|0|2,0:0|0:0|0:0,0:0:0:0:
425,79,56276,21,2,0:0:0:0:
345,72,56507,1,2,0:0:0:0:
265,66,56738,1,2,0:0:0:0:
218,178,56968,2,0,L|268:174,1,50
308,172,57199,5,2,0:0:0:0:
364,293,57430,1,2,0:0:0:0:
370,254,57545,1,0,0:0:0:0:
376,215,57661,1,2,0:0:0:0:
308,172,57891,1,2,0:0:0:0:
221,236,58122,5,2,0:0:0:0:
277,357,58353,1,2,0:0:0:0:
283,318,58468,1,0,0:0:0:0:
289,279,58584,1,2,0:0:0:0:
221,236,58815,1,2,0:0:0:0:
308,172,59045,22,2,P|288:93|115:155,1,300,2|0,0:0|1:0,0:0:0:0:
131,143,60084,1,0,1:0:0:0:
269,340,60430,21,0,1:0:0:0:
309,335,60545,1,0,1:0:0:0:
349,330,60661,1,8,1:3:0:0:
389,325,60776,1,0,1:0:0:0:
429,320,60891,6,0,P|458:283|454:229,1,100,4|2,1:0|0:0,0:0:0:0:
481,135,61353,2,0,P|434:128|389:158,1,100,2|2,1:1|0:0,0:0:0:0:
294,182,61699,1,0,1:0:0:0:
294,182,61815,2,0,P|311:225|360:249,1,100,2|2,1:1|0:0,0:0:0:0:
481,135,62276,1,2,1:0:0:0:
481,135,62507,1,2,0:2:0:0:
342,100,62738,5,2,1:0:0:0:
243,199,62968,1,2,0:0:0:0:
118,136,63199,1,2,1:0:0:0:
138,0,63430,1,2,0:0:0:0:
138,0,63545,1,0,0:0:0:0:
138,0,63661,1,2,1:0:0:0:
11,154,63891,21,2,0:1:0:0:
20,229,64007,1,0,0:0:0:0:
29,304,64122,1,2,1:1:0:0:
301,202,64353,37,2,0:1:0:0:
251,210,64468,1,0,0:0:0:0:
211,179,64584,1,2,1:0:0:0:
303,283,64815,1,2,0:0:0:0:
199,35,65045,5,6,1:0:0:0:
31,186,65276,37,2,0:1:0:0:
71,155,65391,1,0,0:0:0:0:
121,163,65507,1,2,1:0:0:0:
12,101,65738,1,2,0:0:0:0:
97,360,65968,5,6,1:0:0:0:
301,202,66199,37,2,0:1:0:0:
251,210,66315,1,0,0:0:0:0:
211,179,66430,1,2,1:1:0:0:
327,324,66661,1,2,0:1:0:0:
472,208,66891,1,2,1:1:0:0:
356,63,67122,1,2,0:1:0:0:
356,63,67238,1,0,1:0:0:0:
356,63,67353,1,2,1:1:0:0:
98,100,67584,5,2,0:1:0:0:
107,175,67699,1,0,0:0:0:0:
116,250,67815,2,0,L|121:309,1,50,2|0,1:0|1:0,0:0:0:0:
11,359,68045,5,2,1:0:0:0:
11,359,68161,1,0,1:0:0:0:
11,359,68276,2,0,P|16:292|55:267,1,100,2|2,1:0|0:0,0:0:0:0:
158,304,68738,2,0,P|218:275|259:297,1,100,2|2,1:0|0:0,0:0:0:0:
310,335,69084,21,0,0:0:0:0:
310,335,69199,1,2,1:0:0:0:
355,372,69315,1,0,0:0:0:0:
414,375,69430,1,2,0:0:0:0:
462,342,69545,1,0,0:0:0:0:
481,286,69661,2,0,L|477:236,1,50,2|0,1:0|0:0,0:0:0:0:
416,191,69891,2,0,L|420:141,1,50,2|0,0:0|0:0,0:0:0:0:
408,65,70122,5,2,1:0:0:0:
362,27,70238,1,0,0:0:0:0:
303,24,70353,1,2,0:0:0:0:
255,57,70468,1,0,0:0:0:0:
237,114,70584,2,0,L|241:164,1,50,2|0,1:0|0:0,0:0:0:0:
302,209,70815,2,0,L|298:259,1,50,2|0,0:0|0:0,0:0:0:0:
253,322,71045,21,2,1:0:0:0:
34,246,71276,2,0,L|84:242,1,50,2|0,0:1|0:0,0:0:0:0:
159,237,71507,1,2,1:0:0:0:
51,32,71738,2,0,L|47:82,1,50,2|0,0:1|0:0,0:0:0:0:
40,157,71968,5,2,1:0:0:0:
182,327,72199,1,2,0:1:0:0:
190,277,72315,1,0,0:0:0:0:
159,237,72430,1,2,1:0:0:0:
40,157,72661,1,2,0:0:0:0:
251,114,72891,5,2,1:0:0:0:
393,284,73122,1,2,0:1:0:0:
401,234,73238,1,0,0:0:0:0:
370,194,73353,1,2,1:0:0:0:
251,114,73584,1,2,0:0:0:0:
159,237,73815,22,0,L|161:271,5,33.3333333333333,2|0|0|0|0|0,1:0|0:0|0:0|0:0|0:0|0:0,0:0:0:0:
236,288,74276,2,0,L|234:254,5,33.3333333333333,2|0|0|0|0|0,0:0|0:0|0:0|0:0|0:0|0:0,0:0:0:0:
306,213,74738,6,0,B|328:225|328:225|356:224,5,50.0000019073487,8|0|0|0|0|0,1:3|1:0|1:0|1:0|1:0|1:0,0:0:0:0:
350,147,75199,6,0,L|400:156,2,50.0000019073487,2|0|0,1:0|0:0|0:0,0:0:0:0:
249,99,75430,2,2,L|299:90,2,50.0000019073487,2|0|0,0:1|0:0|0:0,0:0:0:0:
154,62,75661,6,0,B|121:114|160:165|172:140|212:192|180:244,1,200,6|8,1:0|1:0,0:0:0:0:
249,98,76353,1,2,0:0:0:0:
60,226,76584,6,0,L|69:326,1,100,2|2,1:0|0:0,0:0:0:0:
47,111,77045,1,10,1:1:0:0:
68,325,77276,1,2,0:0:0:0:
167,180,77507,6,0,P|224:197|281:138,1,150,2|2,1:0|0:1,0:0:0:0:
213,126,77968,1,8,0:1:0:0:
325,252,78199,2,0,L|425:262,1,100,2|0,0:1|0:0,0:0:0:0:
490,69,78661,5,2,0:1:0:0:
441,61,78776,1,2,0:0:0:0:
422,105,78891,1,10,1:0:0:0:
457,136,79007,1,2,0:0:0:0:
498,110,79122,1,2,0:0:0:0:
336,335,79353,5,2,1:0:0:0:
491,305,79584,1,2,0:0:0:0:
336,335,79815,1,10,1:0:0:0:
143,208,80045,5,2,0:1:0:0:
298,238,80276,1,2,1:0:0:0:
298,238,80391,1,2,0:0:0:0:
143,208,80622,1,2,0:1:0:0:
466,51,80968,5,2,0:1:0:0:
466,51,81084,1,2,0:1:0:0:
466,51,81199,2,0,P|378:31|323:112,1,200,2|10,1:0|1:0,0:0:0:0:
419,141,81891,1,2,0:0:0:0:
166,89,82122,5,2,1:0:0:0:
244,271,82353,1,2,1:0:0:0:
237,221,82468,1,0,1:0:0:0:
230,171,82584,1,10,1:0:0:0:
0,366,83045,6,0,B|52:399|103:360|78:348|130:308|182:340,1,200,2|8,1:0|1:0,0:0:0:0:
36,271,83738,1,2,0:0:0:0:
306,332,83968,6,0,L|406:322,1,100,2|2,1:0|0:0,0:0:0:0:
182,340,84430,1,10,1:1:0:0:
405,322,84661,1,2,0:0:0:0:
233,33,84891,6,0,P|192:69|193:121,1,100,2|0,1:0|0:0,0:0:0:0:
250,205,85238,2,0,P|209:169|210:117,1,100,2|0,1:0|0:0,0:0:0:0:
251,35,85584,1,2,1:0:0:0:
407,80,85815,5,0,1:0:0:0:
419,79,85930,1,0,1:0:0:0:
431,78,86045,1,0,1:0:0:0:
443,77,86161,1,0,1:0:0:0:
455,76,86276,5,2,1:0:0:0:
335,181,86507,1,2,0:0:0:0:
213,78,86738,2,0,P|125:58|70:139,1,200,2|10,1:0|1:0,0:0:0:0:
335,181,87430,1,2,0:0:0:0:
100,224,87661,2,0,P|188:244|243:163,1,200,2|10,1:0|1:0,0:0:0:0:
389,374,88584,22,0,P|348:338|349:286,1,100,2|0,1:0|0:0,0:0:0:0:
406,202,88930,2,0,P|365:238|366:290,1,100,2|0,1:0|0:0,0:0:0:0:
407,372,89276,1,2,1:0:0:0:
501,183,89507,6,0,P|470:124|430:117,1,100,0|2,1:0|0:0,0:0:0:0:
449,95,89853,2,0,P|382:92|356:123,1,100,0|2,1:0|0:0,0:0:0:0:
303,66,90199,1,0,1:0:0:0:
262,95,90315,1,0,1:0:0:0:
242,140,90430,1,4,1:0:0:0:
0,84,97815,6,0,B|35:77|35:77|87:134|87:134|122:130,1,150,0|0,1:0|0:0,0:0:0:0:
124,52,98276,2,0,B|159:45|159:45|211:102|211:102|246:98,1,150,12|0,1:0|0:0,0:0:0:0:
407,67,98738,22,0,L|402:122,1,50,0|0,1:0|0:0,0:0:0:0:
330,84,98968,2,0,L|325:139,1,50,2|0,0:0|1:0,0:0:0:0:
380,193,99199,1,8,1:0:0:0:
181,173,99430,1,2,0:1:0:0:
309,227,99661,6,0,L|304:282,1,50,0|0,1:0|0:0,0:0:0:0:
232,244,99891,2,0,L|227:299,1,50,2|0,0:0|0:0,0:0:0:0:
155,260,100122,2,0,L|145:370,1,100,8|0,1:0|0:0,0:0:0:0:
474,286,100584,6,0,B|450:325|450:325|338:343,1,150,0|0,1:0|0:0,0:0:0:0:
304,276,101045,2,0,B|402:260,1,100,8|2,1:0|0:1,0:0:0:0:
329,30,101507,22,0,L|384:35,1,50,0|0,1:0|0:0,0:0:0:0:
346,107,101738,2,0,L|401:112,1,50,2|0,0:0|0:0,0:0:0:0:
362,184,101968,2,0,L|472:194,1,100,8|0,1:0|0:0,0:0:0:0:
271,156,102430,6,0,L|222:161,1,50,0|0,1:0|0:0,0:0:0:0:
205,238,102661,2,0,L|254:233,1,50,2|0,0:0|0:0,0:0:0:0:
291,305,102891,2,0,L|181:315,1,100,8|0,1:0|0:0,0:0:0:0:
62,112,103353,5,0,1:0:0:0:
111,102,103468,1,2,0:1:0:0:
122,150,103584,1,0,0:0:0:0:
73,160,103699,1,2,0:1:0:0:
172,227,103930,5,2,0:1:0:0:
220,216,104045,1,0,0:0:0:0:
210,167,104161,1,2,0:1:0:0:
309,234,104391,37,2,0:1:0:0:
319,283,104507,1,0,0:0:0:0:
271,294,104622,1,2,0:1:0:0:
370,361,104853,5,2,0:1:0:0:
418,350,104968,1,0,0:0:0:0:
408,301,105084,1,2,0:1:0:0:
398,252,105199,38,0,B|364:235|364:235|351:160|351:160|318:145,1,150,0|0,1:0|0:0,0:0:0:0:
286,212,105661,2,0,B|301:310,1,100,8|2,1:0|0:1,0:0:0:0:
131,320,106122,2,0,B|155:359|155:359|267:377,1,150,0|0,1:0|0:0,0:0:0:0:
301,310,106584,2,0,B|203:294,1,100,8|2,1:0|0:1,0:0:0:0:
49,141,107045,5,2,1:1:0:0:
49,141,107161,1,2,0:1:0:0:
166,97,107391,1,2,0:1:0:0:
166,97,107507,2,0,B|138:120|138:120|147:191,1,100,10|2,1:0|0:1,0:0:0:0:
278,223,107968,5,2,1:1:0:0:
157,274,108199,1,2,0:1:0:0:
263,355,108430,1,10,1:1:0:0:
278,223,108661,1,2,0:1:0:0:
430,338,108891,38,0,B|402:315|402:315|411:244,1,100,2|0,0:1|0:0,0:0:0:0:
454,148,109353,2,0,B|496:182|496:182|482:289,1,150,10|2,1:0|0:1,0:0:0:0:
430,338,109815,5,0,1:1:0:0:
454,148,110045,1,2,0:1:0:0:
278,223,110276,1,10,1:0:0:0:
430,338,110507,1,2,0:1:0:0:
295,73,110738,5,0,1:0:0:0:
263,372,110968,1,4,0:3:0:0:
268,322,111084,1,4,0:3:0:0:
273,272,111199,1,4,0:3:0:0:
278,223,111315,1,4,0:3:0:0:
284,173,111430,1,4,0:3:0:0:
289,123,111545,1,4,0:3:0:0:
295,73,111661,1,4,0:3:0:0:
437,171,111891,37,2,0:1:0:0:
403,17,112122,1,10,1:0:0:0:
403,17,112238,1,2,0:1:0:0:
245,288,112584,22,0,P|188:300|132:231,1,150,6|0,1:0|0:0,0:0:0:0:
81,349,113045,2,0,P|69:292|138:236,1,150,8|0,1:0|0:0,0:0:0:0:
19,185,113507,2,0,P|76:173|132:242,1,150,0|0,1:0|0:0,0:0:0:0:
81,349,113968,1,8,1:0:0:0:
81,349,114199,1,2,0:1:0:0:
323,194,114430,5,2,1:0:0:0:
323,194,114545,1,2,0:1:0:0:
228,332,114776,2,0,B|297:310|297:310|362:355,1,150,2|2,0:1|0:1,0:0:0:0:
504,160,115353,37,2,1:0:0:0:
425,237,115584,1,2,0:0:0:0:
323,194,115815,1,8,1:0:0:0:
398,114,116045,1,2,0:1:0:0:
248,126,116276,22,0,P|210:96|135:112,1,100,2|2,1:0|0:0,0:0:0:0:
54,236,116738,2,0,P|120:181|204:210,1,150,2|2,1:0|0:1,0:0:0:0:
221,255,117199,1,0,1:0:0:0:
160,96,117430,1,2,0:1:0:0:
328,123,117661,1,10,1:0:0:0:
221,255,117891,1,2,0:1:0:0:
390,56,118122,21,0,1:0:0:0:
341,46,118238,1,2,0:1:0:0:
330,94,118353,1,0,0:0:0:0:
379,104,118468,1,2,0:1:0:0:
280,171,118699,5,2,0:1:0:0:
232,160,118815,1,0,0:0:0:0:
242,111,118930,1,2,0:1:0:0:
143,178,119161,37,2,0:1:0:0:
133,227,119276,1,0,0:0:0:0:
181,238,119391,1,2,0:1:0:0:
217,271,119507,37,2,0:1:0:0:
240,273,119622,1,2,0:1:0:0:
263,275,119738,1,2,0:1:0:0:
286,277,119853,1,2,0:1:0:0:
309,279,119968,6,0,P|321:222|252:166,1,150,6|0,1:0|0:0,0:0:0:0:
370,115,120430,2,0,P|313:103|257:172,1,150,8|0,1:0|0:0,0:0:0:0:
206,53,120891,2,0,P|194:110|263:166,1,150,0|0,1:0|0:0,0:0:0:0:
370,115,121353,1,8,1:0:0:0:
370,115,121584,1,2,0:1:0:0:
274,364,121815,5,2,1:0:0:0:
274,364,121930,1,2,0:1:0:0:
369,226,122161,2,0,B|306:182|306:182|236:203,1,150,2|2,0:1|0:1,0:0:0:0:
78,363,122738,37,2,1:0:0:0:
1,284,122968,1,2,0:0:0:0:
44,182,123199,1,8,1:0:0:0:
124,257,123430,1,2,0:1:0:0:
355,84,123661,22,0,P|385:122|369:197,1,100,2|2,1:0|0:0,0:0:0:0:
245,278,124122,2,0,P|300:212|271:128,1,150,2|2,1:0|0:1,0:0:0:0:
238,96,124584,1,0,1:0:0:0:
451,47,124815,1,2,0:1:0:0:
388,256,125045,1,10,1:1:0:0:
238,96,125276,1,2,0:1:0:0:
189,357,125507,5,0,1:0:0:0:
141,368,125622,1,0,1:0:0:0:
98,345,125738,1,0,1:1:0:0:
81,300,125853,1,0,1:0:0:0:
98,254,125968,1,0,1:1:0:0:
258,227,126199,1,0,1:0:0:0:
323,80,126430,37,0,1:1:0:0:
370,68,126545,1,0,1:0:0:0:
413,91,126661,1,0,1:1:0:0:
430,136,126776,1,0,1:0:0:0:
413,182,126891,2,0,L|399:231,1,50,0|2,1:0|0:0,0:0:0:0:
432,207,127122,2,0,L|418:256,1,50,2|2,0:0|0:0,0:0:0:0:
392,350,127353,21,4,1:2:0:0:
304,365,127584,1,0,0:0:0:0:
216,380,127815,1,2,0:0:0:0:
194,235,128045,6,0,P|276:203|332:294,1,200,2|0,0:0|0:0,0:0:0:0:
249,298,128738,1,2,0:0:0:0:
279,128,128968,38,0,P|197:96|141:187,1,200,2|0,0:0|0:0,0:0:0:0:
224,191,129661,1,2,0:0:0:0:
193,22,129891,6,0,P|275:-10|331:81,1,200,2|0,0:0|0:0,0:0:0:0:
241,82,130584,1,0,0:0:0:0:
421,58,130815,5,0,0:0:0:0:
380,227,131045,1,2,0:0:0:0:
250,122,131276,5,0,0:0:0:0:
202,107,131391,1,2,0:0:0:0:
155,120,131507,1,2,0:0:0:0:
121,156,131622,1,0,0:0:0:0:
112,205,131738,1,2,0:0:0:0:
129,251,131853,1,0,0:0:0:0:
169,280,131968,1,2,0:0:0:0:
284,228,132199,1,0,0:0:0:0:
200,197,132430,1,2,0:0:0:0:
252,312,132661,1,0,0:0:0:0:
367,197,132891,37,2,0:0:0:0:
252,144,133122,1,0,0:0:0:0:
284,228,133353,1,2,0:0:0:0:
336,113,133584,1,0,0:0:0:0:
168,175,133815,5,2,0:1:0:0:
168,175,134276,1,2,0:1:0:0:
252,144,134507,1,2,0:0:0:0:
88,76,134738,5,4,0:0:0:0:
73,164,134968,1,0,0:0:0:0:
58,252,135199,1,2,0:0:0:0:
228,241,135430,6,0,P|233:188|189:151,2,100,2|0|0,0:0|0:0|0:0,0:0:0:0:
140,219,136122,1,2,0:0:0:0:
316,219,136353,38,0,P|321:272|277:309,2,100,2|0|0,0:0|0:0|0:0,0:0:0:0:
228,241,137045,1,2,0:0:0:0:
404,241,137276,6,0,P|409:188|365:151,1,100,0|0,0:0|0:0,0:0:0:0:
316,219,137738,21,2,0:1:0:0:
347,28,137968,1,2,0:1:0:0:
120,350,138430,5,2,0:0:0:0:
208,365,138661,1,0,0:0:0:0:
296,380,138891,1,2,0:0:0:0:
200,234,139122,6,0,P|237:203|285:210,1,100,2|0,0:0|0:0,0:0:0:0:
263,298,139584,1,0,0:0:0:0:
263,298,139815,1,2,0:0:0:0:
349,147,140045,38,0,P|312:115|264:122,1,100,2|0,0:0|0:0,0:0:0:0:
286,210,140507,1,0,0:0:0:0:
286,210,140738,1,0,0:0:0:0:
200,59,140968,1,2,0:0:0:0:
118,284,141199,37,4,1:3:0:0:
335,338,141430,1,8,1:3:0:0:
285,343,141545,1,4,1:3:0:0:
235,348,141661,1,8,1:3:0:0:
