osu file format v14

[General]
AudioFilename: audio.mp3
AudioLeadIn: 0
PreviewTime: 45661
Countdown: 0
SampleSet: Soft
StackLeniency: 0.7
Mode: 0
LetterboxInBreaks: 0
WidescreenStoryboard: 1

[Editor]
Bookmarks: 1815,16584,31353,46123,60892,75661,90430,97815,112584,127353,142123
DistanceSpacing: 1
BeatDivisor: 4
GridSize: 8
TimelineZoom: 1

[Metadata]
Title:Melody of Heaven (Original Mix)
TitleUnicode:Melody of Heaven (Original Mix)
Artist:IAHN
ArtistUnicode:IAHN
Creator:Sonnyc
Version:Hard
Source:osu!
Tags:instrumental electronic dubstep featured artist mappers' guild
BeatmapID:2129694
BeatmapSetID:1017579

[Difficulty]
HPDrainRate:5
CircleSize:4
OverallDifficulty:6
ApproachRate:7
SliderMultiplier:1.6
SliderTickRate:2

[Events]
//Background and Video events
0,0,"bg.jpg",0,0
//Break Periods
2,90630,96915
//Storyboard Layer 0 (Background)
//Storyboard Layer 1 (Fail)
//Storyboard Layer 2 (Pass)
//Storyboard Layer 3 (Foreground)
//Storyboard Layer 4 (Overlay)
//Storyboard Sound Samples

[TimingPoints]
1815.33459502744,461.538461538462,4,2,1,50,1,0
15661,-100,4,2,1,60,0,0
16584,-100,4,2,1,60,0,0
23969,-100,4,2,1,65,0,0
31353,-100,4,2,1,70,0,0
46123,-100,4,2,1,60,0,0
53507,-100,4,2,1,65,0,0
59046,-100,4,2,1,55,0,0
60892,-100,4,2,1,70,0,0
127353,-100,4,2,1,50,0,0
141199,-100,4,2,1,60,0,0

[Colours]
Combo1 : 244,174,151
Combo2 : 134,188,249
Combo3 : 214,174,247
Combo4 : 238,244,125

[HitObjects]
331,352,1815,6,0,P|306:323|266:317,1,80,4|0,0:0|0:0,0:0:0:0:
206,264,2276,1,2,0:0:0:0:
127,255,2507,2,0,P|161:188|241:192,1,160,2|0,0:0|0:0,0:0:0:0:
301,140,3199,1,2,0:0:0:0:
380,131,3430,2,0,P|346:64|266:68,1,160,2|0,0:0|0:0,0:0:0:0:
204,29,4122,1,2,0:0:0:0:
204,29,4353,1,0,0:0:0:0:
90,315,5276,5,0,0:0:0:0:
60,240,5507,2,0,P|71:162|90:141,1,80,2|2,0:0|0:0,0:0:0:0:
96,131,5853,1,2,0:0:0:0:
131,113,5969,2,0,L|171:117,3,40,2|0|2|0,0:0|0:0|0:0|0:0,0:0:0:0:
207,100,6430,1,2,0:0:0:0:
226,177,6661,1,0,0:0:0:0:
303,158,6892,1,2,0:0:0:0:
284,81,7123,1,0,0:0:0:0:
360,102,7353,5,2,0:0:0:0:
379,25,7584,1,0,0:0:0:0:
456,44,7815,1,2,0:0:0:0:
437,121,8046,1,0,0:0:0:0:
384,181,8276,5,2,0:1:0:0:
384,181,8738,1,2,0:1:0:0:
403,258,8969,1,2,0:0:0:0:
425,334,9199,6,0,P|400:363|360:369,1,80,4|0,0:0|0:0,0:0:0:0:
285,343,9660,1,2,0:0:0:0:
211,374,9892,2,0,P|209:298|277:264,1,160,2|0,0:0|0:0,0:0:0:0:
317,195,10584,1,2,0:0:0:0:
391,227,10816,2,0,P|393:151|325:116,1,160,2|0,0:0|0:0,0:0:0:0:
273,62,11507,1,2,0:0:0:0:
273,62,11738,2,0,L|192:66,1,80
122,23,12199,37,2,0:1:0:0:
104,151,12430,1,2,0:1:0:0:
242,336,12892,22,0,P|267:307|307:301,1,80,2|0,0:0|0:0,0:0:0:0:
367,248,13353,1,2,0:0:0:0:
446,239,13584,2,0,P|412:172|332:176,1,160,2|0,0:0|0:0,0:0:0:0:
272,124,14276,1,2,0:0:0:0:
193,115,14507,2,0,P|227:48|307:52,1,160,2|0,0:0|0:0,0:0:0:0:
272,124,15199,1,0,0:0:0:0:
272,124,15430,1,2,0:0:0:0:
341,159,15661,21,4,1:3:0:0:
397,102,15892,1,8,1:3:0:0:
397,102,16007,1,4,1:3:0:0:
397,102,16123,2,0,L|395:61,2,40,8|4|8,1:3|1:3|1:3,0:0:0:0:
456,155,16584,6,0,L|463:314,1,160,4|2,1:0|0:0,0:0:0:0:
463,314,17161,1,2,0:0:0:0:
353,362,17507,2,0,L|345:202,1,160,0|2,0:0|0:0,0:0:0:0:
185,244,18430,6,0,L|25:236,1,160,0|2,0:0|0:0,0:0:0:0:
25,236,19007,1,2,0:0:0:0:
0,354,19353,1,0,0:0:0:0:
79,357,19584,5,2,0:1:0:0:
159,361,19815,1,2,0:1:0:0:
221,311,20046,1,2,0:1:0:0:
221,311,20161,2,0,L|211:104,1,200,2|2,0:1|0:0,0:0:0:0:
351,33,21199,2,0,L|359:193,1,160,0|2,0:0|0:0,0:0:0:0:
446,327,22123,5,2,1:1:0:0:
326,315,22469,1,2,0:1:0:0:
326,315,22699,1,2,0:1:0:0:
206,303,23046,2,0,B|148:311|148:311|113:292|113:292|52:303,1,160,2|8,0:1|1:1,0:0:0:0:
176,201,23969,6,0,L|169:42,1,160,2|2,0:0|0:0,0:0:0:0:
169,42,24546,1,2,0:0:0:0:
284,73,24892,2,0,L|292:233,1,160,0|2,0:0|0:0,0:0:0:0:
296,312,25584,1,0,0:0:0:0:
223,277,25815,6,0,L|103:271,1,120,2|2,0:0|0:0,0:0:0:0:
30,175,26507,2,0,L|190:167,1,160,2|0,0:0|0:0,0:0:0:0:
269,163,27199,1,2,0:1:0:0:
240,240,27430,5,0,0:0:0:0:
240,240,27546,1,2,0:0:0:0:
240,240,27661,2,0,L|236:319,1,80,2|0,0:0|0:0,0:0:0:0:
315,310,28123,2,0,L|319:231,1,80,2|0,0:0|0:0,0:0:0:0:
398,222,28584,2,0,L|394:301,1,80,2|0,0:0|0:0,0:0:0:0:
389,382,29046,1,2,0:1:0:0:
234,340,29507,6,0,B|190:345|190:345|164:331|164:331|119:337,1,120,2|2,1:1|0:1,0:0:0:0:
49,242,30199,2,0,B|93:247|93:247|119:233|119:233|165:238,1,120,2|2,0:1|0:1,0:0:0:0:
234,144,30892,1,2,0:1:0:0:
206,68,31123,5,2,1:0:0:0:
272,24,31353,2,0,B|313:-2|354:28|334:38|375:70|418:44,1,160,6|8,1:0|1:0,0:0:0:0:
483,90,32046,1,2,0:0:0:0:
436,154,32276,2,0,L|432:233,1,80,2|2,1:0|0:0,0:0:0:0:
476,300,32738,1,10,1:1:0:0:
396,306,32969,1,2,0:0:0:0:
328,271,33199,6,0,P|316:327|359:373,1,120,2|2,1:0|0:1,0:0:0:0:
241,330,33892,2,0,P|185:381|114:353,1,160,2|0,0:1|0:0,0:0:0:0:
170,296,34584,1,8,1:0:0:0:
44,135,35046,5,2,1:0:0:0:
122,122,35276,1,0,0:0:0:0:
200,107,35507,1,10,1:0:0:0:
179,184,35738,1,2,0:1:0:0:
257,166,35969,1,2,1:0:0:0:
257,166,36084,1,0,0:0:0:0:
334,146,36315,1,2,0:1:0:0:
272,350,36661,5,2,0:1:0:0:
272,350,36776,1,2,0:1:0:0:
272,350,36892,2,0,P|237:274|161:297,1,160,2|10,1:0|1:0,0:0:0:0:
115,340,37584,1,0,0:0:0:0:
52,291,37815,1,2,1:0:0:0:
98,230,38046,1,2,1:0:0:0:
91,190,38161,1,0,1:0:0:0:
84,150,38276,1,10,1:0:0:0:
276,335,38738,6,0,B|235:361|194:331|214:321|173:289|130:315,1,160,2|8,1:0|1:0,0:0:0:0:
65,269,39431,1,2,0:0:0:0:
112,205,39661,2,0,L|116:126,1,80,2|2,1:0|0:0,0:0:0:0:
72,59,40123,1,10,1:1:0:0:
152,53,40354,1,2,0:0:0:0:
232,47,40584,5,2,1:0:0:0:
189,192,40930,1,2,1:0:0:0:
232,47,41276,1,2,1:0:0:0:
263,120,41507,2,0,L|304:118,3,40,0|0|0|0,1:0|1:0|1:0|1:0,0:0:0:0:
343,115,41969,5,2,1:0:0:0:
328,193,42199,1,0,0:0:0:0:
249,206,42431,2,0,P|284:282|360:259,1,160,2|10,1:0|1:0,0:0:0:0:
426,255,43123,1,0,0:0:0:0:
405,331,43353,2,0,P|479:335|504:264,1,160,2|10,1:0|1:0,0:0:0:0:
367,113,44276,5,2,1:0:0:0:
512,156,44622,1,2,1:0:0:0:
367,113,44968,1,2,1:0:0:0:
438,76,45199,1,0,1:0:0:0:
331,230,45661,6,0,L|333:271,3,40,0|0|0|0,1:0|0:0|1:0|1:0,0:0:0:0:
356,302,46123,2,0,P|328:331|280:337,1,80,4|0,0:0|0:0,0:0:0:0:
212,359,46584,2,0,P|200:320|219:275,1,80,2|0,0:0|0:0,0:0:0:0:
235,207,47046,2,0,P|274:216|303:255,1,80,2|0,0:0|0:0,0:0:0:0:
356,302,47507,1,2,0:0:0:0:
356,302,47738,1,0,0:0:0:0:
426,264,47969,22,0,L|431:181,1,80,2|0,0:0|0:0,0:0:0:0:
370,131,48430,2,0,L|365:48,1,80,2|0,0:0|0:0,0:0:0:0:
437,15,48892,1,2,0:0:0:0:
273,124,49353,37,2,0:0:0:0:
205,81,49584,2,0,L|164:83,2,40,2|0|2,0:0|0:0|0:0,0:0:0:0:
273,124,50046,1,2,0:0:0:0:
203,162,50276,1,6,0:0:0:0:
271,203,50507,2,0,L|312:205,2,40,2|0|2,0:0|0:0|0:0,0:0:0:0:
203,246,50969,1,2,0:0:0:0:
273,284,51199,1,6,0:0:0:0:
204,325,51430,22,0,L|163:327,2,40,2|0|2,0:0|0:0|0:0,0:0:0:0:
273,284,51892,1,2,0:0:0:0:
255,206,52123,1,2,0:0:0:0:
175,198,52353,1,0,0:0:0:0:
142,271,52584,1,2,0:1:0:0:
47,93,53046,5,2,0:0:0:0:
118,56,53276,1,0,0:0:0:0:
118,56,53392,1,0,0:0:0:0:
118,56,53507,2,0,P|156:64|183:92,1,80,2|0,0:0|0:0,0:0:0:0:
262,108,53969,2,0,P|274:144|263:182,1,80,2|0,0:0|0:0,0:0:0:0:
205,239,54430,22,0,L|206:278,6,40,2|0|2|0|2|0|2,0:0|0:0|0:0|0:0|0:0|0:0|0:0,0:0:0:0:
281,262,55353,2,0,L|282:301,6,40,2|0|2|0|2|0|2,0:0|0:0|0:0|0:0|0:0|0:0|0:0,0:0:0:0:
352,225,56276,1,2,0:0:0:0:
424,258,56507,1,2,0:0:0:0:
461,187,56738,2,0,L|458:107,1,80,2|0,0:0|0:0,0:0:0:0:
379,118,57199,37,2,0:0:0:0:
409,43,57430,2,0,L|407:2,2,40,2|0|2,0:0|0:0|0:0,0:0:0:0:
379,118,57892,1,2,0:0:0:0:
326,57,58122,1,2,0:0:0:0:
296,132,58353,2,0,L|294:173,2,40,2|0|2,0:0|0:0|0:0,0:0:0:0:
244,70,58815,1,2,0:0:0:0:
214,145,59046,22,2,P|143:102|37:274,1,320,2|0,0:0|1:0,0:0:0:0:
152,351,60430,1,0,1:0:0:0:
192,347,60546,1,0,1:0:0:0:
231,343,60661,1,8,1:3:0:0:
299,300,60892,6,0,P|327:329|375:335,1,80,4|2,1:0|0:0,0:0:0:0:
443,357,61353,2,0,P|455:318|436:273,1,80,2|2,1:1|0:0,0:0:0:0:
444,239,61699,1,0,1:0:0:0:
419,204,61815,2,0,P|379:213|349:252,1,80,2|2,1:1|0:0,0:0:0:0:
299,300,62276,1,2,1:0:0:0:
299,300,62507,1,2,0:2:0:0:
225,268,62738,21,2,1:0:0:0:
146,285,62969,1,2,0:0:0:0:
93,226,63199,1,2,1:0:0:0:
172,209,63430,1,2,0:0:0:0:
172,209,63546,1,0,1:0:0:0:
172,209,63661,1,2,1:0:0:0:
146,285,63892,2,0,L|148:326,2,40,2|0|2,0:1|0:0|1:1,0:0:0:0:
225,268,64353,37,2,0:1:0:0:
265,272,64469,1,0,0:0:0:0:
304,276,64584,1,2,1:0:0:0:
376,241,64815,1,2,0:0:0:0:
376,241,65046,1,6,1:0:0:0:
319,184,65276,1,2,0:1:0:0:
279,180,65392,1,0,0:0:0:0:
240,176,65507,1,2,1:0:0:0:
170,211,65738,1,2,0:0:0:0:
170,211,65969,1,6,1:0:0:0:
101,170,66199,22,0,L|60:168,2,40,2|0|2,0:1|0:0|1:1,0:0:0:0:
142,101,66661,1,2,0:1:0:0:
211,142,66892,1,2,1:1:0:0:
170,211,67123,2,0,L|168:252,2,40,2|0|2,0:1|1:0|1:1,0:0:0:0:
211,142,67584,1,2,0:1:0:0:
251,138,67700,1,0,0:0:0:0:
290,134,67815,1,2,1:0:0:0:
339,208,68046,5,2,1:0:0:0:
339,208,68162,1,0,1:0:0:0:
339,208,68277,2,0,P|331:246|303:273,1,80,2|2,1:0|0:0,0:0:0:0:
287,352,68739,2,0,P|251:364|213:353,1,80,2|2,1:0|0:0,0:0:0:0:
184,381,69084,21,0,0:0:0:0:
184,381,69199,2,0,L|145:382,3,40,2|0|2|0,1:0|0:0|0:0|0:0,0:0:0:0:
117,351,69661,2,0,L|78:352,2,40,2|0|2,1:0|0:0|0:0,0:0:0:0:
181,303,70122,2,0,L|220:302,2,40,2|0|2,1:0|0:0|0:0,0:0:0:0:
153,272,70469,1,0,0:0:0:0:
153,272,70584,2,0,L|114:273,2,40,2|0|2,1:0|0:0|0:0,0:0:0:0:
217,224,71046,1,2,1:0:0:0:
146,187,71276,1,2,0:1:0:0:
142,147,71392,1,0,0:0:0:0:
138,108,71507,1,2,1:0:0:0:
217,115,71738,37,2,0:1:0:0:
217,115,71853,1,0,0:0:0:0:
217,115,71969,1,2,1:0:0:0:
187,40,72199,2,0,L|189:-1,2,40,2|0|2,0:1|0:0|1:0,0:0:0:0:
217,115,72662,1,2,0:0:0:0:
270,54,72892,1,2,1:0:0:0:
300,129,73123,2,0,L|302:170,2,40,2|0|2,0:1|0:0|1:0,0:0:0:0:
352,67,73585,1,2,0:0:0:0:
410,121,73815,22,0,P|301:271|132:197,1,400,2|0,1:0|0:0,0:0:0:0:
172,130,75199,5,2,1:0:0:0:
96,105,75430,1,2,0:1:0:0:
56,172,75661,2,0,B|30:213|60:254|70:234|102:275|76:318,1,160,6|8,1:0|1:0,0:0:0:0:
122,383,76353,1,2,0:0:0:0:
186,336,76584,2,0,L|265:332,1,80,2|2,1:0|0:0,0:0:0:0:
332,376,77045,1,10,1:1:0:0:
338,296,77276,1,2,0:0:0:0:
303,228,77506,6,0,P|359:216|405:259,1,120,2|2,1:0|0:1,0:0:0:0:
362,141,78199,2,0,P|413:85|385:14,1,160,2|2,0:1|0:0,0:0:0:0:
328,70,78891,1,8,1:0:0:0:
443,239,79353,5,2,1:0:0:0:
365,226,79583,1,2,0:0:0:0:
287,211,79814,1,10,1:0:0:0:
308,288,80045,1,2,0:1:0:0:
230,270,80276,1,2,1:0:0:0:
230,270,80391,1,2,0:0:0:0:
153,250,80622,1,2,0:1:0:0:
312,137,80968,5,2,0:1:0:0:
312,137,81083,1,2,0:1:0:0:
312,137,81199,2,0,P|388:172|365:248,1,160,2|10,1:0|1:0,0:0:0:0:
322,294,81891,1,2,0:0:0:0:
371,357,82122,1,2,1:0:0:0:
432,311,82353,1,2,1:0:0:0:
472,318,82468,1,0,1:0:0:0:
512,325,82583,1,10,1:0:0:0:
299,211,83045,6,0,B|325:170|295:129|285:149|253:108|279:65,1,160,2|8,1:0|1:0,0:0:0:0:
233,0,83738,1,2,0:0:0:0:
169,47,83969,2,0,L|90:51,1,80,2|2,1:0|0:0,0:0:0:0:
23,7,84430,1,10,1:1:0:0:
17,87,84661,1,2,0:0:0:0:
11,167,84891,5,2,1:0:0:0:
156,124,85237,1,2,1:0:0:0:
11,167,85583,1,2,1:0:0:0:
84,198,85815,2,0,L|82:239,3,40,0|0|0|0,1:0|1:0|1:0|1:0,0:0:0:0:
79,278,86276,5,2,1:0:0:0:
157,263,86506,1,2,0:0:0:0:
170,184,86738,2,0,P|246:219|223:295,1,160,2|10,1:0|1:0,0:0:0:0:
313,304,87430,1,2,0:0:0:0:
389,283,87661,2,0,P|393:357|322:382,1,160,2|10,1:0|1:0,0:0:0:0:
131,312,88583,5,2,1:0:0:0:
174,167,88929,1,2,1:0:0:0:
131,312,89275,1,2,1:0:0:0:
94,241,89506,1,0,1:0:0:0:
94,241,90430,1,4,1:0:0:0:
8,25,97815,6,0,B|46:18|46:18|101:79|101:79|138:74,1,160,0|12,1:0|1:0,0:0:0:0:
67,216,98738,2,0,B|196:196,1,120,0|0,1:0|1:0,0:0:0:0:
224,191,99199,1,8,1:0:0:0:
288,238,99430,1,2,0:1:0:0:
331,170,99661,2,0,B|395:160,3,40,0|0|0|0,1:0|0:0|0:0|0:0,0:0:0:0:
410,158,100123,1,8,1:0:0:0:
486,298,100584,6,0,B|462:337|462:337|350:355,1,160,0|8,1:0|1:0,0:0:0:0:
293,297,101276,1,2,0:1:0:0:
219,327,101507,2,0,B|155:317,3,40,0|0|0|0,1:0|0:0|0:0|0:0,0:0:0:0:
140,315,101969,1,8,1:0:0:0:
174,158,102430,2,0,B|110:168,3,40,0|0|0|0,1:0|0:0|0:0|0:0,0:0:0:0:
95,170,102892,1,8,1:0:0:0:
16,183,103123,1,0,0:0:0:0:
46,106,103353,21,0,1:0:0:0:
46,106,103469,2,0,B|36:42,2,40,2|0|2,0:1|0:0|0:1,0:0:0:0:
120,76,103930,2,0,B|110:12,2,40,2|0|2,0:1|0:0|0:1,0:0:0:0:
187,119,104392,2,0,B|177:183,2,40,2|0|2,0:1|0:0|0:1,0:0:0:0:
261,149,104853,2,0,B|251:213,2,40,2|0|2,0:1|0:0|0:1,0:0:0:0:
292,123,105199,6,0,B|328:140|328:140|341:220|341:220|376:236,1,160,0|8,1:0|1:0,0:0:0:0:
444,279,105892,1,2,0:1:0:0:
374,318,106123,2,0,B|228:251,1,160,0|8,1:0|1:0,0:0:0:0:
153,280,106815,1,2,0:1:0:0:
82,241,107046,5,2,1:1:0:0:
82,241,107161,2,0,B|51:215|51:215|61:136,1,120,2|10,0:1|1:0,0:0:0:0:
70,56,107738,1,2,0:1:0:0:
135,102,107969,2,0,B|214:92,1,80,2|2,1:1|0:1,0:0:0:0:
273,146,108430,2,0,B|352:156,1,80,10|2,1:1|0:1,0:0:0:0:
404,94,108892,6,0,B|446:129|446:129|432:236,1,160,2|10,0:1|1:0,0:0:0:0:
331,297,109699,1,2,0:1:0:0:
331,297,109815,2,0,B|252:287,2,80,0|2|10,1:1|0:1|1:0,0:0:0:0:
384,356,110507,1,2,0:1:0:0:
256,192,110738,12,10,112123,1:0:0:0:
31,77,112584,22,0,P|85:28|175:68,2,160,6|8|0,1:0|1:0|1:0,0:0:0:0:
105,106,113738,1,2,0:0:0:0:
63,174,113969,2,0,L|68:257,1,80,8|2,1:0|0:1,0:0:0:0:
135,297,114430,5,2,1:0:0:0:
135,297,114546,1,2,0:1:0:0:
90,363,114776,2,0,B|152:378|152:378|207:336,1,120,2|2,0:1|0:1,0:0:0:0:
215,265,115353,1,2,1:0:0:0:
153,213,115584,1,2,0:0:0:0:
207,155,115814,1,8,1:0:0:0:
269,207,116045,1,2,0:1:0:0:
285,128,116276,6,0,P|313:99|361:93,1,80,2|2,1:0|0:0,0:0:0:0:
395,24,116738,2,0,P|452:26|485:80,1,120,2|2,1:0|0:1,0:0:0:0:
459,105,117199,1,0,1:0:0:0:
443,183,117430,1,2,0:1:0:0:
501,237,117661,1,10,1:0:0:0:
485,315,117892,1,2,0:1:0:0:
406,301,118123,5,0,1:0:0:0:
406,301,118239,2,0,B|342:291,2,40,2|0|2,0:1|0:0|0:1,0:0:0:0:
376,375,118700,2,0,B|312:365,2,40,2|0|2,0:1|0:0|0:1,0:0:0:0:
289,304,119162,2,0,B|225:314,2,40,2|0|2,0:1|0:0|0:1,0:0:0:0:
275,267,119507,2,0,B|211:277,3,40,2|2|2|2,0:1|0:1|0:1|0:1,0:0:0:0:
202,249,119969,6,0,P|148:298|58:258,2,160,6|8|0,1:0|1:0|1:0,0:0:0:0:
128,220,121123,1,2,0:0:0:0:
170,152,121354,2,0,L|165:69,1,80,8|2,1:0|0:1,0:0:0:0:
245,66,121815,5,2,1:0:0:0:
245,66,121931,1,2,0:1:0:0:
200,0,122161,2,0,B|262:-15|262:-15|317:27,1,120,2|2,0:1|0:1,0:0:0:0:
362,76,122738,1,2,1:0:0:0:
300,128,122969,1,2,0:0:0:0:
354,186,123199,1,8,1:0:0:0:
416,134,123430,1,2,0:1:0:0:
427,213,123661,6,0,P|456:241|462:289,1,80,2|2,1:0|0:0,0:0:0:0:
383,282,124123,2,0,P|381:339|327:372,1,120,2|2,1:0|0:1,0:0:0:0:
302,346,124584,1,0,1:0:0:0:
223,362,124815,1,2,0:1:0:0:
162,309,125046,1,10,1:0:0:0:
83,325,125277,1,2,0:1:0:0:
101,247,125507,5,0,1:0:0:0:
101,247,125623,1,0,1:0:0:0:
101,247,125738,2,0,B|111:183,2,40,0|0|0,1:1|1:0|1:1,0:0:0:0:
25,220,126199,1,0,1:0:0:0:
9,298,126430,2,0,B|-1:362,4,40,0|0|0|0|0,1:1|1:0|1:1|1:0|1:0,0:0:0:0:
181,352,127353,6,0,P|206:323|246:317,1,80,4|0,1:2|0:0,0:0:0:0:
306,264,127814,1,2,0:0:0:0:
385,255,128045,2,0,P|351:188|271:192,1,160,2|0,0:0|0:0,0:0:0:0:
211,140,128737,1,2,0:0:0:0:
132,131,128968,2,0,P|166:64|246:68,1,160,2|0,0:0|0:0,0:0:0:0:
308,29,129660,1,2,0:0:0:0:
308,29,129891,1,0,0:0:0:0:
422,315,130814,5,0,0:0:0:0:
452,240,131046,2,0,P|441:162|422:141,1,80,2|2,0:0|0:0,0:0:0:0:
416,131,131392,1,2,0:0:0:0:
381,113,131507,2,0,L|341:117,3,40,2|0|2|0,0:0|0:0|0:0|0:0,0:0:0:0:
305,100,131968,1,2,0:0:0:0:
286,177,132199,1,0,0:0:0:0:
209,158,132430,1,2,0:0:0:0:
228,81,132661,1,0,0:0:0:0:
152,102,132891,5,2,0:0:0:0:
133,25,133122,1,0,0:0:0:0:
56,44,133353,1,2,0:0:0:0:
75,121,133584,1,0,0:0:0:0:
128,181,133814,5,2,0:1:0:0:
128,181,134276,1,2,0:1:0:0:
109,258,134507,1,2,0:0:0:0:
87,334,134738,6,0,P|112:363|152:369,1,80,4|0,0:0|0:0,0:0:0:0:
227,343,135198,1,2,0:0:0:0:
301,374,135430,2,0,P|303:298|235:264,1,160,2|0,0:0|0:0,0:0:0:0:
195,195,136122,1,2,0:0:0:0:
121,227,136354,2,0,P|119:151|187:116,1,160,2|0,0:0|0:0,0:0:0:0:
240,56,137045,1,2,0:0:0:0:
240,56,137276,2,0,L|321:60,1,80
390,23,137737,37,2,0:1:0:0:
408,151,137968,1,2,0:1:0:0:
270,336,138430,22,0,P|245:307|205:301,1,80,2|0,0:0|0:0,0:0:0:0:
145,248,138891,1,2,0:0:0:0:
66,239,139122,2,0,P|100:172|180:176,1,160,2|0,0:0|0:0,0:0:0:0:
240,124,139814,1,2,0:0:0:0:
319,115,140045,2,0,P|285:48|205:52,1,160,2|0,0:0|0:0,0:0:0:0:
240,124,140737,1,0,0:0:0:0:
240,124,140968,1,2,0:0:0:0:
171,159,141199,21,4,1:3:0:0:
115,102,141430,1,8,1:3:0:0:
119,62,141546,1,4,1:3:0:0:
123,23,141661,1,8,1:3:0:0:
