osu file format v14

[General]
AudioFilename: audio.mp3
AudioLeadIn: 0
PreviewTime: 31353
Countdown: 0
SampleSet: Soft
StackLeniency: 0.7
Mode: 2
LetterboxInBreaks: 0
WidescreenStoryboard: 1

[Editor]
Bookmarks: 1815,31353,60892,90430,112584,142123
DistanceSpacing: 1.1
BeatDivisor: 4
GridSize: 4
TimelineZoom: 0.6999997

[Metadata]
Title:Melody of Heaven (Original Mix)
TitleUnicode:Melody of Heaven (Original Mix)
Artist:IAHN
ArtistUnicode:IAHN
Creator:JBHyperion
Version:Salad
Source:osu!
Tags:JBH Hyperion WildOne94 MBomb Magic Bomb Imai Lisa Xetopia Nelly Lacrima Myle AJamez Jemzuu JeirYagtama Crowley Bunnrei Sinnoh CMWC Catch Mapping World Cup group stage featured artist Mappers Guild Fruit Factory electronic piano instrumental dubstep glitch hop
BeatmapID:2144402
BeatmapSetID:1025255

[Difficulty]
HPDrainRate:4
CircleSize:2.5
OverallDifficulty:7
ApproachRate:7
SliderMultiplier:1.5
SliderTickRate:1

[Events]
//Background and Video events
0,0,"nonanimebackground.jpg",0,0
//Break Periods
2,90630,93222
//Storyboard Layer 0 (Background)
//Storyboard Layer 1 (Fail)
//Storyboard Layer 2 (Pass)
//Storyboard Layer 3 (Foreground)
//Storyboard Layer 4 (Overlay)
//Storyboard Sound Samples

[TimingPoints]
1815,461.538461538462,4,2,1,65,1,0
2046,-100,4,2,1,80,0,0
4046,-100,4,2,1,65,0,0
4354,-100,4,2,1,80,0,0
4507,-100,4,2,1,65,0,0
6430,-100,4,2,1,80,0,0
7276,-100,4,2,1,65,0,0
7584,-100,4,2,1,80,0,0
8276,-100,4,2,77,65,0,0
8738,-80,4,2,1,80,0,0
9199,-100,4,2,1,70,0,0
9430,-100,4,2,1,85,0,0
11430,-100,4,2,1,70,0,0
11738,-100,4,2,1,85,0,0
12199,-100,4,2,77,70,0,0
12892,-100,4,2,1,100,0,0
15661,-100,4,3,1,60,0,0
16123,-100,4,3,1,75,0,0
16584,-100,4,2,99,75,0,0
16815,-100,4,2,1,80,0,0
17507,-100,4,2,1,60,0,0
17738,-100,4,2,1,80,0,0
18353,-100,4,2,1,60,0,0
18661,-100,4,2,1,80,0,0
19276,-100,4,2,1,60,0,0
19584,-100,4,2,1,80,0,0
21123,-100,4,2,1,60,0,0
21430,-100,4,2,1,80,0,0
22123,-100,4,2,1,100,0,0
23507,-80,4,3,2,100,0,0
23738,-100,4,2,1,100,0,0
23969,-100,4,2,2,75,0,0
28584,-100,4,2,2,80,0,0
29046,-100,4,2,2,85,0,0
29507,-100,4,2,2,75,0,0
30892,-100,4,3,2,100,0,0
31123,-100,4,2,2,80,0,0
31353,-100,4,2,3,100,0,1
34353,-100,4,2,1,100,0,1
34584,-100,4,2,3,100,0,1
36084,-100,4,2,1,100,0,1
36430,-100,4,2,3,100,0,1
36546,-100,4,2,1,80,0,1
36892,-100,4,2,3,100,0,1
37584,-100,4,2,1,100,0,1
37815,-100,4,2,3,100,0,1
40584,-80,4,2,3,80,0,0
41276,-100,4,2,3,80,0,1
41507,-100,4,2,3,40,0,1
41738,-100,4,2,3,60,0,1
41969,-100,4,2,3,80,0,1
42430,-100,4,2,3,100,0,1
44276,-100,4,2,3,80,0,1
45430,-100,4,2,3,60,0,1
45892,-100,4,2,3,70,0,1
46123,-100,4,2,1,75,0,1
46353,-100,4,2,1,80,0,0
53046,-100,4,2,77,60,0,0
53276,-100,4,2,77,80,0,0
53507,-100,4,2,2,80,0,0
59969,-100,4,3,1,65,0,0
60661,-100,4,2,3,80,0,0
61123,-100,4,2,2,80,0,0
65046,-100,4,2,2,100,0,0
65276,-100,4,2,2,80,0,0
65969,-100,4,2,2,100,0,0
66430,-100,4,2,2,80,0,0
74276,-100,4,2,2,40,0,0
74507,-100,4,2,2,45,0,0
74738,-100,4,2,2,50,0,0
74968,-100,4,2,2,55,0,0
75199,-100,4,2,2,60,0,0
75661,-80,4,2,3,100,0,1
76122,-100,4,2,3,100,0,1
77853,-100,4,2,1,100,0,1
77969,-100,4,2,3,100,0,1
80969,-100,4,2,1,100,0,1
81199,-100,4,2,3,100,0,1
81892,-100,4,2,1,100,0,1
82123,-100,4,2,3,100,0,1
84891,-100,4,2,3,80,0,0
85584,-100,4,2,3,80,0,1
85815,-100,4,2,3,40,0,1
86046,-100,4,2,3,60,0,1
86276,-100,4,2,3,80,0,1
86738,-100,4,2,3,100,0,1
88584,-100,4,2,3,80,0,1
89738,-100,4,2,3,60,0,1
90199,-100,4,2,3,70,0,1
90430,-100,4,2,2,75,0,0
94122,-100,4,2,2,40,0,0
94584,-100,4,2,2,45,0,0
95045,-100,4,2,2,50,0,0
95507,-100,4,2,2,55,0,0
95968,-100,4,2,2,60,0,0
96430,-100,4,2,2,65,0,0
96891,-100,4,2,2,70,0,0
97815,-100,4,2,2,80,0,0
101276,-100,4,2,99,100,0,0
101392,-100,4,2,2,80,0,0
105892,-66.6666666666667,4,2,99,100,0,0
106007,-100,4,2,2,80,0,0
106815,-100,4,2,2,100,0,0
107046,-100,4,2,2,80,0,0
107276,-100,4,2,2,100,0,0
107507,-100,4,2,2,80,0,0
109123,-100,4,2,2,100,0,0
109353,-100,4,2,2,80,0,0
111892,-100,4,2,2,90,0,0
112584,-100,4,2,3,100,0,1
116276,-100,4,2,3,100,0,1
117430,-100,4,2,1,100,0,1
117661,-100,4,2,3,100,0,1
119623,-100,4,2,1,100,0,1
119969,-100,4,2,3,100,0,1
120199,-100,4,2,3,100,0,1
121584,-100,4,2,1,100,0,1
121815,-100,4,2,3,100,0,1
124815,-100,4,2,1,100,0,1
125046,-100,4,2,3,100,0,1
125276,-100,4,2,1,100,0,1
125507,-100,4,2,3,100,0,1
127353,-100,4,2,3,80,0,0
127584,-100,4,2,1,60,0,0
129892,-100,4,2,77,70,0,0
130123,-100,4,2,1,60,0,0
133815,-100,4,2,77,65,0,0
134046,-100,4,2,1,60,0,0
134738,-100,4,2,1,70,0,0
134969,-100,4,2,1,85,0,0
136969,-100,4,2,1,70,0,0
137276,-100,4,2,1,85,0,0
137738,-100,4,2,77,70,0,0
137969,-100,4,2,1,85,0,0
141199,-100,4,3,1,60,0,0
141661,-100,4,2,77,60,0,0

[Colours]
Combo1 : 50,255,50
Combo2 : 25,175,255
Combo3 : 255,125,25
Combo4 : 255,255,25

[HitObjects]
264,196,1815,6,0,L|268:108,1,75,4|0,0:0|0:0,0:0:0:0:
164,124,2276,2,0,L|160:44,1,75,8|2,0:0|0:0,0:0:0:0:
356,52,2968,1,2,0:0:0:0:
264,52,3199,1,8,0:0:0:0:
172,52,3430,1,2,0:0:0:0:
20,160,3891,6,0,L|96:160,2,75,2|8|2,0:0|0:0|0:0,0:0:0:0:
172,160,4815,2,0,L|176:252,1,75,2|8,0:0|0:0,0:0:0:0:
84,236,5276,1,2,0:0:0:0:
296,232,5507,5,2,0:0:0:0:
380,232,5738,1,2,0:0:0:0:
380,316,5968,1,8,0:0:0:0:
296,316,6199,1,2,0:0:0:0:
204,316,6430,1,2,0:0:0:0:
368,316,6891,2,0,L|448:316,2,75,8|2|2,0:0|0:0|0:0,0:0:0:0:
156,316,7815,5,8,0:0:0:0:
500,316,8276,1,4,0:0:0:0:
324,316,8738,2,0,L|228:316,1,93.75,8|2,0:0|0:0,0:0:0:0:
16,316,9199,6,0,L|12:232,1,75,4|0,0:0|0:0,0:0:0:0:
112,316,9661,2,0,L|192:316,1,75,8|2,0:0|0:0,0:0:0:0:
340,316,10353,1,0,0:0:0:0:
416,316,10584,2,0,L|420:232,1,75,8|2,0:0|0:0,0:0:0:0:
248,244,11276,6,0,L|344:244,1,75,2|8,0:0|0:0,0:0:0:0:
411,241,11738,1,2,0:0:0:0:
52,240,12199,2,0,P|20:180|52:108,1,150,4|2,0:0|0:0,0:0:0:0:
268,108,12891,6,0,L|356:108,1,75,2|2,0:0|0:0,0:0:0:0:
228,108,13353,2,0,L|144:108,1,75,8|2,0:0|0:0,0:0:0:0:
328,108,14045,2,0,L|340:184,2,75,2|8|2,0:0|0:0|0:0,0:0:0:0:
124,108,14968,5,2,0:0:0:0:
32,108,15199,1,8,0:0:0:0:
124,108,15430,1,2,0:0:0:0:
336,108,15661,1,2,0:0:0:0:
248,108,15891,1,8,0:0:0:0:
344,108,16122,2,0,L|428:108,1,75,8|8,0:0|0:0,0:0:0:0:
208,108,16584,5,6,0:0:0:0:
72,108,17045,2,0,L|68:160,1,37.5,8|0,0:0|0:0,0:0:0:0:
216,192,17507,2,0,L|292:192,2,75,2|2|8,0:0|0:0|0:0,0:0:0:0:
60,192,18430,6,0,L|56:272,1,75,2|2,0:0|0:0,0:0:0:0:
156,268,18891,2,0,L|160:316,1,37.5,8|0,0:0|0:0,0:0:0:0:
36,268,19353,1,2,0:0:0:0:
140,268,19584,1,2,0:0:0:0:
244,268,19815,1,8,0:0:0:0:
140,268,20045,1,2,0:0:0:0:
352,268,20276,6,0,L|356:116,1,150,2|8,0:0|0:0,0:0:0:0:
196,24,21199,1,2,0:0:0:0:
112,24,21430,1,2,0:0:0:0:
28,24,21661,1,8,0:0:0:0:
376,24,22122,6,0,L|500:24,1,112.5,2|2,0:0|0:0,0:0:0:0:
392,24,22699,1,8,0:0:0:0:
111,23,23045,2,0,L|107:103,1,75,8|2,0:0|0:0,0:0:0:0:
216,100,23507,2,0,L|312:100,1,93.75,0|0,0:0|0:0,0:0:0:0:
97,98,23968,6,0,L|93:190,1,75,8|2,0:0|0:0,0:0:0:0:
193,192,24430,2,0,L|197:240,1,37.5,8|2,0:0|0:0,0:0:0:0:
333,228,24891,2,0,L|413:228,1,75,8|2,0:0|0:0,0:0:0:0:
491,140,25353,2,0,L|411:140,1,75,8|2,0:0|0:0,0:0:0:0:
325,140,25815,5,8,0:0:0:0:
497,140,26276,1,8,0:0:0:0:
309,140,26738,2,0,L|225:140,1,75,8|2,0:0|0:0,0:0:0:0:
333,140,27199,2,0,L|337:64,1,75,10|2,0:0|0:0,0:0:0:0:
132,68,27661,6,0,B|56:68|56:68|56:144,1,150,10|8,0:0|0:0,0:0:0:0:
151,192,28353,1,2,0:0:0:0:
247,192,28584,2,0,L|251:268,1,75,8|2,0:0|0:0,0:0:0:0:
139,268,29045,2,0,L|59:268,1,75,8|0,0:0|0:0,0:0:0:0:
280,268,29507,6,0,L|284:380,1,112.5,8|8,0:0|0:0,0:0:0:0:
145,384,30199,2,0,L|277:384,1,112.5,2|2,0:0|0:0,0:0:0:0:
113,384,30891,2,0,L|33:384,1,75,8|8,0:0|0:0,0:0:0:0:
248,384,31353,6,0,L|404:384,1,150,6|8,0:0|0:0,0:0:0:0:
300,384,32045,1,0,0:0:0:0:
88,384,32276,2,0,L|84:296,1,75,2|0,0:0|0:0,0:0:0:0:
192,308,32738,2,0,L|268:308,1,75,8|0,0:0|0:0,0:0:0:0:
56,308,33199,6,0,P|12:256|56:200,1,150,2|8,0:0|0:0,0:0:0:0:
160,200,33891,1,0,0:0:0:0:
264,200,34122,2,0,L|268:124,1,75,2|2,0:0|0:0,0:0:0:0:
164,124,34584,2,0,L|76:124,1,75,8|0,0:0|0:0,0:0:0:0:
304,32,35045,6,0,L|379:32,2,75,2|0|8,0:0|0:0|0:0,0:0:0:0:
199,31,35738,1,0,0:0:0:0:
304,32,35968,2,0,L|308:80,1,37.5,2|2,0:0|0:0,0:0:0:0:
176,32,36430,2,0,L|172:112,1,75,8|2,0:0|0:0,0:0:0:0:
384,108,36891,6,0,B|460:108|460:108|460:184,1,150,2|8,0:0|0:0,0:0:0:0:
356,192,37584,1,2,0:0:0:0:
252,192,37815,1,2,0:0:0:0:
348,192,38045,1,2,0:0:0:0:
244,192,38276,2,0,L|164:192,1,75,8|0,0:0|0:0,0:0:0:0:
380,192,38738,6,0,L|384:344,1,150,2|8,0:0|0:0,0:0:0:0:
288,344,39430,1,2,0:0:0:0:
192,344,39661,2,0,L|188:256,1,75,2|0,0:0|0:0,0:0:0:0:
292,268,40122,2,0,L|372:268,1,75,8|2,0:0|0:0,0:0:0:0:
152,268,40584,6,0,L|12:244,1,140.625,2|2,0:0|0:0,0:0:0:0:
308,268,41276,2,0,P|356:216|308:176,1,150,12|2,0:0|0:0,0:0:0:0:
100,176,41968,2,0,L|12:176,1,75,8|0,0:0|0:0,0:0:0:0:
240,84,42430,6,0,L|392:84,1,150,2|8,0:0|0:0,0:0:0:0:
292,84,43122,1,0,0:0:0:0:
408,84,43353,2,0,L|412:8,1,75,2|0,0:0|0:0,0:0:0:0:
200,12,43815,2,0,L|112:12,1,75,8|0,0:0|0:0,0:0:0:0:
336,104,44276,6,0,L|452:104,2,112.5,2|8|8,0:0|0:0|0:0,0:0:0:0:
232,104,45199,1,2,0:0:0:0:
412,104,45661,2,0,L|420:184,1,75,8|8,0:0|0:0,0:0:0:0:
204,180,46122,6,0,P|164:240|200:304,1,150,4|8,0:0|0:0,0:0:0:0:
304,304,46815,1,2,0:0:0:0:
208,304,47045,1,2,0:0:0:0:
28,304,47507,2,0,L|112:304,1,75,8|2,0:0|0:0,0:0:0:0:
200,304,47968,6,0,L|204:212,1,75,2|2,0:0|0:0,0:0:0:0:
105,228,48430,1,8,0:0:0:0:
216,228,48661,1,2,0:0:0:0:
420,224,48891,2,0,L|508:224,2,75,2|0|8,0:0|0:0|0:0,0:0:0:0:
316,224,49584,1,2,0:0:0:0:
412,224,49815,6,0,L|416:136,1,75,2|2,0:0|0:0,0:0:0:0:
204,152,50276,1,8,0:0:0:0:
368,152,50738,2,0,L|288:152,1,75,2|2,0:0|0:0,0:0:0:0:
496,152,51199,1,8,0:0:0:0:
400,152,51430,1,2,0:0:0:0:
188,152,51661,5,2,0:0:0:0:
100,152,51891,1,2,0:0:0:0:
100,60,52122,1,8,0:0:0:0:
188,60,52353,1,2,0:0:0:0:
84,60,52584,1,0,0:0:0:0:
424,60,53045,2,0,L|428:156,1,75,4|0,0:0|0:0,0:0:0:0:
216,136,53507,5,8,0:0:0:0:
52,192,53968,2,0,L|144:192,1,75,8|2,0:0|0:0,0:0:0:0:
248,192,54430,2,0,L|252:272,1,75,8|2,0:0|0:0,0:0:0:0:
132,268,54891,2,0,L|216:268,1,75,8|2,0:0|0:0,0:0:0:0:
424,268,55353,5,8,0:0:0:0:
508,268,55584,1,2,0:0:0:0:
508,352,55815,1,8,0:0:0:0:
424,352,56045,1,2,0:0:0:0:
312,352,56276,1,8,0:0:0:0:
404,352,56507,1,2,0:0:0:0:
496,352,56738,1,8,0:0:0:0:
136,352,57199,5,8,0:0:0:0:
284,272,57661,2,0,L|368:272,2,75,8|2|8,0:0|0:0|0:0,0:0:0:0:
432,192,58584,2,0,L|508:192,1,75,8|2,0:0|0:0,0:0:0:0:
296,192,59045,5,8,0:0:0:0:
128,192,59968,2,0,L|128:152,1,37.5,2|8,0:0|0:0,0:0:0:0:
276,152,60430,1,8,0:0:0:0:
328,152,60545,1,2,0:0:0:0:
276,152,60661,1,8,0:0:0:0:
64,152,60891,6,0,P|24:208|64:272,1,150,6|8,0:0|0:0,0:0:0:0:
220,268,61699,2,0,L|224:216,1,37.5,8|8,0:0|0:0,0:0:0:0:
404,192,62276,2,0,L|320:192,1,75,8|2,0:0|0:0,0:0:0:0:
116,192,62738,5,8,0:0:0:0:
28,192,62968,1,2,0:0:0:0:
28,100,63199,1,8,0:0:0:0:
124,100,63430,1,2,0:0:0:0:
220,100,63661,1,8,0:0:0:0:
40,100,64122,2,0,L|36:-4,1,75,8|2,0:0|0:0,0:0:0:0:
136,24,64584,6,0,L|44:24,1,75,8|2,0:0|0:0,0:0:0:0:
272,24,65045,1,12,0:0:0:0:
120,24,65507,1,8,0:0:0:0:
212,24,65738,1,2,0:0:0:0:
424,24,65968,1,12,0:0:0:0:
324,24,66199,1,2,0:0:0:0:
112,24,66430,6,0,L|108:112,1,75,8|2,0:0|0:0,0:0:0:0:
208,120,66891,2,0,L|284:120,1,75,8|10,0:0|0:0,0:0:0:0:
184,120,67353,1,8,0:0:0:0:
276,120,67584,1,2,0:0:0:0:
64,120,67815,2,0,L|60:168,1,37.5,8|8,0:0|0:0,0:0:0:0:
348,192,68276,5,12,0:0:0:0:
184,192,68738,2,0,L|180:280,1,75,8|2,0:0|0:0,0:0:0:0:
392,268,69199,1,8,0:0:0:0:
476,268,69430,1,2,0:0:0:0:
476,184,69661,1,8,0:0:0:0:
392,184,69891,1,2,0:0:0:0:
180,184,70122,6,0,L|176:96,1,75,8|2,0:0|0:0,0:0:0:0:
280,188,70584,2,0,L|284:108,1,75,8|2,0:0|0:0,0:0:0:0:
164,108,71045,2,0,L|88:108,2,75,8|2|8,0:0|0:0|0:0,0:0:0:0:
344,104,71968,6,0,L|420:104,2,75,8|2|8,0:0|0:0|0:0,0:0:0:0:
164,108,72891,2,0,L|240:108,1,75,8|2,0:0|0:0,0:0:0:0:
332,20,73353,2,0,L|252:20,1,75,8|2,0:0|0:0,0:0:0:0:
44,20,73815,5,8,0:0:0:0:
256,192,74276,12,8,75199,0:0:0:0:
244,192,75661,6,0,P|304:132|244:72,1,187.5,6|8,0:0|0:0,0:0:0:0:
132,72,76353,1,0,0:0:0:0:
340,72,76584,2,0,L|424:72,1,75,2|0,0:0|0:0,0:0:0:0:
296,164,77045,2,0,L|216:164,1,75,8|0,0:0|0:0,0:0:0:0:
432,164,77507,6,0,P|492:200|500:256,2,112.5,2|2|0,0:0|0:0|0:0,0:0:0:0:
312,164,78430,2,0,L|308:248,1,75,2|2,0:0|0:0,0:0:0:0:
428,240,78891,2,0,L|432:320,1,75,8|2,0:0|0:0,0:0:0:0:
220,312,79353,6,0,L|212:232,1,75,2|0,0:0|0:0,0:0:0:0:
332,240,79815,2,0,L|416:240,1,75,8|0,0:0|0:0,0:0:0:0:
296,240,80276,2,0,L|248:240,1,37.5,2|2,0:0|0:0,0:0:0:0:
116,240,80738,1,8,0:0:0:0:
228,240,80968,1,2,0:0:0:0:
440,240,81199,6,0,P|488:192|440:140,1,150,2|8,0:0|0:0,0:0:0:0:
340,140,81891,1,2,0:0:0:0:
128,140,82122,2,0,L|52:140,2,75,2|2|8,0:0|0:0|0:0,0:0:0:0:
488,140,83045,6,0,B|488:64|488:64|420:24,1,150,2|8,0:0|0:0,0:0:0:0:
320,24,83738,1,0,0:0:0:0:
108,24,83968,2,0,L|104:112,1,75,2|0,0:0|0:0,0:0:0:0:
212,100,84430,2,0,L|300:100,1,75,8|0,0:0|0:0,0:0:0:0:
72,100,84891,6,0,L|68:228,1,112.5,2|2,0:0|0:0,0:0:0:0:
360,212,85584,2,0,L|208:212,1,150,12|2,0:0|0:0,0:0:0:0:
96,212,86276,2,0,L|180:212,1,75,8|0,0:0|0:0,0:0:0:0:
384,212,86738,6,0,P|436:256|384:296,1,150,2|8,0:0|0:0,0:0:0:0:
280,296,87430,1,0,0:0:0:0:
384,296,87661,1,2,0:0:0:0:
32,296,88122,2,0,L|28:204,1,75,8|0,0:0|0:0,0:0:0:0:
248,192,88584,6,0,L|368:192,2,112.5,2|8|8,0:0|0:0|0:0,0:0:0:0:
136,192,89507,2,0,L|248:192,1,112.5,8|8,0:0|0:0,0:0:0:0:
384,192,90199,1,8,0:0:0:0:
168,192,90430,5,12,0:0:0:0:
256,192,94122,12,6,96891,0:0:0:0:
380,192,97815,6,0,L|384:112,1,75,8|0,0:0|0:0,0:0:0:0:
168,120,98276,2,0,L|164:40,1,75,12|0,0:0|0:0,0:0:0:0:
268,44,98738,2,0,L|352:44,2,75,8|2|8,0:0|0:0|0:0,0:0:0:0:
480,44,99430,5,2,0:0:0:0:
376,44,99661,2,0,L|296:44,2,75,8|2|8,0:0|0:0|0:0,0:0:0:0:
16,44,100584,2,0,L|12:128,1,75,8|0,0:0|0:0,0:0:0:0:
124,120,101045,2,0,L|40:120,1,75,8|8,0:0|0:0,0:0:0:0:
260,120,101507,6,0,L|320:120,2,37.5,8|2|2,0:0|0:0|0:0,0:0:0:0:
148,120,101968,2,0,L|72:120,1,75,8|0,0:0|0:0,0:0:0:0:
284,208,102430,2,0,L|372:208,1,75,8|2,0:0|0:0,0:0:0:0:
252,208,102891,2,0,L|248:288,1,75,8|0,0:0|0:0,0:0:0:0:
460,284,103353,5,8,0:0:0:0:
488,192,103584,1,2,0:0:0:0:
432,112,103815,1,8,0:0:0:0:
336,112,104045,1,2,0:0:0:0:
440,112,104276,2,0,L|444:32,1,75,8|8,0:0|0:0,0:0:0:0:
340,36,104738,2,0,L|256:36,1,75,8|8,0:0|0:0,0:0:0:0:
52,36,105199,6,0,L|132:36,1,75,8|0,0:0|0:0,0:0:0:0:
224,36,105661,1,8,0:0:0:0:
112,36,105891,1,8,0:0:0:0:
224,36,106122,2,0,L|380:36,1,150,8|8,0:0|0:0,0:0:0:0:
472,36,106815,1,2,0:0:0:0:
260,124,107045,6,0,L|184:124,2,75,8|2|8,0:0|0:0|0:0,0:0:0:0:
360,124,107738,1,0,0:0:0:0:
248,124,107968,2,0,L|244:204,1,75,8|2,0:0|0:0,0:0:0:0:
356,196,108430,2,0,L|360:276,1,75,8|0,0:0|0:0,0:0:0:0:
148,268,108891,6,0,B|72:268|72:268|72:344,1,150,8|8,0:0|0:0,0:0:0:0:
184,340,109584,1,8,0:0:0:0:
234,340,109699,1,8,0:0:0:0:
284,340,109815,2,0,L|288:256,1,75,8|2,0:0|0:0,0:0:0:0:
76,268,110276,2,0,L|152:268,1,75,8|2,0:0|0:0,0:0:0:0:
264,268,110738,5,8,0:0:0:0:
404,192,111084,1,2,0:0:0:0:
360,192,111199,2,0,L|284:192,2,75,8|8|8,0:0|0:0|0:0,0:0:0:0:
16,192,112122,2,0,L|12:148,1,37.5,8|2,0:0|0:0,0:0:0:0:
320,152,112584,6,0,L|476:152,2,150,6|8|2,0:0|0:0|0:0,0:0:0:0:
216,152,113738,1,0,0:0:0:0:
336,152,113968,2,0,L|340:64,1,75,8|2,0:0|0:0,0:0:0:0:
112,76,114430,6,0,L|68:76,2,37.5,2|0|2,0:0|0:0|0:0,0:0:0:0:
324,76,114891,2,0,L|328:180,1,75,8|0,0:0|0:0,0:0:0:0:
206,148,115353,2,0,L|286:148,1,75,2|2,0:0|0:0,0:0:0:0:
401,150,115815,2,0,L|309:150,1,75,8|0,0:0|0:0,0:0:0:0:
100,152,116276,6,0,B|24:152|24:152|104:152,1,150,2|8,0:0|0:0,0:0:0:0:
256,152,117084,1,0,0:0:0:0:
204,152,117199,2,0,L|128:152,1,75,2|2,0:0|0:0,0:0:0:0:
244,236,117661,2,0,L|320:236,1,75,8|0,0:0|0:0,0:0:0:0:
104,236,118122,5,2,0:0:0:0:
8,232,118353,1,2,0:0:0:0:
8,328,118584,1,8,0:0:0:0:
104,328,118815,1,2,0:0:0:0:
224,328,119045,2,0,L|132:328,1,75,2|2,0:0|0:0,0:0:0:0:
268,328,119507,2,0,L|312:328,2,37.5,8|2|2,0:0|0:0|0:0,0:0:0:0:
40,224,119968,6,0,L|188:192,2,150,2|8|2,0:0|0:0|0:0,0:0:0:0:
144,224,121122,1,2,0:0:0:0:
248,224,121353,1,8,0:0:0:0:
128,224,121584,1,2,0:0:0:0:
356,224,121815,6,0,L|400:224,2,37.5,2|0|2,0:0|0:0|0:0,0:0:0:0:
144,224,122276,1,8,0:0:0:0:
248,224,122507,1,0,0:0:0:0:
128,224,122738,2,0,L|126:128,1,75,2|0,0:0|0:0,0:0:0:0:
240,148,123200,2,0,L|148:148,1,75,8|0,0:0|0:0,0:0:0:0:
392,148,123661,6,0,B|468:148|468:148|388:148,1,150,2|8,0:0|0:0,0:0:0:0:
212,148,124469,1,2,0:0:0:0:
272,148,124584,2,0,L|348:148,1,75,2|2,0:0|0:0,0:0:0:0:
120,148,125046,2,0,L|44:148,1,75,8|2,0:0|0:0,0:0:0:0:
260,148,125507,6,0,L|264:64,1,75,2|8,0:0|0:0,0:0:0:0:
144,76,125968,2,0,L|228:76,2,75,2|0|8,0:0|0:0|0:0,0:0:0:0:
496,76,126891,1,8,0:0:0:0:
497,132,127006,1,8,0:0:0:0:
499,188,127121,1,8,0:0:0:0:
272,188,127353,5,6,0:0:0:0:
176,188,127584,1,0,0:0:0:0:
176,284,127815,1,2,0:0:0:0:
272,284,128045,1,0,0:0:0:0:
92,284,128507,2,0,L|16:284,2,75,0|2|0,0:0|0:0|0:0,0:0:0:0:
288,284,129430,6,0,L|372:284,2,75,0|2|4,0:0|0:0|0:0,0:0:0:0:
468,284,130353,2,0,L|472:192,1,75,0|2,0:0|0:0,0:0:0:0:
380,208,130814,1,0,0:0:0:0:
168,208,131045,5,2,0:0:0:0:
272,208,131276,1,0,0:0:0:0:
152,208,131507,2,0,L|112:192,2,37.5,2|0|0,0:0|0:0|0:0,0:0:0:0:
256,208,131968,2,0,L|332:208,1,75,2|0,0:0|0:0,0:0:0:0:
428,124,132430,2,0,L|352:124,1,75,2|0,0:0|0:0,0:0:0:0:
248,124,132891,6,0,L|332:124,2,75,2|0|2,0:0|0:0|0:0,0:0:0:0:
156,124,133584,1,0,0:0:0:0:
372,124,133814,1,4,0:0:0:0:
220,124,134276,2,0,L|216:216,1,75,2|0,0:0|0:0,0:0:0:0:
432,126,134738,6,0,L|508:126,2,75,4|0|8,0:0|0:0|0:0,0:0:0:0:
336,128,135430,1,2,0:0:0:0:
148,192,135891,1,2,0:0:0:0:
244,192,136122,1,8,0:0:0:0:
340,192,136353,1,2,0:0:0:0:
152,288,136815,6,0,L|236:288,1,75,2|8,0:0|0:0,0:0:0:0:
136,288,137276,1,2,0:0:0:0:
496,288,137738,2,0,L|420:288,2,75,4|8|2,0:0|0:0|0:0,0:0:0:0:
392,288,138430,5,2,0:0:0:0:
300,288,138661,1,2,0:0:0:0:
300,200,138891,1,8,0:0:0:0:
392,200,139122,1,2,0:0:0:0:
212,200,139584,1,2,0:0:0:0:
120,200,139815,1,8,0:0:0:0:
32,200,140045,1,2,0:0:0:0:
220,80,140507,5,2,0:0:0:0:
128,80,140738,1,8,0:0:0:0:
232,80,140969,1,2,0:0:0:0:
20,80,141199,2,0,L|16:160,1,75,2|8,0:0|0:0,0:0:0:0:
236,192,141661,5,12,0:0:0:0:
