osu file format v14

[General]
AudioFilename: audio.mp3
AudioLeadIn: 0
PreviewTime: 31353
Countdown: 0
SampleSet: Soft
StackLeniency: 0.7
Mode: 2
LetterboxInBreaks: 0
WidescreenStoryboard: 1

[Editor]
Bookmarks: 1815,31353,60892,90430,112584,142123
DistanceSpacing: 1.6
BeatDivisor: 4
GridSize: 4
TimelineZoom: 0.6999997

[Metadata]
Title:Melody of Heaven (Original Mix)
TitleUnicode:Melody of Heaven (Original Mix)
Artist:IAHN
ArtistUnicode:IAHN
Creator:JBHyperion
Version:Cup
Source:osu!
Tags:JBH Hyperion WildOne94 MBomb Magic Bomb Imai Lisa Xetopia Nelly Lacrima Myle AJamez Jemzuu JeirYagtama Crowley Bunnrei Sinnoh CMWC Catch Mapping World Cup group stage featured artist Mappers Guild Fruit Factory electronic piano instrumental dubstep glitch hop
BeatmapID:2144400
BeatmapSetID:1025255

[Difficulty]
HPDrainRate:3
CircleSize:2.2
OverallDifficulty:6
ApproachRate:6
SliderMultiplier:1.4
SliderTickRate:1

[Events]
//Background and Video events
0,0,"nonanimebackground.jpg",0,0
//Break Periods
2,90630,93073
//Storyboard Layer 0 (Background)
//Storyboard Layer 1 (Fail)
//Storyboard Layer 2 (Pass)
//Storyboard Layer 3 (Foreground)
//Storyboard Layer 4 (Overlay)
//Storyboard Sound Samples

[TimingPoints]
1815,461.538461538462,4,2,1,65,1,0
2045,-100,4,2,1,80,0,0
4045,-100,4,2,1,65,0,0
4353,-100,4,2,1,80,0,0
4507,-100,4,2,1,65,0,0
6430,-100,4,2,1,80,0,0
7276,-100,4,2,1,65,0,0
7584,-100,4,2,1,80,0,0
8276,-100,4,2,77,65,0,0
8738,-100,4,2,1,80,0,0
9199,-100,4,2,1,70,0,0
9430,-100,4,2,1,85,0,0
11430,-100,4,2,1,70,0,0
11738,-100,4,2,1,85,0,0
12199,-100,4,2,77,70,0,0
12892,-100,4,2,1,100,0,0
15661,-100,4,3,1,60,0,0
16123,-100,4,3,1,75,0,0
16584,-100,4,2,99,75,0,0
16815,-100,4,2,1,80,0,0
17507,-100,4,2,1,60,0,0
17738,-100,4,2,1,80,0,0
18353,-100,4,2,1,60,0,0
18661,-100,4,2,1,80,0,0
19276,-100,4,2,1,60,0,0
19584,-100,4,2,1,80,0,0
21123,-100,4,2,1,60,0,0
21430,-100,4,2,1,80,0,0
22123,-100,4,2,1,100,0,0
23507,-100,4,3,2,100,0,0
23738,-100,4,2,1,100,0,0
23969,-100,4,2,2,75,0,0
28584,-100,4,2,2,80,0,0
29046,-100,4,2,2,85,0,0
29507,-100,4,2,2,75,0,0
30892,-100,4,3,2,100,0,0
31123,-100,4,2,2,80,0,0
31353,-100,4,2,3,100,0,1
34353,-100,4,2,1,100,0,1
34584,-100,4,2,3,100,0,1
36084,-100,4,2,1,100,0,1
36430,-100,4,2,3,100,0,1
36546,-100,4,2,1,80,0,1
36892,-100,4,2,3,100,0,1
37584,-100,4,2,1,100,0,1
37815,-100,4,2,3,100,0,1
40584,-100,4,2,3,80,0,0
41276,-100,4,2,3,80,0,1
41507,-100,4,2,3,40,0,1
41738,-100,4,2,3,60,0,1
41969,-100,4,2,3,80,0,1
42430,-100,4,2,3,100,0,1
44276,-100,4,2,3,80,0,1
45430,-100,4,2,3,60,0,1
45892,-100,4,2,3,70,0,1
46123,-100,4,2,1,75,0,1
46353,-100,4,2,1,80,0,0
53046,-100,4,2,77,60,0,0
53276,-100,4,2,77,80,0,0
53507,-100,4,2,2,80,0,0
59969,-100,4,3,1,65,0,0
60661,-100,4,2,3,80,0,0
61123,-100,4,2,2,80,0,0
65046,-100,4,2,2,100,0,0
65276,-100,4,2,2,80,0,0
65969,-100,4,2,2,100,0,0
66430,-100,4,2,2,80,0,0
74276,-100,4,2,2,40,0,0
74507,-100,4,2,2,45,0,0
74738,-100,4,2,2,50,0,0
74968,-100,4,2,2,55,0,0
75199,-100,4,2,2,60,0,0
75661,-100,4,2,3,100,0,1
77853,-100,4,2,1,100,0,1
77969,-100,4,2,3,100,0,1
80969,-100,4,2,1,100,0,1
81199,-100,4,2,3,100,0,1
81892,-100,4,2,1,100,0,1
82123,-100,4,2,3,100,0,1
84891,-100,4,2,3,80,0,0
85584,-100,4,2,3,80,0,1
85815,-100,4,2,3,40,0,1
86046,-100,4,2,3,60,0,1
86276,-100,4,2,3,80,0,1
86738,-100,4,2,3,100,0,1
88584,-100,4,2,3,80,0,1
89738,-100,4,2,3,60,0,1
90199,-100,4,2,3,70,0,1
90430,-100,4,2,2,75,0,0
94122,-100,4,2,2,40,0,0
94584,-100,4,2,2,45,0,0
95045,-100,4,2,2,50,0,0
95507,-100,4,2,2,55,0,0
95968,-100,4,2,2,60,0,0
96430,-100,4,2,2,65,0,0
96891,-100,4,2,2,70,0,0
97815,-100,4,2,2,80,0,0
101276,-100,4,2,99,100,0,0
101392,-100,4,2,2,80,0,0
106815,-100,4,2,2,100,0,0
107046,-100,4,2,2,80,0,0
107276,-100,4,2,2,100,0,0
107507,-100,4,2,2,80,0,0
109123,-100,4,2,2,100,0,0
109353,-100,4,2,2,80,0,0
111892,-100,4,2,2,90,0,0
112584,-100,4,2,3,100,0,1
116276,-100,4,2,3,100,0,1
117430,-100,4,2,1,100,0,1
117661,-100,4,2,3,100,0,1
119623,-100,4,2,1,100,0,1
119969,-100,4,2,3,100,0,1
120199,-100,4,2,3,100,0,1
121584,-100,4,2,1,100,0,1
121815,-100,4,2,3,100,0,1
124815,-100,4,2,1,100,0,1
125046,-100,4,2,3,100,0,1
125276,-100,4,2,1,100,0,1
125507,-100,4,2,3,100,0,1
127353,-100,4,2,3,80,0,0
127584,-100,4,2,1,60,0,0
129892,-100,4,2,77,70,0,0
130123,-100,4,2,1,60,0,0
133815,-100,4,2,77,65,0,0
134046,-100,4,2,1,60,0,0
134738,-100,4,2,1,70,0,0
134969,-100,4,2,1,85,0,0
136969,-100,4,2,1,70,0,0
137276,-100,4,2,1,85,0,0
137738,-100,4,2,77,70,0,0
137969,-100,4,2,1,85,0,0
141199,-100,4,3,1,60,0,0
141661,-100,4,2,77,60,0,0

[Colours]
Combo1 : 50,255,50
Combo2 : 25,175,255
Combo3 : 255,125,25
Combo4 : 255,255,25

[HitObjects]
194,244,1815,5,4,0:0:0:0:
126,192,2046,1,0,0:0:0:0:
126,104,2276,1,8,0:0:0:0:
194,48,2507,1,2,0:0:0:0:
334,48,2969,6,0,L|414:48,2,70,2|8|2,0:0|0:0|0:0,0:0:0:0:
194,48,3892,1,2,0:0:0:0:
278,48,4123,1,8,0:0:0:0:
362,48,4353,2,0,P|382:112|282:192,1,210,2|8,0:0|0:0,0:0:0:0:
114,192,5507,5,2,0:0:0:0:
254,192,5969,2,0,L|330:192,2,70,8|2|2,0:0|0:0|0:0,0:0:0:0:
114,192,6892,2,0,L|38:192,1,70,8|2,0:0|0:0,0:0:0:0:
122,192,7353,5,2,0:0:0:0:
278,192,7815,1,8,0:0:0:0:
98,192,8276,1,4,0:0:0:0:
254,192,8738,2,0,L|258:280,1,70,8|2,0:0|0:0,0:0:0:0:
182,264,9199,6,0,L|34:264,1,140,4|8,0:0|0:0,0:0:0:0:
42,264,9892,1,2,0:0:0:0:
174,264,10353,1,2,0:0:0:0:
250,264,10584,2,0,L|254:184,1,70,8|2,0:0|0:0,0:0:0:0:
406,192,11276,6,0,L|478:192,2,70,2|8|2,0:0|0:0|0:0,0:0:0:0:
222,192,12199,1,4,0:0:0:0:
350,192,12661,1,2,0:0:0:0:
426,192,12892,5,2,0:0:0:0:
356,192,13122,1,0,0:0:0:0:
286,28,13353,1,8,0:0:0:0:
216,28,13584,1,2,0:0:0:0:
76,28,14046,2,0,L|68:108,2,70,2|8|2,0:0|0:0|0:0,0:0:0:0:
232,96,14969,6,0,L|312:96,2,70,2|8|2,0:0|0:0|0:0,0:0:0:0:
148,96,15661,2,0,L|144:184,1,70,2|8,0:0|0:0,0:0:0:0:
244,196,16123,1,8,0:0:0:0:
76,200,16584,6,0,P|52:256|76:328,1,140,6|8,0:0|0:0,0:0:0:0:
216,328,17507,2,0,L|224:256,2,70,2|2|8,0:0|0:0|0:0,0:0:0:0:
356,328,18430,5,2,0:0:0:0:
200,328,18892,2,0,L|48:328,1,140,8|2,0:0|0:0,0:0:0:0:
152,328,19584,1,2,0:0:0:0:
200,256,19815,1,8,0:0:0:0:
148,184,20046,1,2,0:0:0:0:
60,184,20276,6,0,L|56:32,1,140,2|8,0:0|0:0,0:0:0:0:
204,336,21199,2,0,L|344:336,1,140,2|8,0:0|0:0,0:0:0:0:
188,324,22123,5,2,0:0:0:0:
324,324,22469,2,0,L|328:248,1,70,2|8,0:0|0:0,0:0:0:0:
168,256,23046,1,8,0:0:0:0:
348,256,23507,2,0,L|356:184,1,70,0|0,0:0|0:0,0:0:0:0:
368,96,23969,6,0,L|228:96,1,140,8|8,0:0|0:0,0:0:0:0:
88,96,24892,1,8,0:0:0:0:
240,96,25353,1,8,0:0:0:0:
396,96,25815,6,0,P|456:120|480:196,2,140,8|8|8,0:0|0:0|0:0,0:0:0:0:
256,96,27199,2,0,L|252:168,1,70,10|2,0:0|0:0,0:0:0:0:
336,168,27661,6,0,L|344:308,1,140,10|8,0:0|0:0,0:0:0:0:
188,308,28584,2,0,L|59:234,1,140,8|8,0:0|0:0,0:0:0:0:
236,196,29507,6,0,L|368:196,1,105,8|8,0:0|0:0,0:0:0:0:
216,196,30199,2,0,L|84:196,1,105,2|2,0:0|0:0,0:0:0:0:
228,196,30892,2,0,L|232:120,1,70,8|8,0:0|0:0,0:0:0:0:
148,128,31353,6,0,L|8:128,1,140,6|8,0:0|0:0,0:0:0:0:
176,128,32276,2,0,P|216:184|176:232,1,140,2|8,0:0|0:0,0:0:0:0:
92,232,32969,1,0,0:0:0:0:
176,232,33199,6,0,L|284:232,1,105,2|2,0:0|0:0,0:0:0:0:
416,232,33892,1,0,0:0:0:0:
264,232,34353,2,0,L|260:156,1,70,2|8,0:0|0:0,0:0:0:0:
428,164,35046,6,0,L|432:20,1,140,2|8,0:0|0:0,0:0:0:0:
276,24,35969,1,2,0:0:0:0:
444,24,36430,2,0,L|448:108,1,70,8|2,0:0|0:0,0:0:0:0:
364,92,36892,6,0,B|292:92|292:92|292:168,1,140,2|8,0:0|0:0,0:0:0:0:
376,160,37584,1,2,0:0:0:0:
432,160,37815,1,2,0:0:0:0:
376,160,38046,1,2,0:0:0:0:
292,160,38276,1,8,0:0:0:0:
108,160,38738,6,0,L|100:304,1,140,2|8,0:0|0:0,0:0:0:0:
268,300,39661,1,2,0:0:0:0:
112,300,40123,2,0,L|184:300,1,70,8|2,0:0|0:0,0:0:0:0:
268,300,40584,6,0,L|272:188,1,105,2|2,0:0|0:0,0:0:0:0:
124,192,41276,2,0,P|80:144|124:96,1,140,12|2,0:0|0:0,0:0:0:0:
206,96,41969,2,0,L|286:96,1,70,8|0,0:0|0:0,0:0:0:0:
360,96,42430,6,0,L|368:264,1,140,2|8,0:0|0:0,0:0:0:0:
283,236,43123,1,0,0:0:0:0:
201,236,43353,1,2,0:0:0:0:
366,235,43815,1,8,0:0:0:0:
212,236,44276,6,0,L|116:192,2,105,2|8|8,0:0|0:0|0:0,0:0:0:0:
288,236,45199,1,2,0:0:0:0:
444,240,45661,2,0,L|448:152,1,70,8|8,0:0|0:0,0:0:0:0:
360,168,46123,6,0,L|216:168,2,140,4|8|2,0:0|0:0|0:0,0:0:0:0:
208,168,47507,2,0,L|136:168,1,70,8|2,0:0|0:0,0:0:0:0:
60,168,47969,5,2,0:0:0:0:
212,268,48430,2,0,L|280:256,2,70,8|2|2,0:0|0:0|0:0,0:0:0:0:
56,268,49353,1,8,0:0:0:0:
134,268,49584,1,2,0:0:0:0:
212,268,49815,5,2,0:0:0:0:
380,268,50276,1,8,0:0:0:0:
252,192,50738,1,2,0:0:0:0:
84,192,51199,2,0,L|76:120,1,70,8|2,0:0|0:0,0:0:0:0:
84,192,51661,5,2,0:0:0:0:
252,192,52123,1,8,0:0:0:0:
176,192,52353,1,2,0:0:0:0:
100,192,52584,1,0,0:0:0:0:
268,192,53046,2,0,L|276:108,1,70,4|0,0:0|0:0,0:0:0:0:
192,120,53507,6,0,L|176:276,1,140,8|8,0:0|0:0,0:0:0:0:
259,260,54199,1,2,0:0:0:0:
340,260,54430,1,8,0:0:0:0:
172,260,54892,1,8,0:0:0:0:
324,260,55353,5,8,0:0:0:0:
480,192,55815,1,8,0:0:0:0:
312,192,56276,2,0,L|384:192,2,70,8|2|8,0:0|0:0|0:0,0:0:0:0:
156,192,57199,6,0,L|152:44,1,140,8|8,0:0|0:0,0:0:0:0:
308,52,58123,2,0,L|164:52,1,140,8|8,0:0|0:0,0:0:0:0:
84,52,58815,1,2,0:0:0:0:
168,52,59046,5,8,0:0:0:0:
316,56,59969,2,0,L|316:116,1,35,2|8,0:0|0:0,0:0:0:0:
184,56,60430,1,8,0:0:0:0:
108,56,60661,1,8,0:0:0:0:
32,56,60892,6,0,L|172:56,1,140,6|8,0:0|0:0,0:0:0:0:
300,192,61815,1,8,0:0:0:0:
160,188,62276,2,0,L|156:268,1,70,8|2,0:0|0:0,0:0:0:0:
240,256,62738,6,0,L|368:188,2,140,8|8|8,0:0|0:0|0:0,0:0:0:0:
408,256,64123,1,8,0:0:0:0:
268,256,64584,6,0,L|264:352,1,70,8|2,0:0|0:0,0:0:0:0:
364,328,65046,1,12,0:0:0:0:
504,116,65507,2,0,L|508:212,1,70,8|2,0:0|0:0,0:0:0:0:
408,188,65969,1,12,0:0:0:0:
240,188,66430,6,0,L|96:188,2,140,8|8|8,0:0|0:0|0:0,0:0:0:0:
408,188,67815,2,0,L|408:140,1,35,8|8,0:0|0:0,0:0:0:0:
292,16,68276,6,0,L|148:16,1,140,12|8,0:0|0:0,0:0:0:0:
312,16,69199,1,8,0:0:0:0:
144,16,69661,2,0,L|72:16,1,70,8|2,0:0|0:0,0:0:0:0:
152,16,70123,5,8,0:0:0:0:
304,16,70584,1,8,0:0:0:0:
152,16,71046,1,8,0:0:0:0:
228,16,71276,1,2,0:0:0:0:
304,16,71507,1,8,0:0:0:0:
456,120,71969,6,0,L|316:120,1,140,8|8,0:0|0:0,0:0:0:0:
160,120,72892,1,8,0:0:0:0:
316,120,73353,1,8,0:0:0:0:
132,120,73815,5,8,0:0:0:0:
256,192,74276,12,8,75199,0:0:0:0:
276,192,75661,6,0,L|272:52,1,140,6|8,0:0|0:0,0:0:0:0:
440,52,76584,1,2,0:0:0:0:
260,52,77046,2,0,L|180:52,1,70,8|0,0:0|0:0,0:0:0:0:
100,52,77507,6,0,L|228:52,2,105,2|2|0,0:0|0:0|0:0,0:0:0:0:
16,52,78430,2,0,L|12:196,1,140,2|8,0:0|0:0,0:0:0:0:
180,192,79353,6,0,L|184:340,1,140,2|8,0:0|0:0,0:0:0:0:
352,332,80276,2,0,L|208:332,1,140,2|8,0:0|0:0,0:0:0:0:
296,332,80969,1,2,0:0:0:0:
380,332,81199,5,2,0:0:0:0:
212,236,81661,2,0,L|136:236,2,70,8|2|2,0:0|0:0|0:0,0:0:0:0:
296,236,82353,1,2,0:0:0:0:
212,236,82584,1,8,0:0:0:0:
28,236,83046,6,0,L|24:88,1,140,2|8,0:0|0:0,0:0:0:0:
192,96,83969,1,2,0:0:0:0:
360,96,84430,2,0,L|276:96,1,70,8|0,0:0|0:0,0:0:0:0:
204,96,84892,6,0,L|200:208,1,105,2|2,0:0|0:0,0:0:0:0:
348,200,85584,2,0,P|388:248|348:304,1,140,12|2,0:0|0:0,0:0:0:0:
256,304,86276,2,0,L|340:304,1,70,8|0,0:0|0:0,0:0:0:0:
420,304,86738,6,0,L|424:160,1,140,2|8,0:0|0:0,0:0:0:0:
340,164,87430,1,0,0:0:0:0:
256,164,87661,1,2,0:0:0:0:
440,164,88123,1,8,0:0:0:0:
256,164,88584,6,0,L|148:164,2,105,2|8|8,0:0|0:0|0:0,0:0:0:0:
340,164,89507,2,0,L|344:56,1,105,8|8,0:0|0:0,0:0:0:0:
232,60,90199,1,8,0:0:0:0:
124,60,90430,5,12,0:0:0:0:
256,192,94123,12,6,96892,0:0:0:0:
184,192,97815,6,0,L|184:120,1,70,8|0,0:0|0:0,0:0:0:0:
276,124,98276,2,0,L|276:44,1,70,12|0,0:0|0:0,0:0:0:0:
184,56,98738,2,0,L|40:56,1,140,8|8,0:0|0:0,0:0:0:0:
136,56,99430,1,2,0:0:0:0:
44,56,99661,6,0,L|44:200,1,140,8|8,0:0|0:0,0:0:0:0:
212,196,100584,1,8,0:0:0:0:
28,196,101046,2,0,L|28:276,1,70,8|8,0:0|0:0,0:0:0:0:
120,264,101507,6,0,L|272:264,1,140,8|8,0:0|0:0,0:0:0:0:
428,264,102430,2,0,L|340:264,1,70,8|0,0:0|0:0,0:0:0:0:
272,264,102892,1,8,0:0:0:0:
92,260,103353,5,8,0:0:0:0:
260,264,103815,1,8,0:0:0:0:
80,264,104276,2,0,L|76:192,1,70,8|8,0:0|0:0,0:0:0:0:
168,196,104738,2,0,L|172:108,1,70,8|8,0:0|0:0,0:0:0:0:
264,124,105199,6,0,L|412:124,1,140,8|8,0:0|0:0,0:0:0:0:
236,124,106123,2,0,L|236:288,1,140,8|8,0:0|0:0,0:0:0:0:
320,264,106815,1,2,0:0:0:0:
236,264,107046,6,0,L|160:264,2,70,8|2|8,0:0|0:0|0:0,0:0:0:0:
404,264,107969,2,0,L|240:264,1,140,8|8,0:0|0:0,0:0:0:0:
96,264,108892,6,0,L|96:192,2,70,8|2|8,0:0|0:0|0:0,0:0:0:0:
280,264,109815,2,0,L|204:264,1,70,8|2,0:0|0:0,0:0:0:0:
124,192,110276,2,0,L|200:192,1,70,8|2,0:0|0:0,0:0:0:0:
284,192,110738,5,8,0:0:0:0:
116,192,111199,1,8,0:0:0:0:
32,192,111430,1,8,0:0:0:0:
116,192,111661,1,8,0:0:0:0:
284,192,112123,2,0,L|284:152,1,35,8|2,0:0|0:0,0:0:0:0:
136,156,112584,6,0,L|4:108,2,140,6|8|2,0:0|0:0|0:0,0:0:0:0:
304,156,113969,1,8,0:0:0:0:
220,156,114199,1,2,0:0:0:0:
304,156,114430,6,0,L|304:108,1,35,2|0,0:0|0:0,0:0:0:0:
168,120,114892,2,0,L|96:120,2,70,8|0|2,0:0|0:0|0:0,0:0:0:0:
336,120,115815,2,0,L|412:120,1,70,8|0,0:0|0:0,0:0:0:0:
320,120,116276,6,0,L|168:120,1,140,2|8,0:0|0:0,0:0:0:0:
348,120,117199,2,0,L|352:208,1,70,2|2,0:0|0:0,0:0:0:0:
268,192,117661,1,8,0:0:0:0:
84,192,118123,5,2,0:0:0:0:
252,192,118584,1,8,0:0:0:0:
96,192,119046,1,2,0:0:0:0:
24,216,119276,1,2,0:0:0:0:
24,292,119507,1,8,0:0:0:0:
96,316,119738,1,2,0:0:0:0:
172,316,119969,6,0,L|320:316,2,140,2|8|2,0:0|0:0|0:0,0:0:0:0:
340,316,121353,2,0,L|344:240,1,70,8|2,0:0|0:0,0:0:0:0:
224,248,121815,6,0,L|224:204,1,35,2|0,0:0|0:0,0:0:0:0:
352,148,122276,2,0,L|452:148,2,70,8|0|2,0:0|0:0|0:0,0:0:0:0:
184,148,123199,2,0,L|104:148,1,70,8|0,0:0|0:0,0:0:0:0:
204,148,123661,6,0,L|348:148,1,140,2|8,0:0|0:0,0:0:0:0:
176,148,124584,2,0,L|172:76,1,70,2|2,0:0|0:0,0:0:0:0:
264,76,125046,1,8,0:0:0:0:
172,78,125276,1,2,0:0:0:0:
80,76,125507,6,0,L|4:76,2,70,2|8|2,0:0|0:0|0:0,0:0:0:0:
264,76,126430,2,0,L|268:156,1,70,8|2,0:0|0:0,0:0:0:0:
164,144,126892,2,0,L|160:232,1,70,8|8,0:0|0:0,0:0:0:0:
272,216,127353,5,6,0:0:0:0:
428,216,127815,2,0,L|432:308,1,70,2|0,0:0|0:0,0:0:0:0:
276,284,128507,1,0,0:0:0:0:
206,284,128738,1,2,0:0:0:0:
136,284,128969,1,0,0:0:0:0:
304,192,129430,6,0,L|380:192,2,70,0|2|4,0:0|0:0|0:0,0:0:0:0:
160,192,130353,1,2,0:0:0:0:
92,192,130584,1,2,0:0:0:0:
260,192,131046,5,2,0:0:0:0:
108,192,131507,1,2,0:0:0:0:
108,112,131738,1,0,0:0:0:0:
192,112,131969,2,0,L|328:68,2,140,2|2|2,0:0|0:0|0:0,0:0:0:0:
360,112,133353,6,0,L|368:188,2,70,2|0|4,0:0|0:0|0:0,0:0:0:0:
204,112,134276,1,2,0:0:0:0:
388,112,134738,5,4,0:0:0:0:
472,152,134969,1,0,0:0:0:0:
472,244,135199,1,8,0:0:0:0:
388,280,135430,1,2,0:0:0:0:
220,280,135892,1,2,0:0:0:0:
296,280,136123,1,8,0:0:0:0:
372,280,136353,1,2,0:0:0:0:
204,280,136815,6,0,L|132:280,2,70,2|8|2,0:0|0:0|0:0,0:0:0:0:
400,280,137738,1,4,0:0:0:0:
168,280,138430,5,2,0:0:0:0:
84,280,138661,1,2,0:0:0:0:
84,196,138892,1,8,0:0:0:0:
168,196,139123,1,2,0:0:0:0:
336,192,139584,1,2,0:0:0:0:
252,192,139815,1,8,0:0:0:0:
336,192,140046,1,2,0:0:0:0:
168,192,140507,5,2,0:0:0:0:
252,192,140738,1,8,0:0:0:0:
336,192,140969,1,2,0:0:0:0:
252,192,141199,2,0,L|248:120,1,70,2|8,0:0|0:0,0:0:0:0:
356,124,141661,5,12,0:0:0:0:
