osu file format v14

[General]
AudioFilename: audio.mp3
AudioLeadIn: 0
PreviewTime: 75397
Countdown: 0
SampleSet: Soft
StackLeniency: 0.3
Mode: 0
LetterboxInBreaks: 0
WidescreenStoryboard: 0

[Editor]
Bookmarks: 57107,66249
DistanceSpacing: 0.3
BeatDivisor: 6
GridSize: 32
TimelineZoom: 3

[Metadata]
Title:Happy Welus (Original Mix)
TitleUnicode:Happy Welus (Original Mix)
Artist:IAHN
ArtistUnicode:IAHN
Creator:lolia
Version:Extra
Source:osu!
Tags:instrumental featured artist mappers' guild karia einess ujimatsu chiya electronic
BeatmapID:2131105
BeatmapSetID:1018348

[Difficulty]
HPDrainRate:6
CircleSize:4.8
OverallDifficulty:8.5
ApproachRate:9.2
SliderMultiplier:1.8
SliderTickRate:1

[Events]
//Background and Video events
0,0,"BG.jpg",0,0
//Break Periods
2,57312,65684
//Storyboard Layer 0 (Background)
//Storyboard Layer 1 (Fail)
//Storyboard Layer 2 (Pass)
//Storyboard Layer 3 (Foreground)
//Storyboard Layer 4 (Overlay)
//Storyboard Sound Samples

[TimingPoints]
2255,571.428571428571,4,2,1,60,1,0
2255,-125,4,2,1,60,0,0
10254,-62.5,4,2,1,60,0,0
10445,-62.5,4,2,1,5,0,0
10540,-62.5,4,2,1,60,0,0
11397,-100,4,2,2,60,0,0
19397,-62.5,4,2,2,60,0,0
19588,-62.5,4,2,2,5,0,0
19683,-62.5,4,2,2,60,0,0
20540,-100,4,2,4,70,0,0
21112,-62.5,4,2,4,70,0,0
21683,-100,4,2,4,70,0,0
23969,-50,4,2,4,70,0,0
24159,-50,4,2,4,5,0,0
24254,-50,4,2,4,70,0,0
24731,-74.0740740740741,4,2,4,70,0,0
25112,-100,4,2,4,70,0,0
25683,-62.5,4,2,4,70,0,0
26254,-100,4,2,4,70,0,0
28540,-50,4,2,4,70,0,0
28731,-50,4,2,4,5,0,0
28826,-50,4,2,4,70,0,0
29112,-43.4782608695652,4,2,4,70,0,0
29207,-43.4782608695652,4,2,4,5,0,0
29302,-43.4782608695652,4,2,4,70,0,0
29588,-166.666666666667,4,2,4,70,0,0
30254,-50,4,2,4,70,0,0
30826,-166.666666666667,4,2,4,70,0,0
33016,-40,4,2,4,70,0,0
33302,-40,4,2,4,5,0,0
33397,-40,4,2,4,70,0,0
33683,-62.5,4,2,4,70,0,0
34254,-166.666666666667,4,2,4,70,0,0
34826,-50,4,2,4,70,0,0
35397,-166.666666666667,4,2,4,70,0,0
36540,-50,4,2,4,70,0,0
36635,-50,4,2,4,5,0,0
36826,-50,4,2,4,70,0,0
36921,-50,4,2,4,5,0,0
37112,-50,4,2,4,70,0,0
37207,-50,4,2,4,5,0,0
37302,-50,4,2,4,70,0,0
37588,-50,4,2,4,5,0,0
37683,-50,4,2,2,70,0,0
38826,-35.7142857142857,4,2,5,70,0,1
39302,-35.7142857142857,4,2,5,5,0,1
39397,-40,4,2,5,70,0,1
39874,-40,4,2,5,5,0,1
39969,-125,4,2,5,70,0,1
40540,-66.6666666666667,4,2,5,70,0,1
40731,-66.6666666666667,4,2,5,5,0,1
40826,-66.6666666666667,4,2,5,70,0,1
40921,-66.6666666666667,4,2,5,5,0,1
41016,-66.6666666666667,4,2,5,70,0,1
41112,-40,4,2,5,70,0,1
41588,-40,4,2,5,5,0,1
41683,-50,4,2,5,70,0,1
42302,-50,4,2,5,5,0,1
42350,-50,4,2,5,70,0,1
42397,-50,4,2,5,5,0,1
42445,-50,4,2,5,70,0,1
42493,-50,4,2,5,5,0,1
42540,-50,4,2,5,70,0,1
42588,-50,4,2,5,5,0,1
42635,-50,4,2,5,70,0,1
42683,-50,4,2,5,5,0,1
42731,-50,4,2,5,70,0,1
42778,-125,4,2,5,5,0,1
42826,-125,4,2,5,70,0,1
43302,-125,4,2,5,5,0,1
43397,-40,4,2,5,70,0,1
43874,-40,4,2,5,5,0,1
43969,-50,4,2,5,70,0,1
44064,-50,4,2,5,5,0,1
44159,-100,4,2,5,70,0,1
44540,-50,4,2,5,70,0,1
44635,-50,4,2,5,5,0,1
44731,-100,4,2,5,70,0,1
45112,-50,4,2,5,70,0,1
45588,-50,4,2,5,5,0,1
45683,-40,4,2,5,70,0,1
46159,-40,4,2,5,5,0,1
46254,-40,4,2,5,70,0,1
46826,-35.7142857142857,4,2,5,70,0,1
47302,-35.7142857142857,4,2,5,5,0,1
47397,-71.4285714285714,4,2,5,70,0,1
47969,-35.7142857142857,4,2,5,70,0,1
48445,-35.7142857142857,4,2,5,5,0,1
48540,-40,4,2,5,70,0,1
49016,-40,4,2,5,5,0,1
49112,-125,4,2,5,70,0,1
49683,-66.6666666666667,4,2,5,70,0,1
49874,-66.6666666666667,4,2,5,5,0,1
49969,-66.6666666666667,4,2,5,70,0,1
50064,-66.6666666666667,4,2,5,5,0,1
50159,-66.6666666666667,4,2,5,70,0,1
50254,-40,4,2,5,70,0,1
50731,-40,4,2,5,5,0,1
50826,-50,4,2,5,70,0,1
51445,-50,4,2,5,5,0,1
51493,-50,4,2,5,70,0,1
51540,-50,4,2,5,5,0,1
51588,-50,4,2,5,70,0,1
51635,-50,4,2,5,5,0,1
51683,-50,4,2,5,70,0,1
51731,-50,4,2,5,5,0,1
51778,-50,4,2,5,70,0,1
51826,-50,4,2,5,5,0,1
51874,-50,4,2,5,70,0,1
51921,-125,4,2,5,5,0,1
51969,-125,4,2,5,70,0,1
52445,-125,4,2,5,5,0,1
52540,-40,4,2,5,70,0,1
53016,-40,4,2,5,5,0,1
53112,-50,4,2,5,70,0,1
53207,-50,4,2,5,5,0,1
53302,-100,4,2,5,70,0,1
53683,-50,4,2,5,70,0,1
53778,-50,4,2,5,5,0,1
53874,-100,4,2,5,70,0,1
54254,-50,4,2,5,70,0,1
54731,-50,4,2,5,5,0,1
54826,-50,4,2,5,70,0,1
55016,-50,4,2,5,5,0,1
55112,-50,4,2,5,70,0,1
55207,-50,4,2,5,5,0,1
55397,-50,4,2,5,70,0,1
55588,-50,4,2,5,5,0,1
55683,-50,4,2,5,70,0,1
55778,-50,4,2,5,5,0,1
55969,-50,4,2,5,70,0,1
56159,-50,4,2,5,5,0,1
56254,-50,4,2,5,70,0,1
56350,-50,4,2,5,5,0,1
56540,-142.857142857143,4,2,5,70,0,1
57016,-142.857142857143,4,2,5,5,0,1
57112,-50,4,2,1,70,0,0
66254,-83.3333333333333,4,2,3,50,0,0
74254,-58.8235294117647,4,2,3,60,0,0
75397,-125,4,2,1,60,0,0
83397,-62.5,4,2,1,60,0,0
83588,-62.5,4,2,1,5,0,0
83683,-62.5,4,2,1,60,0,0
84540,-100,4,2,2,60,0,0
92540,-62.5,4,2,2,60,0,0
92731,-62.5,4,2,2,5,0,0
92826,-62.5,4,2,2,60,0,0
93683,-100,4,2,4,70,0,0
94254,-62.5,4,2,4,70,0,0
94826,-100,4,2,4,70,0,0
97016,-50,4,2,4,70,0,0
97302,-50,4,2,4,5,0,0
97397,-50,4,2,4,70,0,0
97683,-74.0740740740741,4,2,4,70,0,0
98254,-100,4,2,4,70,0,0
98826,-62.5,4,2,4,70,0,0
99397,-100,4,2,4,70,0,0
101588,-50,4,2,4,70,0,0
101874,-50,4,2,4,5,0,0
101969,-50,4,2,4,70,0,0
102254,-43.4782608695652,4,2,4,70,0,0
102350,-43.4782608695652,4,2,4,5,0,0
102445,-43.4782608695652,4,2,4,70,0,0
102731,-166.666666666667,4,2,4,70,0,0
103397,-50,4,2,4,70,0,0
103969,-166.666666666667,4,2,4,70,0,0
106159,-40,4,2,4,70,0,0
106445,-40,4,2,4,5,0,0
106540,-40,4,2,4,70,0,0
106826,-62.5,4,2,4,70,0,0
107397,-166.666666666667,4,2,4,70,0,0
107969,-50,4,2,4,70,0,0
108540,-166.666666666667,4,2,4,70,0,0
109683,-50,4,2,4,70,0,0
109778,-50,4,2,4,5,0,0
109969,-50,4,2,4,70,0,0
110064,-50,4,2,4,5,0,0
110254,-50,4,2,4,70,0,0
110350,-50,4,2,4,5,0,0
110445,-50,4,2,4,70,0,0
110731,-50,4,2,4,5,0,0
110826,-50,4,2,2,70,0,0
111969,-35.7142857142857,4,2,5,70,0,1
112445,-35.7142857142857,4,2,5,5,0,1
112540,-40,4,2,5,70,0,1
113016,-40,4,2,5,5,0,1
113112,-125,4,2,5,70,0,1
113683,-66.6666666666667,4,2,5,70,0,1
113874,-66.6666666666667,4,2,5,5,0,1
113969,-66.6666666666667,4,2,5,70,0,1
114064,-66.6666666666667,4,2,5,5,0,1
114159,-66.6666666666667,4,2,5,70,0,1
114254,-40,4,2,5,70,0,1
114731,-40,4,2,5,5,0,1
114826,-50,4,2,5,70,0,1
115445,-50,4,2,5,5,0,1
115493,-50,4,2,5,70,0,1
115540,-50,4,2,5,5,0,1
115588,-50,4,2,5,70,0,1
115635,-50,4,2,5,5,0,1
115683,-50,4,2,5,70,0,1
115731,-50,4,2,5,5,0,1
115778,-50,4,2,5,70,0,1
115826,-50,4,2,5,5,0,1
115874,-50,4,2,5,70,0,1
115921,-125,4,2,5,5,0,1
115969,-125,4,2,5,70,0,1
116445,-125,4,2,5,5,0,1
116540,-40,4,2,5,70,0,1
117016,-40,4,2,5,5,0,1
117112,-50,4,2,5,70,0,1
117207,-50,4,2,5,5,0,1
117302,-100,4,2,5,70,0,1
117683,-50,4,2,5,70,0,1
117778,-50,4,2,5,5,0,1
117874,-100,4,2,5,70,0,1
118254,-50,4,2,5,70,0,1
118731,-50,4,2,5,5,0,1
118826,-40,4,2,5,70,0,1
119302,-40,4,2,5,5,0,1
119397,-40,4,2,5,70,0,1
119969,-35.7142857142857,4,2,5,70,0,1
120445,-35.7142857142857,4,2,5,5,0,1
120540,-71.4285714285714,4,2,5,70,0,1
121112,-35.7142857142857,4,2,5,70,0,1
121588,-35.7142857142857,4,2,5,5,0,1
121683,-40,4,2,5,70,0,1
122159,-40,4,2,5,5,0,1
122254,-125,4,2,5,70,0,1
122826,-66.6666666666667,4,2,5,70,0,1
123016,-66.6666666666667,4,2,5,5,0,1
123112,-66.6666666666667,4,2,5,70,0,1
123207,-66.6666666666667,4,2,5,5,0,1
123302,-66.6666666666667,4,2,5,70,0,1
123397,-40,4,2,5,70,0,1
123874,-40,4,2,5,5,0,1
123969,-50,4,2,5,70,0,1
124588,-50,4,2,5,5,0,1
124635,-50,4,2,5,70,0,1
124683,-50,4,2,5,5,0,1
124731,-50,4,2,5,70,0,1
124778,-50,4,2,5,5,0,1
124826,-50,4,2,5,70,0,1
124874,-50,4,2,5,5,0,1
124921,-50,4,2,5,70,0,1
124969,-50,4,2,5,5,0,1
125016,-50,4,2,5,70,0,1
125064,-125,4,2,5,5,0,1
125112,-125,4,2,5,70,0,1
125588,-125,4,2,5,5,0,1
125683,-40,4,2,5,70,0,1
126159,-40,4,2,5,5,0,1
126254,-50,4,2,5,70,0,1
126350,-50,4,2,5,5,0,1
126445,-100,4,2,5,70,0,1
126826,-50,4,2,5,70,0,1
126921,-50,4,2,5,5,0,1
127016,-100,4,2,5,70,0,1
127397,-50,4,2,5,70,0,1
127874,-50,4,2,5,5,0,1
127969,-50,4,2,5,70,0,1
128159,-50,4,2,5,5,0,1
128254,-50,4,2,5,70,0,1
128350,-50,4,2,5,5,0,1
128540,-50,4,2,5,70,0,1
128731,-50,4,2,5,5,0,1
128826,-50,4,2,5,70,0,1
128921,-50,4,2,5,5,0,1
129112,-50,4,2,5,70,0,1
129302,-50,4,2,5,5,0,1
129397,-50,4,2,5,70,0,1
129493,-50,4,2,5,5,0,1
129683,-142.857142857143,4,2,5,70,0,1
130159,-142.857142857143,4,2,5,5,0,1
130254,-142.857142857143,4,2,1,70,0,0

[Colours]
Combo1 : 226,226,226
Combo2 : 147,201,255
Combo3 : 255,159,255
Combo4 : 251,208,111
Combo5 : 130,255,192
Combo6 : 110,110,110
Combo7 : 171,171,171

[HitObjects]
31,44,2255,6,0,P|43:101|55:162,1,120,2|2,0:0|0:0,0:0:0:0:
122,191,2826,2,0,P|143:177|181:177,1,48,2|2,0:0|0:0,0:0:0:0:
255,122,3112,2,0,P|234:112|208:110,1,48,2|2,0:0|0:0,0:0:0:0:
306,178,3397,2,0,P|360:166|425:151,1,120,2|2,0:0|0:0,0:0:0:0:
440,150,3969,1,2,0:0:0:0:
325,273,4254,1,2,0:0:0:0:
481,340,4540,6,0,P|512:293|481:241,1,120,2|2,0:0|0:0,0:0:0:0:
469,234,5112,1,2,0:0:0:0:
389,362,5302,1,2,0:0:0:0:
387,351,5397,1,2,0:0:0:0:
256,280,5588,1,2,0:0:0:0:
254,291,5683,1,2,0:0:0:0:
254,291,5969,6,0,P|234:281|203:284,1,48,2|2,0:0|0:0,0:0:0:0:
125,354,6254,2,0,P|104:364|79:362,1,48,2|2,0:0|0:0,0:0:0:0:
79,362,6731,5,2,0:0:0:0:
64,356,6826,2,0,P|30:317|58:257,1,120,2|2,0:0|0:0,0:0:0:0:
11,169,7397,2,0,P|33:174|60:181,1,48,2|2,0:0|0:0,0:0:0:0:
171,211,7683,2,0,P|148:216|122:221,1,48,2|2,0:0|0:0,0:0:0:0:
236,161,7969,2,0,P|274:117|241:62,1,120,2|2,0:0|0:0,0:0:0:0:
236,59,8540,1,2,0:0:0:0:
338,202,8826,1,2,0:0:0:0:
459,73,9112,54,0,P|419:80|330:93,1,120,2|2,0:0|0:0,0:0:0:0:
325,85,9683,1,2,0:0:0:0:
435,202,9874,1,2,0:0:0:0:
437,191,9969,1,2,0:0:0:0:
346,315,10159,1,2,0:0:0:0:
295,261,10254,6,0,B|331:229|331:229|395:258,1,96,2|0,0:0|0:0,0:0:0:0:
239,308,10540,2,0,P|188:298|128:287,1,96,2|2,0:0|0:0,0:0:0:0:
69,305,10826,2,0,P|45:348|81:388,1,96,2|2,0:0|0:0,0:0:0:0:
97,235,11112,2,0,P|122:188|84:151,1,96,2|2,0:0|0:0,0:0:0:0:
0,105,11397,6,0,P|44:57|121:91,1,150,2|0,0:0|0:0,0:0:0:0:
232,123,11969,2,0,P|201:126|156:135,1,60,2|0,0:0|0:0,0:0:0:0:
305,17,12254,2,0,P|298:52|288:84,1,60
367,231,12540,2,0,P|323:215|350:128,1,150,2|0,0:0|0:0,0:0:0:0:
359,125,13112,1,2,0:0:0:0:
236,264,13397,1,0,0:0:0:0:
436,341,13683,6,0,P|388:331|285:315,1,150,2|0,0:0|0:0,0:0:0:0:
274,326,14254,1,2,0:0:0:0:
160,236,14445,1,0,0:0:0:0:
164,255,14540,1,0,0:0:0:0:
66,365,14731,1,0,0:0:0:0:
70,346,14826,1,2,0:0:0:0:
70,346,15112,54,0,P|37:350|1:355,1,60
94,258,15397,2,0,P|66:262|35:266,1,60,2|0,0:0|0:0,0:0:0:0:
34,266,15874,5,0,0:0:0:0:
17,256,15969,2,0,P|81:247|167:237,1,150,2|0,0:0|0:0,0:0:0:0:
235,136,16540,2,0,P|218:166|231:199,1,60,2|0,0:0|0:0,0:0:0:0:
303,279,16826,2,0,P|297:247|290:211,1,60
296,85,17112,2,0,P|343:37|419:76,1,150,2|0,0:0|0:0,0:0:0:0:
421,79,17683,1,2,0:0:0:0:
289,211,17969,1,0,0:0:0:0:
175,23,18254,6,0,P|226:68|173:133,1,150,2|0,0:0|0:0,0:0:0:0:
173,136,18826,1,2,0:0:0:0:
24,76,19016,1,0,0:0:0:0:
43,83,19112,1,0,0:0:0:0:
0,235,19302,1,0,0:0:0:0:
60,185,19397,6,0,B|90:222|90:222|61:275,1,96,2|0,0:0|0:0,0:0:0:0:
0,356,19683,2,0,P|44:346|97:335,1,96
222,289,19969,2,0,P|184:261|141:281,1,96,2|0,0:0|0:0,0:0:0:0:
294,324,20254,2,0,P|319:289|302:243,1,96
251,89,20540,54,0,P|205:152|248:210,1,150,2|0,0:0|0:0,0:0:0:0:
401,184,21112,6,0,B|359:174|359:174|345:176|345:176|307:167,1,96,2|0,0:0|0:0,0:0:0:0:
144,222,21397,2,0,B|185:212|185:212|199:214|199:214|237:205,1,96
102,141,21683,6,0,B|-1:120|-1:120|32:176,1,150,2|0,0:0|0:0,0:0:0:0:
69,213,22254,1,2,0:0:0:0:
49,17,22540,1,0,0:0:0:0:
231,125,22826,6,0,P|299:111|390:93,1,150,2|0,0:0|0:0,0:0:0:0:
451,90,23397,1,2,0:0:0:0:
337,237,23588,53,0,0:0:0:0:
396,194,23683,1,0,0:0:0:0:
429,373,23874,5,0,0:0:0:0:
446,302,23969,2,0,P|445:259|434:304,1,120,2|0,0:0|0:0,0:0:0:0:
278,325,24254,2,0,P|277:371|295:329,1,120,2|0,0:0|0:0,0:0:0:0:
129,195,24540,5,2,0:0:0:0:
172,305,24731,2,0,P|150:266|161:310,1,121.500000463486
32,354,25112,6,0,B|9:333|9:333|26:211,1,150,2|0,0:0|0:0,0:0:0:0:
68,69,25683,54,0,B|42:110|42:110|74:161,1,96,2|0,0:0|0:0,0:0:0:0:
212,194,25969,2,0,B|170:170|170:170|119:200,1,96
274,144,26254,6,0,P|320:95|393:130,1,150,2|0,0:0|0:0,0:0:0:0:
401,136,26826,1,2,0:0:0:0:
244,263,27112,1,0,0:0:0:0:
448,347,27397,6,0,B|396:351|386:321|377:323|366:293|311:299,1,150,2|0,0:0|0:0,0:0:0:0:
249,339,27969,1,2,0:0:0:0:
150,179,28159,5,0,0:0:0:0:
167,250,28254,1,0,0:0:0:0:
3,329,28445,53,0,0:0:0:0:
74,351,28540,2,0,P|115:357|75:333,1,120,2|0,0:0|0:0,0:0:0:0:
235,230,28826,2,0,P|197:253|242:251,1,120,2|0,0:0|0:0,0:0:0:0:
306,370,29112,6,0,L|320:289,1,69.0000013160706,8|0,0:0|0:0,0:0:0:0:
337,209,29302,1,2,0:0:0:0:
337,209,29588,5,2,0:0:0:0:
321,200,29683,2,0,P|330:251|338:299,1,89.9999972534181,8|0,0:0|0:0,0:0:0:0:
482,159,30254,6,0,B|445:152|437:120|437:120|420:149|357:145,1,120,2|0,0:0|0:0,0:0:0:0:
227,214,30540,2,0,B|264:207|271:175|271:175|289:204|351:200,1,120
149,178,30826,54,0,P|121:148|142:97,1,89.9999972534181,8|0,0:0|0:0,0:0:0:0:
196,61,31397,1,2,0:0:0:0:
196,61,31683,1,0,0:0:0:0:
73,275,31969,6,0,P|119:264|176:250,1,89.9999972534181,8|0,0:0|0:0,0:0:0:0:
227,293,32540,1,2,0:0:0:0:
358,146,32731,5,0,0:0:0:0:
339,221,32826,1,0,0:0:0:0:
196,61,33016,5,0,0:0:0:0:
215,136,33112,2,0,B|262:139|284:161|284:161|262:132|268:77,1,150,8|0,0:0|0:0,0:0:0:0:
493,205,33397,2,0,B|467:170|471:134|471:134|463:169|424:190,1,150,2|0,0:0|0:0,0:0:0:0:
227,293,33683,53,2,0:0:0:0:
348,364,33874,2,0,B|329:323|299:314|299:314|331:319|369:299,1,144
172,358,34254,6,0,P|128:348|76:339,1,89.9999972534181,8|0,0:0|0:0,0:0:0:0:
1,202,34826,6,0,B|12:247|12:247|2:269|2:269|17:323,1,120,2|0,0:0|0:0,0:0:0:0:
70,154,35112,2,0,B|81:109|81:109|71:87|71:87|86:33,1,120
135,201,35397,6,0,P|179:191|231:182,1,89.9999972534181,8|0,0:0|0:0,0:0:0:0:
301,182,35969,1,2,0:0:0:0:
301,182,36254,1,0,0:0:0:0:
84,39,36540,54,0,L|92:103,1,60,8|0,0:0|0:0,0:0:0:0:
239,322,36826,6,0,L|230:262,1,60,8|0,0:0|0:0,0:0:0:0:
442,68,37112,6,0,L|432:135,1,60,8|0,0:0|0:0,0:0:0:0:
374,242,37302,5,0,0:0:0:0:
371,233,37397,2,0,B|424:205|424:205|473:241,1,120
416,319,37683,53,2,0:0:0:0:
96,65,38826,54,0,B|175:121|241:133|268:17|235:-10|102:-39|92:149|225:110|213:179|145:286,1,419.999987182618,6|0,0:0|0:0,0:0:0:0:
29,341,39397,2,0,B|85:333|85:333|119:303|119:303|157:324|157:324|227:306|227:306|258:337|258:337|302:318|302:318|376:346,1,375,8|0,0:0|0:0,0:0:0:0:
505,276,39969,6,0,B|474:290|472:323|472:323|460:291|409:283,1,120,2|0,0:0|0:0,0:0:0:0:
471,149,40540,6,0,P|464:189|456:233,1,67.5000025749208,8|0,0:0|0:0,0:0:0:0:
340,205,40826,2,0,L|387:191,1,45.0000017166138,0|0,3:0|0:0,0:0:0:0:
313,296,41016,1,0,0:0:0:0:
273,151,41112,70,0,B|233:106|233:106|218:207|218:207|208:221|208:221|219:233|219:233|245:342|245:342|148:287,1,375,2|0,0:0|0:0,0:0:0:0:
51,298,41683,6,0,B|66:239|66:239|114:282,1,120,8|0,0:0|0:0,0:0:0:0:
273,151,41969,2,0,B|234:197|234:197|208:138,1,120,0|0,3:0|0:0,0:0:0:0:
48,49,42254,6,0,L|54:79,1,30,0|0,3:0|0:0,0:0:0:0:
117,18,42350,2,0,L|117:48,1,30,0|0,3:0|0:0,0:0:0:0:
185,41,42445,2,0,L|181:71,1,30,0|0,3:0|0:0,0:0:0:0:
251,80,42540,70,0,L|255:50,1,30,0|0,3:0|0:0,0:0:0:0:
321,102,42635,2,0,L|320:72,1,30,0|0,3:0|0:0,0:0:0:0:
388,72,42731,2,0,L|382:42,1,30,0|0,3:0|0:0,0:0:0:0:
454,104,42826,6,0,P|440:159|426:231,1,120,8|0,0:0|0:0,0:0:0:0:
441,367,43397,6,0,B|497:374|512:306|493:264|408:244|358:287|426:394|290:375|255:356|214:327,1,375,2|0,0:0|0:0,0:0:0:0:
218,130,43969,70,0,P|231:154|230:195,1,60,2|0,0:0|0:0,0:0:0:0:
309,217,44159,2,0,P|308:244|287:280,1,60,2|2,0:3|0:3,0:0:0:0:
13,324,44540,6,0,P|37:312|79:316,1,60,2|0,0:0|0:0,0:0:0:0:
107,240,44731,2,0,P|134:241|167:266,1,60,2|2,0:3|0:3,0:0:0:0:
441,367,45112,6,0,B|490:314|483:193|405:232|378:200|372:122|422:73,1,300,8|0,0:0|0:0,0:0:0:0:
509,23,45683,70,0,B|469:50|469:50|407:23|407:23|331:52|331:52|321:66|321:66|241:55|241:55|225:38|225:38|153:49,1,375,2|0,0:0|0:0,0:0:0:0:
82,66,46254,5,8,0:0:0:0:
86,74,46540,1,0,0:0:0:0:
143,349,46826,6,0,B|139:311|89:235|3:198|-52:289|-39:335|39:389|98:362|125:260|79:135,1,419.999987182618,2|0,0:0|0:0,0:0:0:0:
238,227,47397,70,0,P|207:234|177:245,1,62.9999980773926,8|0,0:0|0:0,0:0:0:0:
308,314,47683,1,0,0:0:0:0:
382,177,47826,1,0,0:0:0:0:
466,322,47969,6,0,B|428:316|315:272|337:203|424:151|471:209|459:287|428:296|398:328|398:328|360:296|308:314,1,419.999987182618,6|0,0:0|0:0,0:0:0:0:
253,165,48540,2,0,B|209:123|209:123|223:198|223:198|217:209|217:209|230:284|230:284|223:295|223:295|238:371|238:371|194:328,1,375,8|0,0:0|0:0,0:0:0:0:
74,281,49112,6,0,B|102:261|98:228|98:228|115:258|167:257,1,120,2|0,0:0|0:0,0:0:0:0:
253,165,49683,70,0,P|243:204|230:262,1,67.5000025749208,8|0,0:0|0:0,0:0:0:0:
352,307,49969,2,0,L|305:316,1,45.0000017166138,0|0,3:0|0:0,0:0:0:0:
394,228,50159,1,0,0:0:0:0:
472,353,50254,6,0,B|456:296|456:296|487:248|487:248|477:194|477:194|505:109|505:109|450:129|450:129|375:91,1,375,2|0,0:0|0:0,0:0:0:0:
255,63,50826,6,0,B|299:102|299:102|314:43,1,120,8|0,0:0|0:0,0:0:0:0:
164,118,51112,2,0,B|149:59|149:59|105:99,1,120
23,262,51397,70,0,L|26:232,1,30,0|0,3:0|0:0,0:0:0:0:
92,287,51493,2,0,L|89:257,1,30,0|0,3:0|0:0,0:0:0:0:
158,260,51588,2,0,L|151:230,1,30,0|0,3:0|0:0,0:0:0:0:
223,221,51683,6,0,L|229:250,1,30,0|0,3:0|0:0,0:0:0:0:
289,191,51778,2,0,L|290:220,1,30,0|0,3:0|0:0,0:0:0:0:
358,216,51874,2,0,L|354:246,1,30,0|0,3:0|0:0,0:0:0:0:
386,313,51969,6,0,P|434:349|491:316,1,120,8|0,0:0|0:0,0:0:0:0:
416,91,52540,70,0,B|452:183|388:154|384:241|422:276|512:321|554:211|502:151|426:193|366:215|329:275,1,375,2|0,0:0|0:0,0:0:0:0:
143,267,53112,6,0,P|167:254|208:255,1,60,2|0,0:0|0:0,0:0:0:0:
230,176,53302,2,0,P|257:177|293:198,1,60,2|2,0:3|0:3,0:0:0:0:
445,17,53683,6,0,P|432:41|398:64,1,60,2|0,0:0|0:0,0:0:0:0:
425,141,53874,2,0,P|402:155|360:159,1,60,2|2,0:3|0:3,0:0:0:0:
122,46,54254,70,0,B|82:14|26:64|54:145|166:149|135:24|203:91|213:0|308:68,1,300,8|0,0:0|0:0,0:0:0:0:
263,254,54826,6,0,P|250:194|235:119,1,120,8|0,0:0|0:0,0:0:0:0:
352,37,55112,2,0,P|341:65|330:115,1,60,0|0,3:0|0:0,0:0:0:0:
497,251,55397,6,0,P|458:215|385:242,1,120,8|0,0:0|0:0,0:0:0:0:
293,336,55683,2,0,P|321:325|371:314,1,60,0|0,3:0|0:0,0:0:0:0:
135,334,55969,70,0,B|96:287|96:287|131:217,1,120,8|0,0:0|0:0,0:0:0:0:
238,136,56254,2,0,P|209:146|160:158,1,60,0|0,3:0|0:0,0:0:0:0:
0,49,56540,6,0,P|51:61|118:80,1,104.999996795654,8|0,0:0|0:0,0:0:0:0:
123,82,57112,1,6,0:0:0:0:
128,348,66254,5,0,0:0:0:0:
63,313,66445,1,0,0:0:0:0:
53,317,66540,1,2,0:0:0:0:
75,242,66731,1,0,0:0:0:0:
64,240,66826,1,0,3:0:0:0:
147,232,67016,1,0,0:0:0:0:
144,221,67112,1,0,0:0:0:0:
299,351,67302,69,0,0:0:0:0:
309,347,67397,1,0,0:0:0:0:
244,304,67588,1,0,0:0:0:0:
233,301,67683,1,0,0:0:0:0:
296,254,67874,1,2,0:0:0:0:
306,252,67969,1,0,3:0:0:0:
261,191,68159,1,0,0:0:0:0:
250,188,68254,1,0,0:0:0:0:
422,81,68445,5,0,0:0:0:0:
424,70,68540,1,0,0:0:0:0:
354,107,68731,1,0,0:0:0:0:
356,117,68826,1,2,0:0:0:0:
291,71,69016,1,0,0:0:0:0:
293,60,69112,1,0,3:0:0:0:
224,98,69302,1,0,0:0:0:0:
226,108,69397,1,0,0:0:0:0:
39,42,69588,5,0,0:0:0:0:
48,37,69683,1,0,0:0:0:0:
74,104,69874,1,0,0:0:0:0:
84,101,69969,1,0,0:0:0:0:
74,175,70159,1,2,0:0:0:0:
84,177,70254,1,0,3:0:0:0:
38,237,70445,1,0,0:0:0:0:
47,242,70540,1,0,0:0:0:0:
197,349,70731,69,0,0:0:0:0:
207,346,70826,1,0,0:0:0:0:
169,282,71016,1,0,0:0:0:0:
158,279,71112,1,2,0:0:0:0:
216,228,71302,1,0,0:0:0:0:
224,221,71397,1,0,3:0:0:0:
153,192,71588,1,0,0:0:0:0:
150,181,71683,1,0,0:0:0:0:
299,62,71874,5,0,0:0:0:0:
288,58,71969,1,0,0:0:0:0:
276,130,72159,1,0,0:0:0:0:
265,126,72254,1,0,0:0:0:0:
347,118,72445,1,2,0:0:0:0:
356,123,72540,1,0,3:0:0:0:
321,185,72731,1,0,0:0:0:0:
330,190,72826,1,0,0:0:0:0:
486,287,73016,5,0,0:0:0:0:
483,297,73112,1,0,0:0:0:0:
415,274,73302,1,0,0:0:0:0:
412,284,73398,1,2,0:0:0:0:
343,261,73588,1,0,0:0:0:0:
340,271,73684,1,0,3:0:0:0:
272,249,73874,1,0,0:0:0:0:
269,259,73970,1,0,0:0:0:0:
100,340,74159,69,0,0:0:0:0:
108,333,74254,2,0,B|152:288|138:155|98:213|39:210|23:108|65:47|108:24|168:24|213:48|231:120|205:161|205:161|180:119|122:132,1,561.000010700226
157,123,75397,38,0,P|215:111|274:99,1,120,2|2,0:0|0:0,0:0:0:0:
377,62,75969,2,0,P|354:49|317:53,1,48,2|2,0:0|0:0,0:0:0:0:
448,105,76254,2,0,P|453:81|458:58,1,48,2|2,0:0|0:0,0:0:0:0:
380,139,76540,2,0,P|390:204|400:260,1,120,2|2,0:0|0:0,0:0:0:0:
405,273,77112,1,2,0:0:0:0:
265,166,77397,1,2,0:0:0:0:
133,286,77683,6,0,P|81:308|35:268,1,120,2|2,0:0|0:0,0:0:0:0:
30,255,78254,1,2,0:0:0:0:
135,148,78445,1,2,0:0:0:0:
133,159,78540,1,2,0:0:0:0:
13,69,78731,1,2,0:0:0:0:
15,80,78826,1,2,0:0:0:0:
15,80,79112,6,0,L|68:68,1,48,2|2,0:0|0:0,0:0:0:0:
135,148,79397,2,0,L|188:156,1,48,2|2,0:0|0:0,0:0:0:0:
182,155,79874,5,2,0:0:0:0:
197,149,79969,2,0,P|231:110|203:50,1,120,2|2,0:0|0:0,0:0:0:0:
318,11,80540,2,0,P|313:34|308:60,1,48,2|2,0:0|0:0,0:0:0:0:
388,140,80826,2,0,P|366:135|339:128,1,48,2|2,0:0|0:0,0:0:0:0:
219,228,81112,2,0,P|269:218|348:204,1,120,2|2,0:0|0:0,0:0:0:0:
354,205,81683,1,2,0:0:0:0:
292,353,81969,1,2,0:0:0:0:
477,316,82254,54,0,P|436:308|348:290,1,120,2|2,0:0|0:0,0:0:0:0:
343,288,82826,1,2,0:0:0:0:
265,164,83016,1,2,0:0:0:0:
267,175,83112,1,2,0:0:0:0:
415,103,83302,1,2,0:0:0:0:
386,169,83397,6,0,B|429:188|429:188|465:156,1,96,2|0,0:0|0:0,0:0:0:0:
445,41,83683,2,0,B|401:21|401:21|365:53,1,96,2|2,0:0|0:0,0:0:0:0:
239,5,83969,2,0,P|254:58|270:119,1,96,2|2,0:0|0:0,0:0:0:0:
171,222,84254,2,0,P|179:174|188:127,1,96,2|2,0:0|0:0,0:0:0:0:
14,99,84540,6,0,P|58:51|135:85,1,150,2|0,0:0|0:0,0:0:0:0:
68,219,85112,2,0,P|62:188|49:144,1,60,2|0,0:0|0:0,0:0:0:0:
130,263,85397,2,0,P|122:291|116:321,1,60
182,208,85683,2,0,P|233:165|304:207,1,150,2|0,0:0|0:0,0:0:0:0:
310,219,86254,1,2,0:0:0:0:
467,149,86540,1,0,0:0:0:0:
423,369,86826,6,0,P|413:321|397:218,1,150,2|0,0:0|0:0,0:0:0:0:
410,204,87397,1,2,0:0:0:0:
290,73,87588,1,0,0:0:0:0:
294,92,87683,1,0,0:0:0:0:
468,20,87874,1,0,0:0:0:0:
464,39,87969,1,2,0:0:0:0:
464,39,88254,54,0,P|434:34|404:31,1,60
294,92,88540,2,0,P|322:88|353:84,1,60,2|0,0:0|0:0,0:0:0:0:
294,92,89016,5,0,0:0:0:0:
280,109,89112,2,0,P|217:97|129:84,1,150,2|0,0:0|0:0,0:0:0:0:
13,168,89683,2,0,P|35:153|82:150,1,60,2|0,0:0|0:0,0:0:0:0:
40,13,89969,2,0,P|53:49|62:83,1,60
144,162,90254,2,0,P|128:220|111:314,1,150,2|0,0:0|0:0,0:0:0:0:
113,329,90826,1,2,0:0:0:0:
223,211,91112,1,0,0:0:0:0:
318,367,91397,6,0,P|386:353|465:340,1,150,2|0,0:0|0:0,0:0:0:0:
486,344,91969,1,2,0:0:0:0:
353,215,92159,1,0,0:0:0:0:
358,234,92254,1,0,0:0:0:0:
512,133,92445,1,0,0:0:0:0:
451,173,92540,6,0,B|420:135|420:135|443:93,1,96,2|0,0:0|0:0,0:0:0:0:
512,30,92826,2,0,P|468:20|415:9,1,96
270,92,93112,2,0,P|317:82|368:71,1,96,2|0,0:0|0:0,0:0:0:0:
194,6,93397,2,0,P|172:47|198:91,1,96
269,210,93683,54,0,P|308:154|261:88,1,150,2|0,0:0|0:0,0:0:0:0:
106,172,94254,6,0,B|127:188|127:188|203:176,1,96,2|0,0:0|0:0,0:0:0:0:
354,237,94540,2,0,B|337:215|337:215|260:207,1,96
217,343,94826,6,0,B|187:367|187:367|206:245,1,150,2|0,0:0|0:0,0:0:0:0:
269,208,95397,1,2,0:0:0:0:
119,288,95683,1,0,0:0:0:0:
80,95,95969,6,0,P|136:146|199:108,1,150,2|0,0:0|0:0,0:0:0:0:
238,49,96540,1,2,0:0:0:0:
409,142,96731,53,0,0:0:0:0:
336,125,96826,1,0,0:0:0:0:
156,232,97016,5,0,0:0:0:0:
222,202,97112,2,0,P|264:195|222:214,1,120,2|0,0:0|0:0,0:0:0:0:
355,337,97397,2,0,P|312:330|354:349,1,120,2|0,0:0|0:0,0:0:0:0:
483,196,97683,5,2,0:0:0:0:
373,239,97874,2,0,P|412:217|368:228,1,121.500000463486
249,100,98254,6,0,B|298:112|298:112|339:91|339:91|404:107,1,150,2|0,0:0|0:0,0:0:0:0:
482,16,98826,54,0,B|508:57|508:57|476:108,1,96,2|0,0:0|0:0,0:0:0:0:
439,254,99112,2,0,B|413:213|413:213|445:162,1,96
493,320,99397,6,0,P|447:369|374:334,1,150,2|0,0:0|0:0,0:0:0:0:
366,328,99969,1,2,0:0:0:0:
174,366,100254,1,0,0:0:0:0:
285,177,100540,6,0,B|293:228|264:241|267:249|238:263|249:317,1,150,2|0,0:0|0:0,0:0:0:0:
294,375,101112,1,2,0:0:0:0:
103,306,101302,5,0,0:0:0:0:
174,289,101397,1,0,0:0:0:0:
32,156,101588,53,0,0:0:0:0:
100,184,101683,2,0,P|140:193|102:166,1,120,2|0,0:0|0:0,0:0:0:0:
279,47,101969,2,0,P|234:45|272:69,1,120,2|0,0:0|0:0,0:0:0:0:
389,201,102254,6,0,L|309:179,1,69.0000013160706,8|0,0:0|0:0,0:0:0:0:
231,156,102445,1,2,0:0:0:0:
231,156,102731,5,2,0:0:0:0:
222,172,102826,2,0,P|273:163|321:155,1,89.9999972534181,8|0,0:0|0:0,0:0:0:0:
438,122,103397,6,0,B|448:90|428:64|428:64|394:72|384:120,1,120,2|0,0:0|0:0,0:0:0:0:
456,251,103683,2,0,B|486:261|510:236|510:236|497:205|465:199,1,120
310,156,103969,54,0,P|315:191|326:252,1,89.9999972534181,8|0,0:0|0:0,0:0:0:0:
340,320,104540,1,2,0:0:0:0:
340,320,104826,1,0,0:0:0:0:
109,281,105112,6,0,P|143:248|189:256,1,89.9999972534181,8|0,0:0|0:0,0:0:0:0:
255,280,105683,1,2,0:0:0:0:
408,151,105874,5,0,0:0:0:0:
389,226,105969,1,0,0:0:0:0:
246,51,106159,5,0,0:0:0:0:
267,125,106254,2,0,B|227:151|219:181|219:181|224:145|191:100,1,150,8|0,0:0|0:0,0:0:0:0:
26,246,106540,2,0,B|48:208|41:173|41:173|52:207|93:225,1,150,2|0,0:0|0:0,0:0:0:0:
323,245,106826,53,2,0:0:0:0:
202,316,107016,2,0,B|221:275|251:266|251:266|219:271|181:251,1,144
356,313,107397,6,0,P|398:299|449:285,1,89.9999972534181,8|0,0:0|0:0,0:0:0:0:
512,109,107969,6,0,B|505:164|505:164|497:173|497:173|488:241,1,120,2|0,0:0|0:0,0:0:0:0:
300,165,108254,2,0,B|352:171|352:171|361:179|361:179|416:186,1,120
235,240,108540,6,0,P|204:205|219:156,1,89.9999972534181,8|0,0:0|0:0,0:0:0:0:
256,97,109112,1,2,0:0:0:0:
256,97,109397,1,0,0:0:0:0:
88,295,109683,54,0,L|76:235,1,60,8|0,0:0|0:0,0:0:0:0:
247,37,109969,6,0,L|255:96,1,60,8|0,0:0|0:0,0:0:0:0:
396,357,110254,6,0,L|406:290,1,60
467,185,110445,5,0,0:0:0:0:
470,194,110540,2,0,B|415:219|415:219|368:180,1,120
426,105,110826,53,2,0:0:0:0:
58,267,111969,54,0,B|11:252|-13:323|7:376|94:384|152:330|145:230|145:230|175:310|224:303,1,419.999987182618,6|0,0:0|0:0,0:0:0:0:
354,352,112540,2,0,B|312:365|312:365|326:275|326:275|314:264|314:264|304:181|304:181|320:166|320:166|334:91|334:91|305:52,1,375,8|0,0:0|0:0,0:0:0:0:
176,137,113112,6,0,B|205:120|204:87|204:87|219:118|271:121,1,120,2|0,0:0|0:0,0:0:0:0:
375,218,113683,6,0,P|334:206|279:196,1,67.5000025749208,8|0,0:0|0:0,0:0:0:0:
187,258,113969,2,0,P|210:250|239:246,1,45.0000017166138,0|0,3:0|0:0,0:0:0:0:
121,196,114159,1,0,0:0:0:0:
95,349,114254,70,0,B|45:375|45:375|71:256|71:256|44:205|44:205|61:147|61:147|44:62,1,375,2|0,0:0|0:0,0:0:0:0:
203,27,114826,6,0,B|248:66|248:66|185:89,1,120,8|0,0:0|0:0,0:0:0:0:
411,123,115112,2,0,B|365:83|365:83|422:62,1,120,0|0,3:0|0:0,0:0:0:0:
494,238,115397,6,0,L|488:208,1,30,0|0,3:0|0:0,0:0:0:0:
425,269,115493,2,0,L|425:239,1,30,0|0,3:0|0:0,0:0:0:0:
357,246,115588,2,0,L|361:216,1,30,0|0,3:0|0:0,0:0:0:0:
295,198,115683,70,0,L|291:228,1,30,0|0,3:0|0:0,0:0:0:0:
225,176,115778,2,0,L|226:206,1,30,0|0,3:0|0:0,0:0:0:0:
158,206,115874,2,0,L|164:236,1,30,0|0,3:0|0:0,0:0:0:0:
94,173,115969,6,0,P|105:123|117:44,1,120,8|0,0:0|0:0,0:0:0:0:
36,234,116540,6,0,B|85:287|61:359|61:359|108:311|174:297|184:348|248:366|306:297,1,375,2|0,0:0|0:0,0:0:0:0:
485,309,117112,70,0,P|459:298|419:302,1,60,2|0,0:0|0:0,0:0:0:0:
390,225,117302,2,0,P|363:228|329:252,1,60,2|2,0:3|0:3,0:0:0:0:
280,36,117683,6,0,P|269:60|277:101,1,60,2|0,0:0|0:0,0:0:0:0:
204,136,117874,2,0,P|206:161|234:193,1,60,2|2,0:3|0:3,0:0:0:0:
511,180,118254,6,0,B|431:172|412:81|412:81|383:167|297:162,1,300,8|0,0:0|0:0,0:0:0:0:
134,69,118826,70,0,B|193:77|234:28|234:28|215:89|215:89|235:134|235:134|175:203|239:296,1,375,2|0,0:0|0:0,0:0:0:0:
298,320,119397,5,8,0:0:0:0:
306,317,119682,1,0,0:0:0:0:
0,369,119969,6,0,B|38:368|118:325|162:242|76:179|29:188|-30:261|-9:323|90:358|218:323,1,419.999987182618,2|0,0:0|0:0,0:0:0:0:
241,199,120540,70,0,P|206:207|158:218,1,62.9999980773926,8|0,0:0|0:0,0:0:0:0:
306,317,120825,1,0,0:0:0:0:
370,176,120968,1,0,0:0:0:0:
512,269,121112,6,0,B|442:263|358:327|426:379|458:392|500:330|475:289|438:274|407:242|407:242|477:192|408:73,1,419.999987182618,6|0,0:0|0:0,0:0:0:0:
510,46,121683,2,0,B|454:38|454:38|420:8|420:8|382:29|382:29|312:11|312:11|281:42|281:42|237:23|237:23|163:51,1,375,8|0,0:0|0:0,0:0:0:0:
27,126,122254,6,0,B|55:111|55:77|55:77|68:107|102:111,1,120,2|0,0:0|0:0,0:0:0:0:
179,227,122826,70,0,P|192:173|207:128,1,67.5000025749208,8|0,0:0|0:0,0:0:0:0:
78,272,123112,2,0,P|103:277|134:285,1,45.0000017166138,0|0,3:0|0:0,0:0:0:0:
58,197,123302,1,0,0:0:0:0:
16,353,123397,6,0,B|37:381|37:381|122:364|122:364|136:350|136:350|218:363|218:363|284:333|284:333|371:363,1,375,2|0,0:0|0:0,0:0:0:0:
510,265,123969,6,0,B|489:322|489:322|449:279,1,120,8|0,0:0|0:0,0:0:0:0:
280,197,124254,2,0,B|295:255|295:255|339:216,1,120
482,77,124540,70,0,L|479:107,1,30,0|0,3:0|0:0,0:0:0:0:
413,52,124635,2,0,L|416:82,1,30,0|0,3:0|0:0,0:0:0:0:
347,79,124731,2,0,L|354:109,1,30,0|0,3:0|0:0,0:0:0:0:
282,118,124826,6,0,L|276:89,1,30,0|0,3:0|0:0,0:0:0:0:
216,148,124921,2,0,L|215:119,1,30,0|0,3:0|0:0,0:0:0:0:
147,123,125016,2,0,L|151:93,1,30,0|0,3:0|0:0,0:0:0:0:
108,33,125112,6,0,P|51:10|6:60,1,120,8|0,0:0|0:0,0:0:0:0:
155,199,125683,70,0,B|270:147|258:76|208:44|160:93|153:135|295:205|222:289,1,375,2|0,0:0|0:0,0:0:0:0:
17,376,126254,6,0,P|38:359|78:352,1,60,2|0,0:0|0:0,0:0:0:0:
86,271,126445,2,0,P|112:267|151:281,1,60,2|2,0:3|0:3,0:0:0:0:
256,95,126826,6,0,P|266:120|261:161,1,60,2|0,0:0|0:0,0:0:0:0:
336,190,127016,2,0,P|331:216|308:251,1,60,2|2,0:3|0:3,0:0:0:0:
493,359,127397,70,0,B|422:371|357:355|376:268|290:252|221:289,1,300,8|0,0:0|0:0,0:0:0:0:
82,122,127969,6,0,P|128:159|190:123,1,120,8|0,0:0|0:0,0:0:0:0:
269,36,128254,2,0,P|261:66|253:118,1,60,0|0,3:0|0:0,0:0:0:0:
333,280,128540,6,0,P|321:221|307:148,1,120,8|0,0:0|0:0,0:0:0:0:
460,218,128826,2,0,P|431:225|403:236,1,60,0|0,3:0|0:0,0:0:0:0:
169,329,129112,70,0,B|216:368|216:368|286:333,1,120,8|0,0:0|0:0,0:0:0:0:
94,276,129397,2,0,P|65:286|16:298,1,60,0|0,3:0|0:0,0:0:0:0:
190,117,129683,6,0,P|182:168|171:235,1,104.999996795654,8|0,0:0|0:0,0:0:0:0:
170,242,130254,1,6,0:0:0:0:
