osu file format v14

[General]
AudioFilename: audio.mp3
AudioLeadIn: 0
PreviewTime: 93999
Countdown: 0
SampleSet: None
StackLeniency: 0.7
Mode: 0
LetterboxInBreaks: 0
WidescreenStoryboard: 0

[Editor]
Bookmarks: 2285,20571,93714,111999
DistanceSpacing: 2.1
BeatDivisor: 12
GridSize: 4
TimelineZoom: 0.7000002

[Metadata]
Title:Happy Welus
TitleUnicode:Happy Welus
Artist:IAHN
ArtistUnicode:IAHN
Creator:Loony
Version:Happy Birthday!
Source:
Tags:
BeatmapID:1071556
BeatmapSetID:503656

[Difficulty]
HPDrainRate:6
CircleSize:4
OverallDifficulty:5
ApproachRate:8
SliderMultiplier:1.8
SliderTickRate:2

[Events]
//Background and Video events
0,0,"1876-thewallpaper.jpg",0,0
//Break Periods
2,57342,65535
//Storyboard Layer 0 (Background)
//Storyboard Layer 1 (Fail)
//Storyboard Layer 2 (Pass)
//Storyboard Layer 3 (Foreground)
//Storyboard Sound Samples

[TimingPoints]
0,571.428571428571,4,1,0,30,1,0
2285,-100,4,2,0,60,0,0
20571,-80,4,1,0,80,0,0
36571,-80,4,1,0,60,0,0
38714,-80,4,1,0,10,0,0
38857,-74.0740740740741,4,1,0,100,0,1
39285,-74.0740740740741,4,1,0,10,0,1
39428,-62.5,4,1,0,100,0,1
39857,-62.5,4,1,0,10,0,1
39999,-66.6666666666667,4,1,0,100,0,1
40428,-66.6666666666667,4,1,0,10,0,1
40571,-66.6666666666667,4,1,0,100,0,1
40714,-66.6666666666667,4,1,0,10,0,1
40857,-66.6666666666667,4,1,0,100,0,1
41571,-66.6666666666667,4,1,0,10,0,1
41714,-66.6666666666667,4,1,0,100,0,1
42857,-62.5,4,1,0,100,0,1
43285,-62.5,4,1,0,10,0,1
43428,-74.0740740740741,4,1,0,100,0,1
43857,-74.0740740740741,4,1,0,10,0,1
43999,-66.6666666666667,4,1,0,100,0,1
45571,-66.6666666666667,4,1,0,10,0,1
45714,-62.5,4,1,0,100,0,1
46142,-62.5,4,1,0,10,0,1
46285,-62.5,4,1,0,100,0,1
47428,-66.6666666666667,4,1,0,100,0,1
47571,-66.6666666666667,4,1,0,10,0,1
47714,-66.6666666666667,4,1,0,100,0,1
47999,-80,4,1,0,100,0,1
48428,-80,4,1,0,10,0,1
48571,-62.5,4,1,0,100,0,1
48999,-62.5,4,1,0,10,0,1
49142,-66.6666666666667,4,1,0,100,0,1
49571,-66.6666666666667,4,1,0,10,0,1
49714,-66.6666666666667,4,1,0,100,0,1
49857,-66.6666666666667,4,1,0,10,0,1
49999,-66.6666666666667,4,1,0,100,0,1
50285,-66.6666666666667,4,1,0,100,0,1
50714,-66.6666666666667,4,1,0,10,0,1
50857,-66.6666666666667,4,1,0,100,0,1
52428,-66.6666666666667,4,1,0,10,0,1
52571,-62.5,4,1,0,100,0,1
53238,-62.5,4,1,0,10,0,1
53333,-62.5,4,1,0,100,0,1
53428,-62.5,4,1,0,10,0,1
53523,-62.5,4,1,0,100,0,1
53619,-62.5,4,1,0,10,0,1
53714,-62.5,4,1,0,100,0,1
53809,-62.5,4,1,0,10,0,1
53904,-62.5,4,1,0,100,0,1
53999,-62.5,4,1,0,10,0,1
54095,-62.5,4,1,0,100,0,1
54190,-62.5,4,1,0,10,0,1
54285,-100,4,1,0,100,0,1
54714,-100,4,1,0,10,0,1
54857,-66.6666666666667,4,1,0,100,0,1
57142,-80,4,1,0,30,0,0
66285,-100,4,1,0,30,0,0
75428,-80,4,1,0,60,0,0
93714,-74.0740740740741,4,1,0,80,0,0
109714,-74.0740740740741,4,1,0,60,0,0
111999,-71.4285714285714,4,1,0,100,0,1
112428,-71.4285714285714,4,1,0,10,0,1
112571,-55.5555555555556,4,1,0,100,0,1
112999,-55.5555555555556,4,1,0,10,0,1
113142,-62.5,4,1,0,100,0,1
113571,-62.5,4,1,0,10,0,1
113714,-62.5,4,1,0,100,0,1
113857,-62.5,4,1,0,10,0,1
113999,-62.5,4,1,0,100,0,1
114714,-62.5,4,1,0,10,0,1
114857,-62.5,4,1,0,100,0,1
115999,-55.5555555555556,4,1,0,100,0,1
116428,-55.5555555555556,4,1,0,10,0,1
116571,-54.054054054054,4,1,0,100,0,1
116999,-54.054054054054,4,1,0,10,0,1
117142,-54.054054054054,4,1,0,100,0,1
117238,-54.054054054054,4,1,0,10,0,1
117333,-54.054054054054,4,1,0,100,0,1
117428,-54.054054054054,4,1,0,10,0,1
117523,-54.054054054054,4,1,0,100,0,1
117619,-54.054054054054,4,1,0,10,0,1
117714,-54.054054054054,4,1,0,100,0,1
117809,-54.054054054054,4,1,0,10,0,1
117904,-54.054054054054,4,1,0,100,0,1
117999,-54.054054054054,4,1,0,10,0,1
118095,-54.054054054054,4,1,0,100,0,1
118190,-54.054054054054,4,1,0,10,0,1
118285,-62.5,4,1,0,100,0,1
118714,-62.5,4,1,0,10,0,1
118857,-55.5555555555556,4,1,0,100,0,1
119285,-55.5555555555556,4,1,0,10,0,1
119428,-55.5555555555556,4,1,0,100,0,1
119999,-62.5,4,1,0,100,0,1
120714,-62.5,4,1,0,10,0,1
120857,-62.5,4,1,0,100,0,1
121142,-71.4285714285714,4,1,0,100,0,1
121571,-71.4285714285714,4,1,0,10,0,1
121714,-55.5555555555556,4,1,0,100,0,1
122142,-55.5555555555556,4,1,0,10,0,1
122285,-62.5,4,1,0,100,0,1
122714,-62.5,4,1,0,10,0,1
122857,-62.5,4,1,0,100,0,1
122999,-62.5,4,1,0,10,0,1
123142,-62.5,4,1,0,100,0,1
123428,-71.4285714285714,4,1,0,100,0,1
123857,-71.4285714285714,4,1,0,10,0,1
123999,-71.4285714285714,4,1,0,100,0,1
125571,-71.4285714285714,4,1,0,10,0,1
125714,-55.5555555555556,4,1,0,100,0,1
126142,-55.5555555555556,4,1,0,10,0,1
126285,-55.5555555555556,4,1,0,100,0,1
126380,-55.5555555555556,4,1,0,10,0,1
126476,-55.5555555555556,4,1,0,100,0,1
126571,-55.5555555555556,4,1,0,10,0,1
126666,-55.5555555555556,4,1,0,100,0,1
126761,-55.5555555555556,4,1,0,10,0,1
126857,-55.5555555555556,4,1,0,100,0,1
126952,-55.5555555555556,4,1,0,10,0,1
127047,-55.5555555555556,4,1,0,100,0,1
127142,-55.5555555555556,4,1,0,10,0,1
127238,-55.5555555555556,4,1,0,100,0,1
127333,-55.5555555555556,4,1,0,10,0,1
127428,-100,4,1,0,100,0,1
127857,-100,4,1,0,10,0,1
127999,-100,4,1,0,100,0,1
130285,-80,4,1,0,30,0,0

[Colours]
Combo1 : 255,255,128
Combo2 : 0,128,192
Combo3 : 128,255,0
Combo4 : 255,23,180
Combo5 : 255,128,0
Combo6 : 0,204,204

[HitObjects]
36,8,2285,5,0,0:0:0:0:
180,20,2571,1,0,0:0:0:0:
99,143,2714,1,0,0:0:0:0:
99,143,2857,2,0,L|120:188,1,45
28,216,3142,2,0,L|20:172,1,45
172,104,3428,6,0,P|240:139|262:202,1,135
200,264,3999,1,0,0:0:0:0:
348,352,4285,1,0,0:0:0:0:
180,356,4571,6,0,P|148:344|112:288,1,90
32,192,4999,1,0,0:0:0:0:
32,192,5142,1,0,0:0:0:0:
40,336,5285,1,0,0:0:0:0:
40,336,5428,1,0,0:0:0:0:
112,164,5571,1,0,0:0:0:0:
112,164,5714,6,0,L|180:172,1,45
256,260,5999,2,0,L|232:216,1,45
340,288,6285,2,0,L|396:276,2,45
271,344,6714,1,0,0:0:0:0:
272,344,6857,5,0,0:0:0:0:
300,168,7142,1,0,0:0:0:0:
300,168,7285,2,0,P|340:156|404:180,1,90
464,220,7714,2,0,L|480:148,1,45
436,92,7999,6,0,P|382:62|311:47,1,135
216,36,8571,1,0,0:0:0:0:
276,192,8857,1,0,0:0:0:0:
112,160,9142,6,0,L|124:252,1,90
208,292,9571,1,0,0:0:0:0:
208,292,9714,1,0,0:0:0:0:
224,120,9857,1,0,0:0:0:0:
224,120,9999,1,0,0:0:0:0:
116,68,10142,1,0,0:0:0:0:
116,68,10285,6,0,P|75:73|32:108,1,90
72,268,10714,2,0,L|96:328,1,45
24,196,10999,1,0,0:0:0:0:
24,196,11142,2,0,L|4:236,1,45
112,160,11428,5,0,0:0:0:0:
264,244,11714,1,0,0:0:0:0:
264,244,11857,2,0,L|312:272,1,45
176,288,12142,1,0,0:0:0:0:
176,288,12285,2,0,P|172:268|168:232,1,45
216,160,12571,6,0,P|256:158|304:126,1,90
116,68,12999,1,0,0:0:0:0:
116,68,13142,1,0,0:0:0:0:
324,8,13428,1,0,0:0:0:0:
444,180,13714,6,0,L|440:272,1,90
380,368,14142,1,0,0:0:0:0:
472,348,14285,1,0,0:0:0:0:
304,312,14428,1,0,0:0:0:0:
224,360,14571,1,0,0:0:0:0:
224,264,14714,1,0,0:0:0:0:
64,360,14857,6,0,L|54:316,1,45
123,243,15142,2,0,L|124:288,1,45
48,228,15428,1,0,0:0:0:0:
177,195,15571,2,0,P|197:185|219:181,2,45
104,168,15999,6,0,L|92:40,1,90
284,88,16571,2,0,P|303:92|328:92,1,45
391,42,16857,2,0,P|413:42|435:47,1,45
470,199,17142,6,0,P|413:192|361:220,1,90
320,276,17571,1,0,0:0:0:0:
320,276,17714,1,0,0:0:0:0:
328,91,17999,1,0,0:0:0:0:
201,192,18285,6,0,L|293:184,1,90
421,116,18714,1,0,0:0:0:0:
328,91,18857,1,0,0:0:0:0:
383,203,18999,1,0,0:0:0:0:
320,276,19142,1,0,0:0:0:0:
456,332,19285,1,0,0:0:0:0:
456,332,19428,5,0,0:0:0:0:
268,340,19714,1,0,0:0:0:0:
236,264,19857,2,0,P|212:224|184:208,1,45
119,248,20142,2,0,P|104:264|86:277,1,45
148,156,20428,1,0,0:0:0:0:
148,156,20571,6,0,P|191:134|263:143,1,112.5
368,164,20999,1,0,0:0:0:0:
332,52,21142,2,0,L|320:112,1,56.25
376,288,21428,2,0,L|389:233,1,56.25
412,57,21714,6,0,P|376:97|321:108,1,112.5
227,35,22142,1,0,0:0:0:0:
113,66,22285,1,0,0:0:0:0:
320,107,22571,1,0,0:0:0:0:
84,320,22857,6,0,L|90:204,1,112.5
36,56,23285,1,0,0:0:0:0:
138,140,23428,2,0,P|156:160|165:187,1,56.25
20,156,23714,2,0,P|56:136|76:112,1,56.25
192,80,23999,5,0,0:0:0:0:
428,92,24285,1,0,0:0:0:0:
448,208,24428,1,0,0:0:0:0:
448,208,24571,2,0,P|408:208|372:192,2,56.25
500,100,24999,1,0,0:0:0:0:
416,16,25142,6,0,P|368:44|360:128,1,112.5
348,272,25571,1,0,0:0:0:0:
248,336,25714,2,0,P|200:336|172:328,1,56.25
96,264,25999,2,0,P|144:264|172:272,1,56.25
248,336,26285,6,0,L|244:188,1,112.5
152,148,26714,1,0,0:0:0:0:
152,148,26857,2,0,L|120:208,1,56.25
256,100,27142,2,0,L|296:56,1,56.25
164,36,27428,6,0,P|120:16|36:44,1,112.5
12,176,27857,1,0,0:0:0:0:
104,104,27999,1,0,0:0:0:0:
52,252,28142,2,0,L|28:316,2,56.25
144,176,28571,6,0,P|168:192|204:200,1,56.25
276,116,28857,2,0,P|320:96|360:96,1,56.25
308,232,29142,1,0,0:0:0:0:
248,36,29285,1,0,0:0:0:0:
200,124,29428,1,0,0:0:0:0:
384,148,29571,1,0,0:0:0:0:
384,148,29714,6,0,P|412:200|464:220,1,112.5
480,336,30142,1,0,0:0:0:0:
372,288,30285,2,0,L|316:292,1,56.25
396,380,30571,2,0,L|340:384,1,56.25
212,356,30857,6,0,P|216:284|212:228,1,112.5
168,136,31285,1,0,0:0:0:0:
128,288,31428,1,0,0:0:0:0:
280,152,31714,1,0,0:0:0:0:
108,312,31999,6,0,P|48:324|20:280,1,112.5
88,192,32428,1,0,0:0:0:0:
88,192,32571,1,0,0:0:0:0:
88,192,32714,2,0,P|132:216|148:236,2,56.25
32,56,33142,5,0,0:0:0:0:
268,48,33428,1,0,0:0:0:0:
244,164,33571,2,0,P|200:140|184:120,2,56.25
356,124,33999,1,0,0:0:0:0:
336,240,34142,1,0,0:0:0:0:
336,240,34285,6,0,P|344:308|308:352,1,112.5
308,176,34714,1,0,0:0:0:0:
420,212,34857,2,0,P|424:256|436:276,1,56.25
476,156,35142,2,0,P|472:112|460:92,1,56.25
316,32,35428,6,0,L|196:28,1,112.5
84,24,35857,1,0,0:0:0:0:
84,24,35999,1,0,0:0:0:0:
316,32,36285,1,0,0:0:0:0:
448,228,36571,5,0,0:0:0:0:
91,301,36857,1,0,0:0:0:0:
320,176,37142,1,0,0:0:0:0:
243,266,37285,1,0,0:0:0:0:
203,154,37428,1,0,0:0:0:0:
256,192,37714,12,0,38714,0:0:0:0:
248,140,38857,6,0,P|168:116|104:224,1,182.250000695229
227,238,39428,2,0,B|304:248|340:184|340:184|336:132|384:104,1,216
464,28,39999,6,0,B|476:76|468:116|468:116|484:136|484:136|472:180|488:236,1,202.500007724762
388,328,40571,2,0,P|436:344|456:344,1,67.5000025749208
348,244,40857,1,0,0:0:0:0:
264,356,40999,1,0,0:0:0:0:
40,304,41142,6,0,P|116:336|208:272,1,202.500007724762
256,192,41714,2,0,P|293:177|329:183,1,67.5000025749208
172,136,41999,2,0,P|134:121|98:127,1,67.5000025749208
12,204,42285,5,0,0:0:0:0:
12,168,42380,1,0,0:0:0:0:
16,136,42476,1,0,0:0:0:0:
24,104,42571,1,0,0:0:0:0:
40,72,42666,1,0,0:0:0:0:
68,52,42761,1,0,0:0:0:0:
100,40,42857,2,0,B|136:36|172:48|172:48|232:36|232:36|272:48|324:36,1,216
380,240,43428,6,0,P|336:176|412:108,1,182.250000695229
344,336,43999,2,0,P|299:329|263:304,2,90.0000034332277
227,207,44571,6,0,P|186:189|141:191,2,90.0000034332277
433,349,45142,2,0,B|501:309|481:237|481:237|497:197|468:167,1,202.500007724762
253,23,45714,6,0,P|193:108|227:207,1,216
472,172,46285,1,0,0:0:0:0:
312,276,46571,1,0,0:0:0:0:
304,83,46857,6,0,P|249:121|172:112,1,144
40,68,47428,2,0,L|24:156,1,67.5000025749208
128,32,47714,1,0,0:0:0:0:
204,248,47857,1,0,0:0:0:0:
204,248,47999,6,0,B|229:250|246:267|246:267|252:292|264:312|296:336|324:336|353:324,1,168.75
223,149,48571,2,0,P|132:181|112:292,1,216
300,216,49142,6,0,B|320:184|312:152|312:152|296:140|296:140|328:96|324:16,1,202.500007724762
193,91,49714,2,0,P|205:127|237:159,1,67.5000025749208
232,8,49999,1,0,0:0:0:0:
416,96,50142,1,0,0:0:0:0:
388,287,50285,6,0,P|301:304|300:216,1,202.500007724762
469,252,50857,2,0,P|473:304|465:344,1,67.5000025749208
332,132,51142,2,0,P|328:80|336:40,1,67.5000025749208
472,40,51428,5,0,0:0:0:0:
480,76,51523,1,0,0:0:0:0:
480,112,51619,1,0,0:0:0:0:
468,144,51714,1,0,0:0:0:0:
448,176,51809,1,0,0:0:0:0:
420,200,51904,1,0,0:0:0:0:
396,228,51999,2,0,B|344:240|304:208|304:208|244:200|204:240,1,202.500007724762
60,340,52571,6,0,B|60:304|48:280|48:280|48:248|72:224|72:224|36:184|52:112,1,216
200,56,53142,2,0,L|260:32,1,48
268,180,53333,2,0,L|288:248,1,48
196,348,53523,2,0,L|180:280,1,48
164,156,53714,6,0,P|192:136|224:132,1,48
408,128,53904,2,0,P|436:136|476:132,1,48
320,36,54095,2,0,L|312:104,1,48
352,336,54285,2,0,L|360:200,1,135
132,232,54857,5,0,0:0:0:0:
132,232,55142,1,0,0:0:0:0:
456,136,55428,5,0,0:0:0:0:
456,136,55714,1,0,0:0:0:0:
64,136,55999,5,0,0:0:0:0:
456,136,56285,1,0,0:0:0:0:
284,36,56571,1,0,0:0:0:0:
312,316,56857,1,0,0:0:0:0:
236,172,57142,5,0,0:0:0:0:
120,352,66285,6,0,L|224:340,1,90
347,338,66714,2,0,L|304:328,1,45
424,280,66999,2,0,L|372:248,1,45
496,224,67285,1,0,0:0:0:0:
496,224,67428,6,0,P|452:172|472:92,1,135
484,20,67999,1,0,0:0:0:0:
316,112,68285,1,0,0:0:0:0:
36,120,68571,6,0,L|52:224,1,90
160,284,68999,1,0,0:0:0:0:
68,304,69142,1,0,0:0:0:0:
152,160,69285,1,0,0:0:0:0:
240,192,69428,1,0,0:0:0:0:
224,100,69571,1,0,0:0:0:0:
224,100,69714,6,0,P|256:108|280:128,1,45
344,212,69999,2,0,P|368:224|404:228,1,45
384,100,70285,1,0,0:0:0:0:
384,304,70428,2,0,P|340:296|292:264,1,90
240,192,70857,6,0,P|252:256|224:332,1,135
140,352,71428,2,0,L|128:288,1,45
12,344,71714,2,0,L|40:296,1,45
96,132,71999,6,0,L|88:228,1,90
36,304,72428,1,0,0:0:0:0:
16,212,72571,1,0,0:0:0:0:
200,256,72857,1,0,0:0:0:0:
192,48,73142,6,0,P|236:72|304:64,1,90
368,28,73571,2,0,P|412:20|444:24,1,45
360,128,73857,2,0,P|320:152|292:156,1,45
436,96,74142,1,0,0:0:0:0:
436,96,74285,6,0,L|444:200,1,90
428,280,74714,1,0,0:0:0:0:
296,312,74857,1,0,0:0:0:0:
376,352,74999,1,0,0:0:0:0:
224,360,75142,1,0,0:0:0:0:
212,268,75285,1,0,0:0:0:0:
104,352,75428,6,0,P|48:348|28:268,1,112.5
128,244,75857,1,0,0:0:0:0:
128,244,75999,1,0,0:0:0:0:
24,184,76142,1,0,0:0:0:0:
24,184,76285,1,0,0:0:0:0:
152,104,76428,1,0,0:0:0:0:
152,104,76571,6,0,P|92:120|56:36,1,168.75
172,20,77142,1,0,0:0:0:0:
212,268,77428,1,0,0:0:0:0:
384,348,77714,6,0,B|420:240|420:240|440:296,1,168.75
438,291,78285,1,0,0:0:0:0:
320,288,78428,1,0,0:0:0:0:
320,288,78571,1,0,0:0:0:0:
380,184,78714,1,0,0:0:0:0:
380,184,78857,6,0,P|424:148|436:88,1,112.5
312,20,79285,1,0,0:0:0:0:
308,168,79428,1,0,0:0:0:0:
436,95,79571,2,0,P|462:85|490:82,2,56.25
236,128,79999,6,0,B|208:116|192:96|192:96|168:116|120:124,1,112.5
44,188,80428,2,0,L|32:120,1,56.25
152,236,80714,2,0,L|144:304,2,56.25
64,356,81142,2,0,B|108:352|108:352|140:372|176:356|176:356|236:352,1,168.75
348,344,81714,1,0,0:0:0:0:
460,136,81999,1,0,0:0:0:0:
484,336,82285,6,0,P|428:312|396:244,1,112.5
360,80,82714,1,0,0:0:0:0:
252,220,82857,1,0,0:0:0:0:
364,184,83000,1,0,0:0:0:0:
258,26,83142,1,0,0:0:0:0:
258,26,83285,1,0,0:0:0:0:
258,26,83428,2,0,L|276:80,1,56.25
216,188,83714,6,0,L|271:176,2,56.25
152,80,84143,2,0,L|132:132,2,56.25
60,8,84571,6,0,L|20:116,1,112.5
32,276,84999,1,0,0:0:0:0:
32,276,85142,1,0,0:0:0:0:
128,204,85285,1,0,0:0:0:0:
128,204,85428,1,0,0:0:0:0:
232,328,85571,1,0,0:0:0:0:
232,328,85714,6,0,P|180:352|120:336,1,112.5
208,196,86142,1,0,0:0:0:0:
335,245,86285,2,0,P|371:273|379:293,1,56.25
192,168,86571,2,0,P|168:144|160:108,1,56.25
295,181,86857,6,0,B|263:205|255:241|267:273|267:273|231:329,1,168.75
127,340,87428,1,0,0:0:0:0:
332,356,87571,1,0,0:0:0:0:
332,356,87714,1,0,0:0:0:0:
168,248,87857,1,0,0:0:0:0:
240,128,87999,6,0,L|244:72,1,56.25
372,92,88285,2,0,L|376:32,1,56.25
456,164,88571,1,0,0:0:0:0:
456,164,88714,2,0,P|480:216|456:284,1,112.5
388,352,89142,6,0,B|340:352|340:352|321:354|321:354|256:356,1,112.5
232,244,89571,2,0,P|285:228|314:212,1,56.25
146,193,89856,2,0,P|121:195|85:214,1,56.25
232,244,90142,1,0,0:0:0:0:
212,128,90285,5,0,0:0:0:0:
164,336,90571,1,0,0:0:0:0:
164,336,90714,1,0,0:0:0:0:
164,336,90857,2,0,P|104:328|56:372,1,112.5
170,173,91428,6,0,P|202:125|186:61,1,112.5
60,188,91857,1,0,0:0:0:0:
60,188,91999,1,0,0:0:0:0:
232,244,92142,1,0,0:0:0:0:
232,244,92285,1,0,0:0:0:0:
240,360,92428,1,0,0:0:0:0:
336,292,92571,6,0,L|400:296,1,56.25
312,128,92857,2,0,L|263:155,1,56.25
384,204,93142,1,0,0:0:0:0:
150,152,93285,1,0,0:0:0:0:
90,244,93428,1,0,0:0:0:0:
118,36,93571,1,0,0:0:0:0:
150,152,93714,6,0,P|202:172|263:155,1,121.500000463486
364,76,94142,1,0,0:0:0:0:
384,204,94285,2,0,L|428:284,1,60.7500002317429
263,154,94571,2,0,L|227:82,1,60.7500002317429
432,24,94857,6,0,P|448:88|416:144,1,121.500000463486
328,264,95285,1,0,0:0:0:0:
440,356,95428,1,0,0:0:0:0:
328,124,95714,1,0,0:0:0:0:
86,186,95999,6,0,L|208:196,1,121.500000463486
376,320,96428,1,0,0:0:0:0:
376,320,96571,2,0,P|304:344|264:336,1,60.7500002317429
136,304,96857,2,0,P|165:312|192:328,1,60.7500002317429
40,344,97142,5,0,0:0:0:0:
16,88,97428,1,0,0:0:0:0:
132,144,97571,2,0,P|168:118|194:110,2,60.7500002317429
72,216,97999,1,0,0:0:0:0:
96,48,98142,1,0,0:0:0:0:
96,48,98285,6,0,P|176:52|216:40,1,121.500000463486
316,36,98714,1,0,0:0:0:0:
428,184,98857,2,0,P|392:152|380:120,1,60.7500002317429
440,28,99142,2,0,P|476:60|488:92,1,60.7500002317429
292,132,99428,6,0,B|244:136|244:136|228:148|228:148|168:152,1,121.500000463486
52,200,99857,1,0,0:0:0:0:
52,200,99999,1,0,0:0:0:0:
252,240,100285,1,0,0:0:0:0:
133,92,100571,6,0,P|104:145|148:218,1,121.500000463486
228,348,100999,1,0,0:0:0:0:
100,352,101142,1,0,0:0:0:0:
100,352,101285,2,0,L|20:344,2,60.7500002317429
180,249,101714,6,0,P|193:222|196:192,1,60.7500002317429
8,180,101999,2,0,L|51:224,1,60.7500002317429
20,96,102285,1,0,0:0:0:0:
176,88,102428,1,0,0:0:0:0:
124,200,102571,1,0,0:0:0:0:
108,24,102714,1,0,0:0:0:0:
272,36,102857,6,0,B|332:52|332:52|412:44,1,121.500000463486
484,32,103285,1,0,0:0:0:0:
460,156,103428,2,0,B|472:188|472:188|472:228,1,60.7500002317429
336,164,103714,2,0,B|324:196|324:196|307:216,1,60.7500002317429
288,92,103999,6,0,P|350:80|412:116,1,121.500000463486
248,168,104428,1,0,0:0:0:0:
392,256,104571,2,0,L|443:288,1,60.7500002317429
318,321,104857,2,0,L|266:288,1,60.7500002317429
443,288,105142,5,0,0:0:0:0:
176,344,105428,1,0,0:0:0:0:
50,272,105571,2,0,L|64:332,1,60.7500002317429
112,160,105856,2,0,L|136:96,2,60.7500002317429
32,60,106285,5,0,0:0:0:0:
284,88,106571,1,0,0:0:0:0:
284,88,106714,2,0,L|280:168,1,60.7500002317429
252,272,106999,2,0,P|304:204|344:196,1,121.500000463486
420,288,107428,6,0,P|368:356|328:364,1,121.500000463486
336,280,107857,1,0,0:0:0:0:
420,164,107999,2,0,L|416:96,1,60.7500002317429
480,236,108285,2,0,P|496:268|496:316,1,60.7500002317429
223,112,108571,6,0,L|344:124,1,121.500000463486
484,64,108999,1,0,0:0:0:0:
292,16,109142,1,0,0:0:0:0:
316,324,109428,1,0,0:0:0:0:
36,192,109714,5,0,0:0:0:0:
56,232,109999,1,0,0:0:0:0:
76,268,110285,1,0,0:0:0:0:
88,140,110428,1,0,0:0:0:0:
152,252,110571,1,0,0:0:0:0:
256,192,110857,12,0,111857,0:0:0:0:
356,100,111999,6,0,B|312:112|297:151|297:151|268:148|268:148|236:184|176:180,1,188.999994232178
308,40,112571,2,0,P|396:32|388:172,1,242.999992584229
176,56,113142,6,0,B|82:23|82:23|120:64|108:136,1,216
44,272,113714,2,0,P|28:216|32:176,1,72
156,284,113999,1,0,0:0:0:0:
24,356,114142,1,0,0:0:0:0:
244,340,114285,6,0,P|344:336|356:224,1,216
142,203,114857,2,0,P|178:206|212:220,1,72
348,332,115142,2,0,P|392:352|432:356,1,72
476,244,115428,5,0,0:0:0:0:
476,204,115523,1,0,0:0:0:0:
464,168,115619,1,0,0:0:0:0:
440,140,115714,1,0,0:0:0:0:
408,120,115809,1,0,0:0:0:0:
388,88,115904,1,0,0:0:0:0:
384,47,115999,2,0,P|430:19|434:139,1,242.999992584229
276,160,116571,6,0,B|220:124|157:159|157:159|80:136|32:188,1,249.749999047279
139,331,117142,2,0,L|196:344,1,55.4999997882843
159,100,117333,2,0,L|156:155,1,55.4999997882843
11,247,117523,2,0,L|92:240,1,55.4999997882843
323,163,117714,6,0,L|268:160,1,55.4999997882843
235,7,117904,2,0,L|228:80,1,55.4999997882843
213,239,118095,2,0,L|260:272,1,55.4999997882843
392,235,118285,2,0,B|380:200|401:164|401:164|386:84|317:78|288:93,1,216
372,324,118857,6,0,P|476:320|458:206,1,242.999992584229
216,164,119428,1,0,0:0:0:0:
280,284,119714,1,0,0:0:0:0:
372,68,119999,6,0,B|315:67|315:67|288:56|288:56|228:55,1,144
18,140,120571,2,0,L|90:151,1,72
152,332,120857,1,0,0:0:0:0:
42,271,120999,1,0,0:0:0:0:
64,56,121142,6,0,P|152:80|184:192,1,188.999994232178
152,332,121714,2,0,B|190:353|230:325|230:325|258:341|258:341|286:325|286:325|332:356|376:332,1,242.999992584229
473,51,122285,6,0,P|370:70|323:163,1,216
490,206,122857,2,0,P|496:170|488:136,1,72
464,284,123142,1,0,0:0:0:0:
260,260,123285,1,0,0:0:0:0:
260,260,123428,6,0,B|196:256|152:228|152:228|183:196|188:163,1,188.999994232178
88,36,123999,2,0,L|20:32,1,62.9999980773926
231,91,124285,2,0,L|258:34,1,62.9999980773926
32,132,124571,5,0,0:0:0:0:
21,163,124666,1,0,0:0:0:0:
24,196,124761,1,0,0:0:0:0:
39,226,124857,1,0,0:0:0:0:
39,259,124952,1,0,0:0:0:0:
29,291,125047,1,0,0:0:0:0:
8,317,125142,2,0,P|72:376|144:326,1,188.999994232178
258,34,125714,22,0,B|254:142|254:142|274:130|274:130|270:278,1,242.999992584229
108,188,126285,102,0,L|48:184,1,53.9999983520508
264,136,126476,2,0,L|312:100,1,53.9999983520508
161,274,126666,2,0,L|144:328,1,53.9999983520508
164,104,126857,2,0,L|144:48,1,53.9999983520508
270,241,127047,2,0,L|322:273,1,53.9999983520508
432,100,127238,2,0,L|432:176,1,53.9999983520508
320,28,127428,22,0,P|248:76|184:48,1,135
56,24,127999,1,0,0:0:0:0:
56,24,128285,1,0,0:0:0:0:
184,304,128571,5,0,0:0:0:0:
184,304,128857,1,0,0:0:0:0:
40,192,129142,5,0,0:0:0:0:
368,156,129428,1,0,0:0:0:0:
272,232,129714,1,0,0:0:0:0:
496,316,129999,1,0,0:0:0:0:
464,76,130285,5,0,0:0:0:0:
