osu file format v14

[General]
AudioFilename: audio.mp3
AudioLeadIn: 0
PreviewTime: 81776
Countdown: 0
SampleSet: Soft
StackLeniency: 0.3
Mode: 0
LetterboxInBreaks: 0
WidescreenStoryboard: 0

[Editor]
DistanceSpacing: 0.2
BeatDivisor: 4
GridSize: 32
TimelineZoom: 1.7

[Metadata]
Title:Fly
TitleUnicode:Fly
Artist:IAHN
ArtistUnicode:IAHN
Creator:Ujimatsu Chiya
Version:lolia's Insane
Source:osu!
Tags:featured artist mappers' guild electronic korean lolia karia Beomsan Nasmoeb eINess
BeatmapID:2137712
BeatmapSetID:1019853

[Difficulty]
HPDrainRate:6
CircleSize:4
OverallDifficulty:7
ApproachRate:9
SliderMultiplier:1.7
SliderTickRate:1

[Events]
//Background and Video events
0,0,"fly sky.jpg",0,0
//Break Periods
//Storyboard Layer 0 (Background)
//Storyboard Layer 1 (Fail)
//Storyboard Layer 2 (Pass)
//Storyboard Layer 3 (Foreground)
//Storyboard Layer 4 (Overlay)
//Storyboard Sound Samples

[TimingPoints]
2806,352.941176470588,4,2,50,60,1,0
10129,-100,4,2,50,5,0,0
10217,-100,4,2,50,60,0,0
10482,-100,4,2,50,5,0,0
10570,-100,4,2,50,60,0,0
14100,-100,4,2,50,80,0,0
18953,-100,4,2,50,5,0,0
19041,-100,4,2,50,80,0,0
22923,-100,4,2,50,60,0,0
23982,-117.647058823529,4,2,50,70,0,0
25305,-117.647058823529,4,2,50,5,0,0
25394,-100,4,2,50,80,0,0
25658,-100,4,2,50,5,0,0
25747,-100,4,2,50,80,0,0
30247,-100,4,2,50,5,0,0
30335,-100,4,2,50,80,0,0
34747,-100,4,2,50,5,0,0
34835,-100,4,2,50,80,0,0
35011,-100,4,2,50,5,0,0
35100,-100,4,2,50,80,0,0
36688,-100,4,2,50,65,0,0
37923,-83.3333333333333,4,2,50,65,0,0
38982,-100,4,2,50,65,0,0
42335,-100,4,2,50,75,0,0
42600,-100,4,2,50,5,0,0
42688,-100,4,2,50,75,0,0
47982,-100,4,2,50,65,0,0
49217,-83.3333333333333,4,2,50,65,0,0
50276,-100,4,2,50,65,0,0
53629,-100,4,2,50,75,0,0
53894,-100,4,2,50,5,0,0
53982,-100,4,2,50,75,0,0
59276,-100,4,2,50,55,0,0
59629,-100,4,2,50,60,0,0
70570,-100,4,2,50,60,0,0
71276,-142.857142857143,4,2,50,55,0,0
76041,-100,4,2,50,60,0,0
76217,-100,4,2,50,70,0,0
80629,-100,4,2,50,75,0,0
81864,-100,4,2,50,85,0,1
86100,-100,4,2,50,80,0,1
86717,-100,4,2,50,5,0,1
86805,-100,4,2,50,80,0,1
90335,-100,4,2,50,80,0,0
90688,-100,4,2,50,60,0,0
91747,-117.647058823529,4,2,50,70,0,0
93070,-117.647058823529,4,2,50,5,0,0
93158,-100,4,2,50,80,0,1
93423,-100,4,2,50,5,0,1
93511,-100,4,2,50,80,0,1
98011,-100,4,2,50,5,0,1
98100,-100,4,2,50,80,0,1
102511,-100,4,2,50,5,0,1
102600,-100,4,2,50,80,0,1
102776,-100,4,2,50,5,0,1
102864,-100,4,2,50,80,0,1
104453,-100,4,2,50,60,0,0
112923,-100,4,2,50,50,0,0
115658,-100,4,2,50,5,0,0

[Colours]
Combo1 : 96,255,255
Combo2 : 0,128,192
Combo3 : 191,108,213
Combo4 : 251,187,68

[HitObjects]
42,273,2806,6,0,B|109:290|109:290|139:278|139:278|205:292,1,170,4|2,0:0|0:0,0:0:0:0:
435,206,3511,2,0,B|367:223|367:223|337:211|337:211|271:225,1,170,0|2,3:0|0:0,0:0:0:0:
164,195,4041,5,0,0:0:0:0:
156,191,4129,1,0,0:0:0:0:
149,187,4217,2,0,P|157:139|165:98,2,85,0|0|2,3:0|0:0|0:0,0:0:0:0:
17,106,4747,2,0,P|35:195|53:288,1,170,0|2,3:0|0:0,0:0:0:0:
101,331,5188,1,2,0:0:0:0:
96,338,5276,2,0,B|59:359|59:359|18:344,1,85,2|8,0:0|0:0,0:0:0:0:
173,288,5629,6,0,P|254:255|310:325,1,170,0|2,3:0|0:0,0:0:0:0:
306,305,6158,1,0,0:0:0:0:
423,204,6335,2,0,P|412:243|400:302,1,85,0|0,3:0|0:0,0:0:0:0:
274,164,6688,2,0,P|307:143|358:156,1,85,2|0,0:0|0:0,0:0:0:0:
497,61,7041,6,0,B|449:65|428:103|428:103|400:63|333:59,1,170,0|2,3:0|0:0,0:0:0:0:
219,13,7570,2,0,L|235:72,1,42.5,8|8,0:0|0:0,0:0:0:0:
184,122,7747,2,0,B|145:140|145:140|93:111,1,85,0|8,3:0|0:0,0:0:0:0:
101,114,8011,1,8,0:0:0:0:
94,108,8100,1,8,0:0:0:0:
233,187,8276,1,2,0:0:0:0:
53,247,8453,1,4,0:0:0:0:
53,247,8805,6,0,P|65:293|74:337,1,85,2|2,0:0|0:0,0:0:0:0:
206,354,9158,2,0,P|218:270|233:187,1,170,2|2,3:2|0:0,0:0:0:0:
233,187,9864,6,0,P|242:139|210:177,1,127.5,6|0,3:2|0:0,0:0:0:0:
231,196,10217,2,0,P|296:182|374:169,1,127.5,2|0,3:2|0:0,0:0:0:0:
394,244,10570,2,0,P|435:250|477:257,1,85,6|2,3:2|0:0,0:0:0:0:
485,259,10835,1,2,0:0:0:0:
493,261,10923,1,2,0:0:0:0:
356,171,11100,1,8,0:0:0:0:
508,60,11276,6,0,P|451:119|375:72,1,170,2|2,3:2|0:0,0:0:0:0:
130,45,11982,2,0,P|152:119|175:214,1,170,2|0,0:0|0:0,0:0:0:0:
290,124,12511,1,2,0:0:0:0:
266,276,12688,6,0,L|273:227,5,42.5,8|8|8|8|8|8,0:0|0:0|0:0|0:0|0:0|0:0,0:0:0:0:
200,335,13217,2,0,P|175:328|144:321,1,42.5,8|8,3:2|0:0,0:0:0:0:
107,259,13394,6,0,P|85:266|61:272,3,42.5,8|8|8|8,0:0|0:0|0:0|0:0,0:0:0:0:
13,334,13747,1,8,0:0:0:0:
53,188,13923,1,8,0:0:0:0:
158,324,14100,6,0,P|243:309|351:288,1,170,4|8,0:0|0:0,0:0:0:0:
475,359,14629,2,0,P|431:349|380:340,1,85,2|0,0:0|0:0,0:0:0:0:
333,210,14982,1,0,3:0:0:0:
391,342,15158,2,0,P|408:306|398:262,1,85,8|0,0:0|0:0,0:0:0:0:
292,125,15511,6,0,P|309:209|324:292,1,170,0|8,3:0|0:0,0:0:0:0:
438,142,16041,2,0,P|390:90|291:136,1,170,2|0,0:0|3:0,0:0:0:0:
220,233,16570,1,8,0:0:0:0:
150,77,16747,1,8,0:0:0:0:
142,73,16835,1,8,0:0:0:0:
134,70,16923,6,0,P|115:108|130:154,1,85,2|0,3:2|0:0,0:0:0:0:
21,255,17276,2,0,P|63:243|118:228,1,85,10|0,0:0|0:0,0:0:0:0:
236,324,17629,2,0,P|194:312|139:297,1,85,2|0,0:0|3:0,0:0:0:0:
299,270,17982,2,0,P|341:258|396:243,1,85,10|0,0:0|0:0,0:0:0:0:
450,92,18335,5,10,0:0:0:0:
380,247,18511,1,0,3:0:0:0:
450,92,18688,2,0,B|477:125|477:125|460:235,1,127.5,10|0,0:0|0:0,0:0:0:0:
461,230,19041,1,2,3:2:0:0:
304,157,19217,1,0,3:0:0:0:
309,163,19305,1,0,3:0:0:0:
314,169,19394,2,0,P|355:159|410:150,1,85,10|0,0:0|3:0,0:0:0:0:
239,109,19747,6,0,P|172:144|101:81,1,170,4|8,0:0|0:0,0:0:0:0:
103,92,20276,1,0,0:0:0:0:
261,19,20453,2,0,P|253:61|243:108,1,85,0|0,0:0|3:0,0:0:0:0:
189,244,20805,2,0,P|180:202|172:160,1,85,8|0,0:0|0:0,0:0:0:0:
270,286,21158,6,0,P|310:273|361:258,2,85,0|0|8,3:0|0:0|0:0,0:0:0:0:
104,326,21688,2,0,P|142:335|187:348,1,85,2|0,0:0|3:0,0:0:0:0:
75,233,22041,5,8,0:0:0:0:
186,347,22217,1,8,0:0:0:0:
15,325,22394,6,0,L|66:307,1,42.5,8|8,0:0|0:0,0:0:0:0:
140,281,22570,1,2,3:2:0:0:
51,41,23100,6,0,B|8:99|25:165|25:165|34:143|47:133,2,170,2|2|2,0:0|0:0|0:0,0:0:0:0:
99,190,23982,6,0,P|162:177|248:166,1,144.500002756119,0|0,3:0|3:0,0:0:0:0:
350,235,24511,2,0,L|316:225,2,36.1250006890297,8|8|0,0:0|0:0|3:0,0:0:0:0:
454,94,24864,5,10,0:0:0:0:
443,121,24953,1,10,0:0:0:0:
435,148,25041,1,10,0:0:0:0:
434,176,25129,1,10,0:0:0:0:
440,204,25217,2,0,L|462:266,1,36.1250006890297,10|0,0:0|0:0,0:0:0:0:
494,349,25394,6,0,P|441:313|380:357,1,127.5,6|0,0:0|0:0,0:0:0:0:
310,358,25747,2,0,P|270:346|219:338,1,85,8|0,0:0|0:0,0:0:0:0:
119,275,26100,2,0,P|137:320|149:364,1,85,0|0,0:0|3:0,0:0:0:0:
161,204,26453,1,10,0:0:0:0:
146,355,26629,1,2,0:0:0:0:
53,229,26805,6,0,P|97:192|175:218,1,127.5,2|2,3:2|0:0,0:0:0:0:
214,267,27158,1,8,0:0:0:0:
310,157,27335,2,0,B|280:184|280:184|302:338,1,170,2|2,3:2|3:2,0:0:0:0:
419,203,27864,1,8,0:0:0:0:
502,358,28041,1,8,0:0:0:0:
507,351,28129,1,8,0:0:0:0:
512,344,28217,6,0,P|450:284|381:335,1,170,2|8,3:2|0:0,0:0:0:0:
278,229,28747,2,0,P|289:269|298:312,1,85,2|0,0:0|0:0,0:0:0:0:
344,151,29100,2,0,P|352:109|363:68,2,85,2|4|2,3:2|3:0|0:0,0:0:0:0:
207,37,29629,6,0,B|243:13|243:13|294:30,1,85,10|0,0:0|3:0,0:0:0:0:
148,102,29982,2,0,P|112:67|35:93,1,127.5,10|0,0:0|0:0,0:0:0:0:
0,153,30335,2,0,P|11:197|21:255,1,85,2|0,3:2|3:0,0:0:0:0:
11,325,30600,1,0,3:0:0:0:
18,318,30688,2,0,P|62:306|114:293,1,85,10|0,0:0|3:0,0:0:0:0:
290,248,31041,6,0,P|223:280|157:218,1,170,6|8,0:0|0:0,0:0:0:0:
275,96,31570,2,0,P|265:136|251:193,1,85,2|0,0:0|0:0,0:0:0:0:
379,44,31923,2,0,B|389:120|389:120|399:124|399:124|411:222,1,170,2|2,3:2|0:0,0:0:0:0:
505,357,32453,6,0,B|455:340|447:299|447:299|428:336|350:337,1,170,2|8,3:2|0:0,0:0:0:0:
235,281,32982,2,0,P|270:259|321:270,1,85,2|0,0:0|0:0,0:0:0:0:
164,333,33335,2,0,P|123:322|73:310,1,85,2|8,3:2|0:0,0:0:0:0:
0,168,33688,1,8,0:0:0:0:
4,174,33776,1,8,0:0:0:0:
10,179,33864,6,0,B|72:169|72:169|92:145|92:145|183:131,1,170,0|8,3:0|0:0,0:0:0:0:
380,24,34570,2,0,P|400:59|376:120,1,85,0|0,3:0|0:0,0:0:0:0:
388,22,34835,2,0,P|408:57|384:118,1,85,0|0,3:3|0:0,0:0:0:0:
344,158,35100,1,8,0:0:0:0:
481,200,35276,5,0,3:0:0:0:
341,273,35453,1,8,0:0:0:0:
343,281,35541,1,8,0:0:0:0:
345,289,35629,2,0,P|388:278|443:269,1,85,0|0,3:0|3:0,0:0:0:0:
263,242,35982,2,0,P|221:234|179:224,1,85,2|0,0:0|3:0,0:0:0:0:
90,310,36335,1,8,0:0:0:0:
50,150,36511,1,8,0:0:0:0:
49,158,36600,1,8,0:0:0:0:
48,166,36688,5,4,0:0:0:0:
48,166,37923,6,0,B|110:200|180:169|192:77|272:68|350:118,1,305.999990661621,4|2,3:2|0:0,0:0:0:0:
393,164,38629,1,0,3:0:0:0:
393,164,38982,6,0,L|381:229,2,42.5,2|2|2,0:0|0:0|0:0,0:0:0:0:
369,285,39335,1,8,0:0:0:0:
414,83,39511,5,0,3:0:0:0:
414,83,40217,5,0,3:0:0:0:
414,83,40923,5,8,0:0:0:0:
384,214,41100,1,0,3:0:0:0:
199,102,41276,5,8,0:0:0:0:
353,141,41453,1,8,0:0:0:0:
318,133,41541,1,8,0:0:0:0:
283,125,41629,1,8,0:0:0:0:
143,206,41806,1,8,3:2:0:0:
178,198,41894,1,8,0:0:0:0:
213,190,41982,1,8,0:0:0:0:
43,137,42158,2,0,P|54:165|58:195,1,42.5,2|2,0:0|0:0,0:0:0:0:
5,314,42335,6,0,P|48:276|124:310,1,127.5,4|0,3:2|0:0,0:0:0:0:
178,354,42688,2,0,P|189:312|201:272,1,85,8|0,0:0|3:0,0:0:0:0:
169,357,43041,1,8,0:0:0:0:
143,206,43217,1,0,3:0:0:0:
289,321,43394,1,8,0:0:0:0:
328,208,43570,1,0,0:0:0:0:
459,332,43747,6,0,B|449:273|449:273|477:228|477:228|463:146,1,170,0|8,3:0|0:0,0:0:0:0:
316,78,44276,2,0,P|365:125|325:209,1,170,2|0,0:0|3:0,0:0:0:0:
182,141,44805,1,8,0:0:0:0:
285,296,44982,1,8,0:0:0:0:
277,297,45070,1,8,0:0:0:0:
269,298,45158,6,0,B|232:264|232:264|266:133,1,170,4|8,3:2|0:0,0:0:0:0:
141,280,45688,2,0,P|106:230|-4:271,2,170,4|0|8,3:2|3:0|0:0,0:0:0:0:
304,373,46570,6,0,P|348:361|485:336,1,170,4|8,3:2|0:0,0:0:0:0:
484,167,47100,2,0,P|415:199|356:138,1,170,4|8,3:2|0:0,0:0:0:0:
404,63,47541,1,8,0:0:0:0:
408,52,47629,2,0,P|385:53|355:61,3,42.5,8|8|8|8,0:0|0:0|0:0|0:0,0:0:0:0:
288,93,47982,1,2,0:0:0:0:
288,93,49217,6,0,B|206:107|172:188|172:188|168:104|74:75,1,305.999990661621,4|0,3:2|0:0,0:0:0:0:
21,137,49923,1,0,3:0:0:0:
21,137,50276,6,0,L|29:183,2,42.5,2|2|2,0:0|0:0|0:0,0:0:0:0:
45,260,50629,1,8,0:0:0:0:
6,55,50805,5,0,3:0:0:0:
6,55,51511,5,0,3:0:0:0:
45,260,51688,2,0,P|112:210|63:122,1,170,12|0,0:0|3:0,0:0:0:0:
227,29,52217,5,8,0:0:0:0:
198,159,52394,1,0,3:0:0:0:
413,136,52570,5,8,0:0:0:0:
256,106,52747,1,8,0:0:0:0:
292,114,52835,1,8,0:0:0:0:
327,121,52923,1,8,0:0:0:0:
457,31,53100,1,8,3:2:0:0:
422,39,53188,1,8,0:0:0:0:
387,47,53276,1,8,0:0:0:0:
373,234,53453,2,0,P|361:209|358:176,1,42.5,2|2,0:0|0:0,0:0:0:0:
512,150,53629,6,0,P|498:204|484:286,1,127.5,4|0,3:2|0:0,0:0:0:0:
419,336,53982,2,0,P|364:319|316:317,1,85,8|0,0:0|0:0,0:0:0:0:
427,334,54335,1,8,0:0:0:0:
269,361,54511,1,0,3:0:0:0:
358,194,54688,1,8,0:0:0:0:
258,261,54864,1,0,0:0:0:0:
178,100,55041,6,0,B|146:127|146:127|170:283,1,170,0|8,3:0|0:0,0:0:0:0:
25,366,55570,2,0,P|61:321|163:357,1,170,2|0,0:0|3:0,0:0:0:0:
250,224,56100,1,8,0:0:0:0:
385,345,56276,1,8,0:0:0:0:
377,347,56364,1,8,0:0:0:0:
370,352,56453,6,0,B|382:295|382:295|356:246|356:246|373:184,1,170,4|8,3:2|0:0,0:0:0:0:
466,41,56982,2,0,B|478:98|478:98|452:147|452:147|469:209,2,170,4|0|8,3:2|3:0|0:0,0:0:0:0:
305,133,57864,6,0,P|233:162|164:101,1,170,2|8,3:2|0:0,0:0:0:0:
27,67,58394,2,0,P|53:58|83:53,2,42.5,8|8|0,0:0|0:0|3:0,0:0:0:0:
106,174,58747,5,8,0:0:0:0:
90,168,58835,1,8,0:0:0:0:
73,162,58923,1,8,0:0:0:0:
56,157,59011,1,8,0:0:0:0:
39,153,59100,1,8,0:0:0:0:
166,109,59276,5,0,3:0:0:0:
166,109,59629,2,0,P|209:99|263:85,2,85,6|0|0,0:0|3:0|3:0,0:0:0:0:
193,256,60158,2,0,P|126:204|47:250,1,170,2|0,0:2|0:0,0:0:0:0:
193,256,60864,5,0,3:0:0:0:
55,235,61041,2,0,P|65:278|75:334,1,85,2|0,0:0|3:0,0:0:0:0:
291,233,61570,2,0,P|281:276|271:332,2,85,2|0|2,0:0|3:0|0:0,0:0:0:0:
231,169,62011,1,8,0:0:0:0:
225,163,62100,6,0,P|276:115|380:171,1,170,0|2,3:0|0:0,0:0:0:0:
457,253,62629,2,0,P|419:240|357:224,1,85,0|0,3:0|3:0,0:0:0:0:
512,163,62982,1,2,0:0:0:0:
512,163,63335,6,0,P|495:237|473:348,1,170,0|0,3:0|3:0,0:0:0:0:
375,228,63864,2,0,B|324:227|294:239|295:281|254:294|201:271,1,170,2|2,0:0|0:0,0:0:0:0:
146,194,64394,1,8,0:0:0:0:
52,283,64570,2,0,P|67:335|79:382,1,85,2|8,0:0|0:0,0:0:0:0:
77,373,64835,1,8,0:0:0:0:
79,381,64923,1,0,3:0:0:0:
79,381,65276,6,0,P|112:360|170:371,2,85,2|0|0,0:0|3:0|3:0,0:0:0:0:
219,277,65805,2,0,P|153:264|41:242,1,170,2|0,0:0|3:0,0:0:0:0:
219,277,66511,5,0,3:0:0:0:
52,244,66688,2,0,P|97:221|152:238,1,85,2|0,0:0|3:0,0:0:0:0:
330,179,67217,2,0,P|288:181|252:159,2,85,2|0|2,0:0|3:0|0:0,0:0:0:0:
395,238,67658,1,8,0:0:0:0:
402,243,67747,6,0,P|448:202|394:99,1,170,0|2,3:0|0:0,0:0:0:0:
314,12,68276,2,0,P|327:62|342:123,1,85,0|0,3:0|3:0,0:0:0:0:
503,65,68629,1,2,0:0:0:0:
503,65,68982,6,0,P|487:141|470:238,1,170,0|0,3:0|3:0,0:0:0:0:
380,374,69511,2,0,B|407:334|407:334|376:208,1,170,2|2,0:0|0:0,0:0:0:0:
283,159,70041,1,8,0:0:0:0:
231,279,70217,2,0,P|188:270|135:261,1,85,0|8,3:0|0:0,0:0:0:0:
139,262,70482,1,8,0:0:0:0:
130,261,70570,1,4,3:2:0:0:
130,261,71276,6,0,B|201:167|147:115|98:139|130:202,1,178.499994552612
231,279,71982,2,0,P|316:256|405:237,1,178.499994552612,0|0,3:0|3:0,0:0:0:0:
481,174,72688,1,2,0:0:0:0:
447,313,72864,1,2,0:0:0:0:
481,174,73041,2,0,P|491:208|499:253,1,59.4999981842042,8|0,0:0|0:0,0:0:0:0:
362,306,73394,6,0,B|301:279|292:216|292:216|273:286|186:296,1,237.999992736817,4|8,3:2|0:0,0:0:0:0:
99,338,74364,2,0,P|76:298|90:247,1,89.2499972763062,2|2,0:0|0:0,0:0:0:0:
136,100,74805,6,0,B|185:61|185:61|155:258,1,237.999992736817,0|0,3:0|0:0,0:0:0:0:
26,181,75688,2,0,P|60:169|94:163,1,59.4999981842042,4|0,0:0|3:0,0:0:0:0:
239,230,76041,1,8,0:0:0:0:
245,236,76129,1,8,0:0:0:0:
251,241,76217,6,0,P|343:253|422:273,2,170,4|8|0,3:2|0:0|0:0,0:0:0:0:
186,164,77100,1,0,3:0:0:0:
295,74,77276,2,0,P|283:118|273:161,1,85,8|0,0:0|0:0,0:0:0:0:
407,24,77629,6,0,P|422:96|447:201,1,170,0|8,3:0|0:0,0:0:0:0:
344,290,78158,2,0,P|350:260|359:200,1,85,2|0,0:0|0:0,0:0:0:0:
268,328,78511,1,0,3:0:0:0:
430,330,78688,2,0,P|388:315|329:299,1,85,8|8,0:0|0:0,0:0:0:0:
276,246,78953,1,8,0:0:0:0:
267,243,79041,6,0,P|226:293|127:270,1,170,0|8,3:0|0:0,0:0:0:0:
7,187,79570,2,0,P|23:232|34:276,1,85,2|0,0:0|0:0,0:0:0:0:
79,111,79923,1,0,3:0:0:0:
32,268,80100,1,8,0:0:0:0:
160,202,80276,2,0,P|140:193|108:190,2,42.5,4|8|0,0:3|0:0|3:0,0:0:0:0:
7,187,80629,5,10,0:0:0:0:
200,120,80805,1,10,0:0:0:0:
209,113,81158,5,2,3:2:0:0:
260,277,81334,1,10,0:0:0:0:
327,156,81511,2,0,P|306:150|286:142,3,42.5,8|8|8|8,0:0|0:0|0:0|0:0,0:0:0:0:
234,201,81864,6,0,P|319:186|427:165,1,170,4|8,0:0|0:0,0:0:0:0:
502,276,82394,2,0,P|459:262|409:248,1,85,2|0,0:0|0:0,0:0:0:0:
318,363,82747,1,0,3:0:0:0:
420,251,82923,2,0,P|437:287|417:334,1,85,8|0,0:0|0:0,0:0:0:0:
238,344,83276,6,0,B|204:313|204:313|240:178,1,170,0|8,3:0|0:0,0:0:0:0:
97,202,83805,2,0,P|145:150|241:195,1,170,2|0,0:0|3:0,0:0:0:0:
304,277,84335,1,8,0:0:0:0:
390,126,84511,1,8,0:0:0:0:
396,132,84600,1,8,0:0:0:0:
401,138,84688,6,0,P|383:180|367:230,1,85,2|0,3:2|0:0,0:0:0:0:
250,89,85041,2,0,P|286:69|344:95,1,85,10|0,0:0|0:0,0:0:0:0:
168,135,85394,2,0,P|126:123|71:108,1,85,2|0,0:0|3:0,0:0:0:0:
12,9,85747,2,0,P|-7:43|19:97,1,85,10|0,0:0|0:0,0:0:0:0:
168,135,86100,5,10,0:0:0:0:
23,168,86276,1,0,3:0:0:0:
168,135,86453,2,0,B|197:164|197:164|174:274,1,127.5,10|0,0:0|0:0,0:0:0:0:
169,267,86805,1,2,3:2:0:0:
11,334,86982,1,0,3:0:0:0:
16,340,87070,1,0,3:0:0:0:
21,346,87158,2,0,P|62:336|117:327,1,85,10|0,0:0|3:0,0:0:0:0:
298,299,87511,6,0,P|223:326|169:267,1,170,4|8,0:0|0:0,0:0:0:0:
169,267,88041,1,0,0:0:0:0:
262,138,88217,2,0,P|267:180|275:227,1,85,0|0,0:0|3:0,0:0:0:0:
372,80,88570,2,0,P|360:121|350:162,1,85,8|0,0:0|0:0,0:0:0:0:
482,248,88923,6,0,P|440:239|398:229,2,85,0|0|8,3:0|0:0|0:0,0:0:0:0:
314,326,89453,2,0,P|355:317|397:311,1,85,2|0,0:0|3:0,0:0:0:0:
235,376,89805,5,8,0:0:0:0:
274,222,89982,1,8,0:0:0:0:
105,249,90158,6,0,L|156:267,1,42.5,8|8,0:0|0:0,0:0:0:0:
230,293,90335,1,2,3:2:0:0:
476,197,90864,6,0,B|352:223|352:223|377:184,2,170,2|2|2,0:0|0:0|0:0,0:0:0:0:
369,91,91747,6,0,P|438:108|516:125,1,144.500002756119,0|0,3:0|3:0,0:0:0:0:
385,221,92276,2,0,L|375:187,2,36.1250006890297,8|8|0,0:0|0:0|3:0,0:0:0:0:
474,328,92629,5,10,0:0:0:0:
447,317,92717,1,10,0:0:0:0:
420,309,92805,1,10,0:0:0:0:
392,308,92894,1,10,0:0:0:0:
364,314,92982,2,0,L|344:364,1,36.1250006890297,10|0,0:0|0:0,0:0:0:0:
253,368,93158,6,0,P|211:325|246:263,1,127.5,6|0,0:0|0:0,0:0:0:0:
310,240,93511,2,0,P|270:249|219:260,1,85,8|0,0:0|0:0,0:0:0:0:
91,176,93864,2,0,P|136:187|182:201,1,85,0|0,0:0|3:0,0:0:0:0:
24,240,94217,1,10,0:0:0:0:
70,98,94394,1,2,0:0:0:0:
24,240,94570,6,0,P|11:187|-7:117,1,127.5,2|2,3:2|0:0,0:0:0:0:
13,38,94923,1,8,0:0:0:0:
150,113,95100,2,0,B|203:98|203:98|263:124|263:124|330:102,1,170,2|2,3:2|3:2,0:0:0:0:
390,218,95629,1,8,0:0:0:0:
424,40,95805,1,8,0:0:0:0:
429,46,95894,1,8,0:0:0:0:
434,53,95982,6,0,P|412:133|382:246,1,170,2|8,3:2|0:0,0:0:0:0:
489,334,96511,2,0,P|449:323|406:314,1,85,2|0,0:0|0:0,0:0:0:0:
250,300,96864,2,0,P|291:292|332:281,2,85,2|4|2,3:2|3:0|0:0,0:0:0:0:
185,166,97394,6,0,B|164:203|164:203|185:253,1,85,10|0,0:0|3:0,0:0:0:0:
63,353,97747,2,0,P|74:298|85:217,1,127.5,10|0,0:0|0:0,0:0:0:0:
33,167,98100,2,0,B|64:138|64:138|118:153,1,85,2|0,3:2|3:0,0:0:0:0:
185,166,98364,1,0,3:0:0:0:
194,167,98453,2,0,P|186:124|175:68,1,85,10|0,0:0|3:0,0:0:0:0:
351,48,98805,6,0,P|333:120|309:220,1,170,6|8,0:0|0:0,0:0:0:0:
480,184,99335,2,0,P|448:163|388:178,1,85,2|0,0:0|0:0,0:0:0:0:
280,306,99688,2,0,B|355:293|355:293|359:283|359:283|456:267,1,170,2|2,3:2|0:0,0:0:0:0:
235,235,100217,6,0,P|195:190|93:236,1,170,2|8,3:2|0:0,0:0:0:0:
0,97,100747,2,0,P|9:133|22:179,1,85,2|0,0:0|0:0,0:0:0:0:
79,301,101100,2,0,P|90:260|102:210,1,85,2|8,3:2|0:0,0:0:0:0:
234,100,101453,1,8,0:0:0:0:
239,93,101541,1,8,0:0:0:0:
245,87,101629,6,0,B|172:41|172:41|80:82,1,170,0|8,3:0|0:0,0:0:0:0:
324,140,102335,2,0,P|359:120|420:144,1,85,0|0,3:0|0:0,0:0:0:0:
322,132,102600,2,0,P|357:112|418:136,1,85,0|0,3:3|0:0,0:0:0:0:
458,176,102864,1,8,0:0:0:0:
421,30,103041,5,0,3:0:0:0:
471,186,103217,1,8,0:0:0:0:
465,181,103305,1,8,0:0:0:0:
458,176,103394,2,0,P|471:136|487:88,1,85,0|0,3:0|3:0,0:0:0:0:
378,210,103747,2,0,B|389:252|399:297,1,85,2|0,0:0|3:0,0:0:0:0:
322,132,104100,1,8,0:0:0:0:
217,237,104276,1,8,0:0:0:0:
219,245,104364,1,8,0:0:0:0:
221,253,104453,6,0,B|153:235|153:235|123:247|123:247|57:233,1,170,4|2,0:0|0:0,0:0:0:0:
308,317,105158,2,0,B|375:299|375:299|405:311|405:311|471:297,1,170,0|2,3:0|0:0,0:0:0:0:
354,155,105688,6,0,P|360:178|364:200,1,42.5
448,222,105864,2,0,P|456:178|467:125,2,85,0|0|2,3:0|0:0|0:0,0:0:0:0:
387,68,106394,2,0,P|329:22|239:60,1,170,0|2,3:0|0:0,0:0:0:0:
164,14,106835,1,2,0:0:0:0:
159,20,106923,2,0,P|169:64|182:121,1,85,2|8,0:0|0:0,0:0:0:0:
281,195,107276,6,0,P|211:235|146:189,1,170,0|2,3:0|0:0,0:0:0:0:
146,189,107805,1,0,0:0:0:0:
43,86,107982,2,0,L|68:176,1,85,0|0,3:0|0:0,0:0:0:0:
20,293,108335,2,0,P|60:276|101:266,1,85,2|0,0:0|0:0,0:0:0:0:
273,300,108688,6,0,B|295:336|295:336|151:311,1,170,0|2,3:0|0:0,0:0:0:0:
247,177,109217,2,0,L|235:231,2,42.5,8|8|0,0:0|0:0|3:0,0:0:0:0:
379,249,109570,2,0,L|338:241,2,42.5,8|8|8,0:0|0:0|0:0,0:0:0:0:
464,181,109923,1,2,0:0:0:0:
432,328,110100,1,4,0:0:0:0:
432,328,110453,6,0,P|472:312|519:300,1,85,2|2,0:0|0:0,0:0:0:0:
379,249,110805,2,0,P|326:194|371:114,1,170,2|2,3:2|0:0,0:0:0:0:
141,26,111511,6,0,P|154:70|168:118,1,85,6|0,3:2|0:0,0:0:0:0:
233,216,111864,2,0,P|242:170|251:121,1,85,2|0,3:2|0:0,0:0:0:0:
147,233,112217,2,0,P|107:242|61:211,1,85,6|2,3:2|0:0,0:0:0:0:
64,215,112482,1,2,0:0:0:0:
60,209,112570,1,2,0:0:0:0:
130,328,112747,1,0,0:0:0:0:
172,126,112923,5,2,3:2:0:0:
384,303,113276,1,2,0:0:0:0:
462,44,113629,1,2,0:0:0:0:
340,155,114158,5,2,0:0:0:0:
256,192,114247,12,0,115658,0:0:0:0:
