osu file format v14

[General]
AudioFilename: audio.mp3
AudioLeadIn: 0
PreviewTime: 81776
Countdown: 0
SampleSet: Soft
StackLeniency: 0.5
Mode: 0
LetterboxInBreaks: 0
WidescreenStoryboard: 1

[Editor]
DistanceSpacing: 1.1
BeatDivisor: 4
GridSize: 4
TimelineZoom: 1.7

[Metadata]
Title:Fly
TitleUnicode:Fly
Artist:IAHN
ArtistUnicode:IAHN
Creator:Ujimatsu Chiya
Version:Beomsan's Expert
Source:osu!
Tags:featured artist mappers' guild electronic korean lolia karia Beomsan Nasmoeb eINess
BeatmapID:2136291
BeatmapSetID:1019853

[Difficulty]
HPDrainRate:5
CircleSize:5
OverallDifficulty:7
ApproachRate:9
SliderMultiplier:1.5
SliderTickRate:1

[Events]
//Background and Video events
0,0,"fly sky.jpg",0,0
//Break Periods
//Storyboard Layer 0 (Background)
//Storyboard Layer 1 (Fail)
//Storyboard Layer 2 (Pass)
//Storyboard Layer 3 (Foreground)
//Storyboard Layer 4 (Overlay)
//Storyboard Sound Samples

[TimingPoints]
2806,352.941176470588,4,2,0,60,1,0
2806,-133.333333333333,4,2,0,60,0,0
7041,-108.695652173913,4,2,0,70,0,0
8453,-86.9565217391304,4,2,0,80,0,0
8805,-100,4,2,0,60,0,0
9864,-100,4,2,0,70,0,0
10217,-100,4,2,0,60,0,0
10570,-80,4,2,0,70,0,0
10835,-80,4,2,0,60,0,0
11276,-100,4,2,0,60,0,0
12688,-80,4,2,0,60,0,0
13394,-80,4,2,0,70,0,0
14100,-100,4,2,0,80,0,0
15511,-83.3333333333333,4,2,0,80,0,0
16217,-100,4,2,0,80,0,0
18335,-83.3333333333333,4,2,0,80,0,0
19041,-100,4,2,0,80,0,0
22923,-133.333333333333,4,2,0,60,0,0
23982,-133.333333333333,4,2,0,72,0,0
24335,-133.333333333333,4,2,0,72,0,0
24864,-83.3333333333333,4,2,0,76,0,0
25041,-83.3333333333333,4,2,0,80,0,0
25394,-100,4,2,0,80,0,0
29629,-83.3333333333333,4,2,0,80,0,0
30688,-100,4,2,0,80,0,0
31041,-76.9230769230769,4,2,0,80,0,0
31570,-90.9090909090909,4,2,0,80,0,0
31923,-76.9230769230769,4,2,0,80,0,0
36688,-100,4,2,0,66,0,0
37394,-111.111111111111,4,2,0,66,0,0
42335,-86.9565217391304,4,2,0,73,0,0
47100,-111.111111111111,4,2,0,80,0,0
47982,-111.111111111111,4,2,0,66,0,0
51511,-83.3333333333333,4,2,0,73,0,0
52923,-100,4,2,0,73,0,0
53629,-86.9565217391304,4,2,0,73,0,0
59276,-333.333333333333,4,2,0,50,0,0
59629,-90.9090909090909,4,2,0,70,0,0
70570,-133.333333333333,4,2,0,63,0,0
73041,-250,4,2,0,70,0,0
73394,-133.333333333333,4,2,0,63,0,0
75688,-113.636363636364,4,2,0,70,0,0
79923,-100,4,2,0,70,0,0
80276,-111.111111111111,4,2,0,70,0,0
80629,-111.111111111111,4,2,0,80,0,0
81864,-100,4,2,0,80,0,0
83276,-83.3333333333333,4,2,0,80,0,0
83982,-100,4,2,0,80,0,0
86100,-83.3333333333333,4,2,0,80,0,0
86805,-100,4,2,0,80,0,0
90688,-133.333333333333,4,2,0,60,0,0
91747,-133.333333333333,4,2,0,72,0,0
92629,-83.3333333333333,4,2,0,72,0,0
92805,-83.3333333333333,4,2,0,76,0,0
93158,-100,4,2,0,80,0,0
97394,-83.3333333333333,4,2,0,80,0,0
98453,-100,4,2,0,80,0,0
98805,-76.9230769230769,4,2,0,80,0,0
99335,-90.9090909090909,4,2,0,80,0,0
99688,-76.9230769230769,4,2,0,80,0,0
104453,-133.333333333333,4,2,0,60,0,0
108688,-108.695652173913,4,2,0,70,0,0
110100,-86.9565217391304,4,2,0,60,0,0
110453,-100,4,2,0,60,0,0
111511,-100,4,2,0,70,0,0
111864,-100,4,2,0,60,0,0
112217,-80,4,2,0,70,0,0
112923,-80,4,2,0,45,0,0
114158,-80,4,2,0,38,0,0
115570,-80,4,2,0,5,0,0

[Colours]
Combo1 : 96,255,255
Combo2 : 0,128,192
Combo3 : 191,108,213
Combo4 : 251,187,68

[HitObjects]
205,345,2806,6,0,P|163:325|160:257,1,112.500004291535,2|0,0:0|0:0,0:0:0:0:
300,108,3511,2,0,P|303:154|246:190,1,112.500004291535,2|0,0:0|0:0,0:0:0:0:
187,170,4041,5,0,0:0:0:0:
187,170,4129,1,0,0:0:0:0:
187,170,4217,2,0,L|174:100,1,56.2500021457673,2|0,0:0|0:0,0:0:0:0:
262,262,4570,1,0,0:0:0:0:
195,242,4747,2,0,P|139:262|106:305,1,112.500004291535,2|0,0:0|0:0,0:0:0:0:
108,309,5188,1,0,3:0:0:0:
109,315,5276,1,0,3:0:0:0:
163,357,5453,1,4,3:0:0:0:
230,341,5629,5,2,0:0:0:0:
383,369,5982,1,0,0:0:0:0:
335,318,6158,1,0,0:0:0:0:
403,299,6335,2,0,P|407:270|425:234,1,56.2500021457673,2|0,0:0|0:0,0:0:0:0:
308,183,6688,1,0,0:0:0:0:
212,265,6864,1,0,0:0:0:0:
81,106,7041,6,0,B|153:107|134:156|208:154,1,137.999995367432,2|2,0:0|0:0,0:0:0:0:
277,28,7570,1,0,3:0:0:0:
259,23,7658,1,0,3:0:0:0:
244,35,7747,1,0,3:0:0:0:
275,190,7923,1,0,3:0:0:0:
293,195,8011,1,0,3:0:0:0:
308,183,8100,1,0,3:0:0:0:
276,109,8276,1,4,3:0:0:0:
155,299,8453,6,0,P|191:268|276:265,1,129.375002467632,6|0,0:0|0:0,0:0:0:0:
276,278,8805,1,2,0:0:0:0:
425,321,8982,1,2,0:0:0:0:
351,342,9158,2,0,P|350:304|377:260,1,75,2|0,0:0|0:0,0:0:0:0:
505,119,9511,2,0,P|506:157|479:201,1,75,2|0,0:0|0:0,0:0:0:0:
483,195,9776,1,0,0:0:0:0:
412,190,9864,6,0,P|400:137|373:78,1,112.5,6|0,0:0|0:0,0:0:0:0:
508,6,10217,2,0,P|485:57|472:112,1,112.5,6|0,0:0|0:0,0:0:0:0:
480,333,10570,2,0,P|499:300|425:293,1,140.625,6|0,0:0|0:0,0:0:0:0:
428,291,10923,1,2,3:2:0:0:
309,329,11100,1,4,1:3:0:0:
141,204,11276,5,2,0:0:0:0:
298,259,11629,1,0,0:0:0:0:
41,339,11982,5,2,0:0:0:0:
107,320,12158,1,0,0:0:0:0:
108,311,12247,1,0,0:0:0:0:
109,302,12335,1,0,0:0:0:0:
173,301,12511,1,2,0:0:0:0:
143,169,12688,5,0,3:0:0:0:
150,170,12776,1,0,3:0:0:0:
157,171,12864,1,0,3:0:0:0:
164,172,12953,1,0,3:0:0:0:
186,188,13041,2,0,L|247:178,1,46.875,0|0,3:0|3:0,0:0:0:0:
264,276,13217,2,0,L|285:218,1,46.875,4|0,3:2|3:0,0:0:0:0:
379,252,13394,5,0,3:0:0:0:
371,242,13482,1,0,3:0:0:0:
364,233,13570,1,0,3:0:0:0:
356,224,13658,1,0,3:0:0:0:
349,215,13747,1,0,3:0:0:0:
372,39,13923,1,0,3:0:0:0:
372,39,14011,1,0,3:0:0:0:
372,39,14100,6,0,B|396:75|396:75|370:150,1,112.5,4|0,3:2|0:0,0:0:0:0:
373,140,14453,2,0,L|290:157,1,75,0|0,1:0|0:0,0:0:0:0:
239,125,14805,1,0,0:0:0:0:
307,13,14982,1,4,3:0:0:0:
405,204,15158,1,0,1:0:0:0:
313,286,15335,1,0,0:0:0:0:
314,277,15423,1,0,0:0:0:0:
315,268,15511,6,0,B|390:263|365:316|443:309,2,134.999995880127,4|0|4,3:0|3:0|3:0,0:0:0:0:
429,237,16217,2,0,P|446:208|432:159,1,75,0|4,0:0|3:0,0:0:0:0:
317,22,16570,2,0,P|309:58|327:90,1,75,0|0,1:0|1:0,0:0:0:0:
374,145,16835,1,0,1:0:0:0:
374,145,16923,6,0,P|405:100|508:82,2,150,4|2|0,3:0|3:2|3:2,0:0:0:0:
371,293,17805,1,4,3:0:0:0:
425,244,17982,2,0,P|392:221|352:221,1,75,2|0,1:2|0:0,0:0:0:0:
173,289,18335,6,0,L|280:309,1,89.9999972534181,2|0,1:3|0:0,0:0:0:0:
132,182,18688,2,0,L|220:165,1,89.9999972534181,2|0,1:3|0:0,0:0:0:0:
228,170,18953,1,0,0:0:0:0:
235,175,19041,6,0,L|323:158,1,75,2|0,1:3|0:0,0:0:0:0:
269,296,19394,2,0,L|342:310,1,75,2|0,1:3|1:0,0:0:0:0:
400,350,19658,1,0,1:0:0:0:
400,350,19747,6,0,B|379:304|379:304|416:232,1,112.5,4|0,3:2|0:0,0:0:0:0:
415,251,20100,2,0,P|417:217|376:174,1,75,0|0,1:0|0:0,0:0:0:0:
363,49,20453,2,0,P|338:71|350:160,1,112.5,2|0,0:0|0:0,0:0:0:0:
445,139,20805,2,0,L|429:64,1,75,0|0,1:0|0:0,0:0:0:0:
336,213,21158,6,0,P|268:218|207:280,1,150,4|0,3:0|1:0,0:0:0:0:
131,213,21688,1,4,3:0:0:0:
131,213,21776,1,0,0:0:0:0:
131,213,21864,1,0,0:0:0:0:
304,302,22041,1,4,3:0:0:0:
138,384,22217,1,0,1:0:0:0:
304,302,22394,1,0,1:0:0:0:
316,304,22482,1,0,1:0:0:0:
328,306,22570,5,2,0:0:0:0:
327,235,22923,2,0,L|324:163,1,56.2500021457673,0|2,0:0|0:0,0:0:0:0:
328,306,23276,1,0,0:0:0:0:
324,168,23453,2,0,B|322:132|322:132|330:107|330:107|327:53,1,112.500004291535,2|2,0:0|0:0,0:0:0:0:
263,35,23982,5,4,3:0:0:0:
220,87,24335,1,4,3:0:0:0:
243,151,24511,5,0,1:0:0:0:
254,153,24600,1,0,1:0:0:0:
265,155,24688,1,4,3:0:0:0:
446,54,24864,5,0,1:0:0:0:
407,39,24953,1,0,1:0:0:0:
367,50,25041,1,0,1:0:0:0:
339,79,25129,1,0,1:0:0:0:
332,119,25217,2,0,P|341:144|345:177,1,44.999998626709,0|0,1:0|1:0,0:0:0:0:
429,339,25394,6,0,P|445:293|368:282,1,150,4|0,3:2|1:0,0:0:0:0:
297,384,25923,1,0,0:0:0:0:
297,384,26100,2,0,P|320:361|375:355,1,75,0|4,0:0|3:0,0:0:0:0:
393,193,26453,2,0,P|376:164|325:144,1,75,0|0,1:0|0:0,0:0:0:0:
196,229,26805,6,0,P|252:235|314:261,2,112.5,4|0|4,3:0|3:0|3:0,0:0:0:0:
189,233,27423,1,0,0:0:0:0:
182,237,27511,1,0,0:0:0:0:
135,95,27688,1,4,3:0:0:0:
158,166,27864,1,0,1:0:0:0:
175,24,28041,1,0,1:0:0:0:
176,16,28129,1,0,1:0:0:0:
177,8,28217,6,0,B|124:16|124:16|97:34|97:34|23:22,1,150,4|0,3:0|1:0,0:0:0:0:
0,195,28747,1,4,3:0:0:0:
89,241,28923,1,0,0:0:0:0:
135,95,29100,5,4,3:0:0:0:
11,283,29276,1,0,1:0:0:0:
210,382,29453,1,0,0:0:0:0:
73,155,29629,6,0,P|70:200|89:241,1,89.9999972534181,4|0,1:2|0:0,0:0:0:0:
204,37,29982,2,0,P|222:77|219:122,1,89.9999972534181,4|0,1:2|0:0,0:0:0:0:
88,240,30335,6,0,P|127:260|153:296,1,89.9999972534181,4|4,1:2|3:0,0:0:0:0:
224,296,30600,1,4,3:0:0:0:
224,296,30688,2,0,P|209:335|205:373,1,75,4|0,1:2|0:0,0:0:0:0:
196,228,31041,6,0,P|239:180|326:181,1,146.249993305207,4|0,3:0|0:0,0:0:0:0:
321,185,31394,1,0,1:0:0:0:
418,272,31570,6,0,P|379:273|331:244,1,82.5000025177003,4|0,3:0|0:0,0:0:0:0:
257,132,31923,6,0,P|245:94|261:39,1,97.4999955368044,4|0,3:0|1:0,0:0:0:0:
319,178,32276,2,0,P|341:158|378:148,1,48.7499977684022,0|0,1:0|1:0,0:0:0:0:
418,272,32453,6,0,P|397:335|306:345,1,146.249993305207,4|0,3:0|0:0,0:0:0:0:
312,344,32805,1,0,1:0:0:0:
340,253,32982,1,4,3:0:0:0:
340,253,33070,1,0,0:0:0:0:
340,253,33158,1,0,0:0:0:0:
493,287,33335,1,4,3:0:0:0:
445,136,33511,1,0,1:0:0:0:
404,352,33688,1,0,1:0:0:0:
404,352,33776,1,0,1:0:0:0:
404,352,33864,5,6,0:0:0:0:
157,183,34217,1,0,1:0:0:0:
432,68,34570,1,6,0:2:0:0:
343,210,34835,1,2,0:0:0:0:
276,55,35100,5,4,1:2:0:0:
285,57,35188,1,2,0:0:0:0:
294,59,35276,1,4,3:0:0:0:
404,141,35453,1,0,1:0:0:0:
395,143,35541,1,0,1:0:0:0:
386,145,35629,1,4,3:0:0:0:
343,210,35805,1,4,3:0:0:0:
310,139,35982,5,0,1:0:0:0:
291,269,36158,1,4,3:0:0:0:
243,51,36335,1,0,1:0:0:0:
455,118,36511,1,0,1:0:0:0:
455,118,36600,1,0,1:0:0:0:
455,118,36688,6,0,B|369:119|399:160|314:164,1,150,2|0,0:0|0:0,0:0:0:0:
245,222,37217,2,0,B|329:222|300:263|384:267,1,150
443,304,37747,1,0,0:0:0:0:
236,379,37923,6,0,P|211:322|279:307,1,134.999995880127,6|0,0:0|0:0,0:0:0:0:
302,358,38453,1,0,0:0:0:0:
336,296,38629,2,0,P|339:233|270:243,1,134.999995880127,2|2,0:0|0:0,0:0:0:0:
275,229,39070,1,2,0:0:0:0:
270,225,39158,2,0,P|264:193|280:157,1,67.4999979400635,2|0,1:2|3:0,0:0:0:0:
326,65,39511,6,0,P|262:78|212:130,1,134.999995880127,2|0,0:0|0:0,0:0:0:0:
195,194,40041,2,0,P|131:181|81:129,1,134.999995880127,2|0,0:0|0:0,0:0:0:0:
102,65,40570,2,0,L|193:78,1,67.4999979400635,2|0,0:0|0:0,0:0:0:0:
258,261,40923,6,0,L|118:299,1,134.999995880127,0|0,1:0|1:0,0:0:0:0:
19,224,41453,5,0,1:0:0:0:
28,225,41541,1,0,1:0:0:0:
37,226,41629,1,0,3:0:0:0:
40,157,41805,5,0,1:0:0:0:
49,158,41894,1,0,1:0:0:0:
58,159,41982,2,0,L|43:82,1,67.4999979400635,0|4,3:0|3:0,0:0:0:0:
222,42,42335,6,0,P|230:104|194:163,1,129.375002467632,4|0,3:2|0:0,0:0:0:0:
188,169,42688,2,0,L|273:186,1,86.2500016450882,0|0,1:0|0:0,0:0:0:0:
239,249,43041,1,0,0:0:0:0:
381,103,43217,2,0,L|296:120,1,86.2500016450882,4|0,3:0|1:0,0:0:0:0:
239,249,43570,1,4,3:0:0:0:
313,295,43747,6,0,P|331:254|265:190,1,129.375002467632,4|0,3:0|0:0,0:0:0:0:
272,185,44100,1,0,1:0:0:0:
124,363,44276,2,0,P|180:336|247:328,1,129.375002467632,4|0,3:0|0:0,0:0:0:0:
256,338,44629,1,4,3:0:0:0:
194,180,44805,1,0,1:0:0:0:
46,264,44982,1,0,1:0:0:0:
46,264,45070,1,0,1:0:0:0:
46,264,45158,5,4,3:2:0:0:
144,264,45335,1,4,3:0:0:0:
194,180,45511,1,0,1:0:0:0:
54,24,45688,2,0,P|47:99|106:188,2,172.500003290176,4|4|0,3:2|3:0|1:0,0:0:0:0:
61,28,46482,1,0,1:0:0:0:
69,30,46570,5,4,3:2:0:0:
129,66,46747,1,4,3:0:0:0:
190,35,46923,1,0,1:0:0:0:
268,124,47100,2,0,P|320:139|355:69,1,134.999995880127,4|0,3:2|1:0,0:0:0:0:
352,74,47541,1,0,1:0:0:0:
345,73,47629,1,0,1:0:0:0:
420,132,47805,1,4,3:0:0:0:
427,135,47894,1,4,3:0:0:0:
433,134,47982,6,0,L|414:-3,1,134.999995880127,2|0,0:0|0:0,0:0:0:0:
339,76,48511,2,0,L|358:213,1,134.999995880127,2|0,0:0|0:0,0:0:0:0:
417,247,49041,1,0,0:0:0:0:
298,370,49217,6,0,P|291:325|362:281,1,134.999995880127,6|0,0:0|0:0,0:0:0:0:
418,316,49747,1,0,0:0:0:0:
417,247,49923,2,0,P|435:205|378:144,1,134.999995880127,2|2,0:0|0:0,0:0:0:0:
376,147,50364,1,2,0:0:0:0:
370,149,50453,1,2,1:2:0:0:
253,45,50629,1,0,3:0:0:0:
321,31,50805,6,0,P|324:72|286:137,1,101.249996910095,2|0,0:0|0:0,0:0:0:0:
292,130,51158,2,0,P|256:136|217:149,1,67.4999979400635,0|0,0:0|0:0,0:0:0:0:
73,299,51511,5,4,1:2:0:0:
60,80,51688,1,4,1:2:0:0:
58,69,51776,1,0,0:0:0:0:
56,58,51864,1,0,0:0:0:0:
187,201,52041,1,4,1:2:0:0:
185,212,52129,1,0,0:0:0:0:
183,223,52217,6,0,L|78:246,1,89.9999972534181,4|0,1:2|0:0,0:0:0:0:
238,113,52570,2,0,L|150:93,1,89.9999972534181,0|0,1:0|1:0,0:0:0:0:
143,98,52835,1,0,1:0:0:0:
136,103,52923,6,0,L|58:86,1,75,0|0,3:0|1:0,0:0:0:0:
56,91,53188,1,0,1:0:0:0:
49,94,53276,2,0,P|27:61|34:13,1,75,0|4,3:0|3:0,0:0:0:0:
218,62,53629,6,0,P|226:124|190:183,1,129.375002467632,4|0,3:2|0:0,0:0:0:0:
185,186,53982,2,0,P|187:229|221:273,1,86.2500016450882,0|0,1:0|0:0,0:0:0:0:
280,274,54335,1,0,0:0:0:0:
334,114,54511,2,0,L|243:133,1,86.2500016450882,4|0,3:0|1:0,0:0:0:0:
129,304,54864,1,4,3:0:0:0:
129,304,55041,6,0,P|111:263|177:199,1,129.375002467632,4|0,3:0|0:0,0:0:0:0:
170,194,55394,1,0,1:0:0:0:
318,372,55570,2,0,P|262:345|195:337,1,129.375002467632,4|0,3:0|0:0,0:0:0:0:
186,347,55923,1,4,3:0:0:0:
248,189,56100,1,0,1:0:0:0:
396,273,56276,1,0,1:0:0:0:
396,273,56364,1,0,1:0:0:0:
396,273,56453,5,4,3:2:0:0:
298,273,56629,1,4,3:0:0:0:
248,189,56805,1,0,1:0:0:0:
388,33,56982,2,0,P|395:108|336:197,2,172.500003290176,4|4|0,3:2|3:0|1:0,0:0:0:0:
381,37,57776,1,0,1:0:0:0:
373,39,57864,5,4,3:2:0:0:
277,20,58041,1,4,3:0:0:0:
157,105,58217,1,0,1:0:0:0:
0,34,58394,1,4,3:2:0:0:
71,11,58570,1,0,3:0:0:0:
82,40,58658,1,0,3:0:0:0:
76,72,58747,1,0,1:0:0:0:
56,96,58835,1,4,3:0:0:0:
26,107,58923,1,0,1:0:0:0:
20,149,59011,1,0,0:0:0:0:
44,184,59100,1,0,1:0:0:0:
44,184,59276,6,0,L|82:189,1,33.7499989700318,0|0,3:2|0:0,0:0:0:0:
119,245,59629,6,0,P|160:239|201:199,1,82.5000025177003,4|0,3:2|0:0,0:0:0:0:
214,148,59982,1,4,3:0:0:0:
248,281,60158,2,0,P|263:242|249:186,1,82.5000025177003,2|0,3:0|0:0,0:0:0:0:
137,80,60511,2,0,P|131:120|146:158,1,82.5000025177003,2|0,3:0|0:0,0:0:0:0:
214,148,60864,5,4,3:0:0:0:
119,245,61041,2,0,P|160:239|201:199,1,82.5000025177003,2|0,3:0|0:0,0:0:0:0:
248,281,61394,1,4,3:0:0:0:
257,202,61570,2,0,L|268:106,1,82.5000025177003,2|0,3:0|0:0,0:0:0:0:
333,35,61923,5,2,3:0:0:0:
335,43,62011,1,2,3:0:0:0:
339,51,62100,2,0,P|365:80|425:91,1,82.5000025177003
507,136,62453,1,2,3:0:0:0:
507,136,62629,6,0,P|467:147|440:177,1,82.5000025177003,4|0,3:0|0:0,0:0:0:0:
376,122,62982,2,0,P|366:161|378:200,1,82.5000025177003,2|0,3:0|0:0,0:0:0:0:
466,345,63335,6,0,P|503:327|474:213,1,165.000005035401,0|4,3:0|3:0,0:0:0:0:
298,228,63864,2,0,P|327:255|367:264,1,82.5000025177003,2|4,3:0|3:0,0:0:0:0:
509,141,64217,2,0,P|469:149|439:177,1,82.5000025177003,0|4,0:0|3:0,0:0:0:0:
399,328,64570,1,0,1:0:0:0:
378,200,64747,5,0,1:0:0:0:
374,192,64835,1,0,1:0:0:0:
367,186,64923,1,0,3:0:0:0:
367,186,65276,6,0,P|327:178|297:150,1,82.5000025177003,4|0,3:2|0:0,0:0:0:0:
283,82,65629,1,4,3:0:0:0:
237,211,65805,2,0,P|223:172|233:132,1,82.5000025177003,2|0,3:0|0:0,0:0:0:0:
348,25,66158,2,0,P|362:64|352:104,1,82.5000025177003,2|0,3:0|0:0,0:0:0:0:
283,82,66511,1,4,3:0:0:0:
367,186,66688,6,0,P|327:178|297:150,1,82.5000025177003,2|0,3:0|0:0,0:0:0:0:
237,211,67041,1,4,3:0:0:0:
232,133,67217,2,0,L|226:26,1,82.5000025177003,2|0,3:0|0:0,0:0:0:0:
109,11,67570,5,2,3:0:0:0:
103,16,67658,1,2,3:0:0:0:
99,23,67747,2,0,P|90:62|99:106,1,82.5000025177003
191,209,68100,5,2,3:0:0:0:
191,209,68276,2,0,P|161:181|119:167,1,82.5000025177003,4|0,3:0|0:0,0:0:0:0:
97,103,68629,2,0,P|58:114|25:144,1,82.5000025177003,2|0,3:0|0:0,0:0:0:0:
85,323,68982,6,0,P|56:276|138:251,1,165.000005035401,4|4,3:0|3:0,0:0:0:0:
253,319,69511,2,0,P|215:323|167:281,1,82.5000025177003,2|4,3:0|3:0,0:0:0:0:
135,248,69776,1,0,3:0:0:0:
135,248,69864,6,0,P|121:212|149:155,1,82.5000025177003,2|4,0:0|3:0,0:0:0:0:
140,168,70129,1,0,0:0:0:0:
148,168,70217,1,0,1:0:0:0:
291,235,70394,5,0,1:0:0:0:
317,228,70482,1,0,1:0:0:0:
343,221,70570,5,4,3:2:0:0:
343,221,70747,2,0,B|350:160|350:160|371:124|371:124|381:53,2,168.750006437302,2|2|2,0:0|0:0|0:0,0:0:0:0:
384,280,71982,6,0,P|432:280|439:196,1,140.625005364418,2|0,0:0|0:0,0:0:0:0:
438,200,72511,1,2,0:0:0:0:
343,221,72864,5,0,3:0:0:0:
430,198,73041,2,0,P|418:177|420:150,1,45,0|0,1:0|0:0,0:0:0:0:
477,115,73394,6,0,B|407:106|407:106|396:97|396:97|297:85,1,168.750006437302,4|2,0:1|0:0,0:0:0:0:
307,90,74011,1,2,0:0:0:0:
301,93,74100,1,0,0:0:0:0:
210,68,74364,1,2,0:0:0:0:
153,143,74629,1,0,0:0:0:0:
86,135,74805,6,0,P|67:96|102:40,2,112.500004291535,4|2|0,3:0|0:0|3:0,0:0:0:0:
208,188,75688,2,0,B|131:192|157:230|84:235,1,132.00000402832,4|0,1:2|3:0,0:0:0:0:
24,219,76129,1,0,3:0:0:0:
24,219,76217,6,0,P|22:256|50:288,1,66.0000020141602,4|0,3:2|0:0,0:0:0:0:
116,362,76570,2,0,P|118:325|90:293,1,66.0000020141602,0|0,1:0|0:0,0:0:0:0:
121,182,76923,6,0,P|93:206|90:249,1,66.0000020141602,4|4,3:0|3:0,0:0:0:0:
181,301,77276,2,0,P|217:307|249:330,1,66.0000020141602,0|0,1:0|0:0,0:0:0:0:
284,179,77629,2,0,P|237:165|190:232,1,132.00000402832,4|0,3:0|1:0,0:0:0:0:
241,322,78158,2,0,P|288:336|335:269,1,132.00000402832,4|4,3:0|3:0,0:0:0:0:
276,249,78688,1,0,1:0:0:0:
397,331,78864,1,0,1:0:0:0:
397,331,78953,1,0,1:0:0:0:
397,331,79041,6,0,L|405:248,1,66.0000020141602,4|0,3:0|0:0,0:0:0:0:
335,278,79394,1,0,1:0:0:0:
324,201,79570,6,0,L|316:118,1,66.0000020141602,4|0,3:0|0:0,0:0:0:0:
443,208,79923,6,0,L|451:125,1,75,4|0,3:0|1:0,0:0:0:0:
311,125,80276,5,0,1:0:0:0:
311,125,80364,2,0,L|306:75,1,33.7499989700318,0|4,1:0|3:0,0:0:0:0:
468,3,80629,5,4,1:2:0:0:
381,161,80805,1,4,1:2:0:0:
171,384,81158,5,4,1:2:0:0:
84,226,81335,1,4,1:2:0:0:
199,84,81511,1,0,3:0:0:0:
200,77,81599,1,0,3:0:0:0:
201,70,81687,1,0,3:0:0:0:
202,63,81776,1,0,3:0:0:0:
140,39,81864,6,0,B|116:75|116:75|142:150,1,112.5,4|0,3:2|0:0,0:0:0:0:
139,140,82217,2,0,L|222:157,1,75,0|0,1:0|0:0,0:0:0:0:
273,125,82570,1,0,0:0:0:0:
205,13,82747,1,4,3:0:0:0:
107,204,82923,1,0,1:0:0:0:
199,286,83100,1,0,0:0:0:0:
198,277,83188,1,0,0:0:0:0:
197,268,83276,6,0,B|122:263|147:316|69:309,2,134.999995880127,4|0|4,3:0|3:0|3:0,0:0:0:0:
83,237,83982,2,0,P|65:204|73:169,1,75,0|4,0:0|3:0,0:0:0:0:
195,22,84335,2,0,P|203:58|185:90,1,75,0|0,1:0|1:0,0:0:0:0:
138,145,84600,1,0,1:0:0:0:
138,145,84688,6,0,P|107:100|4:82,2,150,4|2|0,3:0|3:2|3:2,0:0:0:0:
141,293,85570,1,4,3:0:0:0:
87,244,85747,2,0,P|120:221|160:221,1,75,2|0,1:2|0:0,0:0:0:0:
339,289,86100,6,0,L|232:309,1,89.9999972534181,2|0,1:3|0:0,0:0:0:0:
380,182,86453,2,0,L|292:165,1,89.9999972534181,2|0,1:3|0:0,0:0:0:0:
284,170,86717,1,0,0:0:0:0:
277,175,86805,6,0,L|189:158,1,75,2|0,1:3|0:0,0:0:0:0:
243,296,87158,2,0,L|170:310,1,75,2|0,1:3|1:0,0:0:0:0:
112,350,87423,1,0,1:0:0:0:
112,350,87511,6,0,B|133:304|133:304|96:232,1,112.5,4|0,3:2|0:0,0:0:0:0:
97,251,87864,2,0,P|95:217|136:174,1,75,0|0,1:0|0:0,0:0:0:0:
149,49,88217,2,0,P|174:71|162:160,1,112.5,2|0,0:0|0:0,0:0:0:0:
67,139,88570,2,0,L|83:64,1,75,0|0,1:0|0:0,0:0:0:0:
176,213,88923,6,0,P|244:218|305:280,1,150,4|0,3:0|1:0,0:0:0:0:
381,213,89453,1,4,3:0:0:0:
381,213,89541,1,0,0:0:0:0:
381,213,89629,1,0,0:0:0:0:
208,302,89805,1,4,3:0:0:0:
374,384,89982,1,0,1:0:0:0:
208,302,90158,1,0,1:0:0:0:
196,304,90247,1,0,1:0:0:0:
184,306,90335,5,2,0:0:0:0:
185,235,90688,2,0,L|188:163,1,56.2500021457673,0|2,0:0|0:0,0:0:0:0:
184,306,91041,1,0,0:0:0:0:
188,168,91217,2,0,B|190:132|190:132|182:107|182:107|185:53,1,112.500004291535,2|2,0:0|0:0,0:0:0:0:
249,35,91747,5,4,3:0:0:0:
292,87,92100,1,4,3:0:0:0:
269,151,92276,5,0,1:0:0:0:
258,153,92364,1,0,1:0:0:0:
247,155,92453,1,4,3:0:0:0:
66,54,92629,5,0,1:0:0:0:
105,39,92717,1,0,1:0:0:0:
145,50,92805,1,0,1:0:0:0:
173,79,92894,1,0,1:0:0:0:
180,119,92982,2,0,P|171:144|167:177,1,44.999998626709,0|0,1:0|1:0,0:0:0:0:
83,339,93158,6,0,P|67:293|144:282,1,150,4|0,3:2|1:0,0:0:0:0:
215,384,93688,1,0,0:0:0:0:
215,384,93864,2,0,P|192:361|137:355,1,75,0|4,0:0|3:0,0:0:0:0:
119,193,94217,2,0,P|136:164|187:144,1,75,0|0,1:0|0:0,0:0:0:0:
316,229,94570,6,0,P|260:235|198:261,2,112.5,4|0|4,3:0|3:0|3:0,0:0:0:0:
323,233,95188,1,0,0:0:0:0:
330,237,95276,1,0,0:0:0:0:
377,95,95453,1,4,3:0:0:0:
354,166,95629,1,0,1:0:0:0:
337,24,95805,1,0,1:0:0:0:
336,16,95894,1,0,1:0:0:0:
335,8,95982,6,0,B|388:16|388:16|415:34|415:34|489:22,1,150,4|0,3:0|1:0,0:0:0:0:
512,195,96511,1,4,3:0:0:0:
423,241,96688,1,0,0:0:0:0:
377,95,96864,5,4,3:0:0:0:
501,283,97041,1,0,1:0:0:0:
302,382,97217,1,0,0:0:0:0:
439,155,97394,6,0,P|442:200|423:241,1,89.9999972534181,4|0,1:2|0:0,0:0:0:0:
308,37,97747,2,0,P|290:77|293:122,1,89.9999972534181,4|0,1:2|0:0,0:0:0:0:
424,240,98100,6,0,P|385:260|359:296,1,89.9999972534181,4|4,1:2|3:0,0:0:0:0:
288,296,98364,1,4,3:0:0:0:
288,296,98453,2,0,P|303:335|307:373,1,75,4|0,1:2|0:0,0:0:0:0:
316,228,98805,6,0,P|273:180|186:181,1,146.249993305207,4|0,3:0|0:0,0:0:0:0:
191,185,99158,1,0,1:0:0:0:
94,272,99335,6,0,P|133:273|181:244,1,82.5000025177003,4|0,3:0|0:0,0:0:0:0:
255,132,99688,6,0,P|267:94|251:39,1,97.4999955368044,4|0,3:0|1:0,0:0:0:0:
193,178,100041,2,0,P|171:158|134:148,1,48.7499977684022,0|0,1:0|1:0,0:0:0:0:
94,272,100217,6,0,P|115:335|206:345,1,146.249993305207,4|0,3:0|0:0,0:0:0:0:
200,344,100570,1,0,1:0:0:0:
172,253,100747,1,4,3:0:0:0:
172,253,100835,1,0,0:0:0:0:
172,253,100923,1,0,0:0:0:0:
19,287,101100,1,4,3:0:0:0:
67,136,101276,1,0,1:0:0:0:
108,352,101453,1,0,1:0:0:0:
108,352,101541,1,0,1:0:0:0:
108,352,101629,5,6,0:0:0:0:
355,183,101982,1,0,1:0:0:0:
80,68,102335,1,6,0:2:0:0:
169,210,102600,1,2,0:0:0:0:
236,55,102864,5,4,1:2:0:0:
227,57,102953,1,2,0:0:0:0:
218,59,103041,1,4,3:0:0:0:
108,141,103217,1,0,1:0:0:0:
117,143,103305,1,0,1:0:0:0:
126,145,103394,1,4,3:0:0:0:
169,210,103570,1,4,3:0:0:0:
202,139,103747,5,0,1:0:0:0:
221,269,103923,1,4,3:0:0:0:
269,51,104100,1,0,1:0:0:0:
57,118,104276,1,0,1:0:0:0:
57,118,104364,1,0,1:0:0:0:
57,118,104453,6,0,P|95:91|155:123,1,112.500004291535,2|0,0:0|0:0,0:0:0:0:
214,318,105158,2,0,P|172:297|169:230,1,112.500004291535,2|0,0:0|0:0,0:0:0:0:
217,189,105688,5,0,0:0:0:0:
217,189,105776,1,0,0:0:0:0:
217,189,105864,2,0,P|247:182|285:194,2,56.2500021457673,2|0|0,0:0|0:0|0:0,0:0:0:0:
151,160,106394,2,0,P|161:101|140:51,1,112.500004291535,2|0,0:0|0:0,0:0:0:0:
136,51,106835,1,0,3:0:0:0:
130,49,106923,1,0,3:0:0:0:
67,75,107100,1,4,3:0:0:0:
9,39,107276,5,2,0:0:0:0:
9,39,107629,1,0,0:0:0:0:
24,24,107805,1,0,0:0:0:0:
67,75,107982,1,2,0:0:0:0:
41,136,108158,1,0,0:0:0:0:
129,225,108335,1,0,0:0:0:0:
242,171,108511,1,0,0:0:0:0:
234,381,108688,6,0,B|222:330|222:330|226:299|226:299|211:232,1,137.999995367432,2|2,0:0|0:0,0:0:0:0:
276,27,109217,1,0,3:0:0:0:
294,22,109305,1,0,3:0:0:0:
309,34,109394,1,0,3:0:0:0:
278,189,109570,1,0,3:0:0:0:
260,194,109658,1,0,3:0:0:0:
245,182,109747,1,0,3:0:0:0:
277,108,109923,1,4,3:0:0:0:
398,298,110100,6,0,P|362:267|277:264,1,129.375002467632,6|0,0:0|0:0,0:0:0:0:
277,277,110453,1,2,0:0:0:0:
128,320,110629,1,2,0:0:0:0:
202,341,110805,2,0,P|203:303|176:259,1,75,2|0,0:0|0:0,0:0:0:0:
48,118,111158,2,0,P|47:156|74:200,1,75,2|0,0:0|0:0,0:0:0:0:
70,194,111423,1,0,0:0:0:0:
141,189,111511,6,0,P|153:136|180:77,1,112.5,6|0,0:0|0:0,0:0:0:0:
45,5,111864,2,0,P|68:56|81:111,1,112.5,6|0,0:0|0:0,0:0:0:0:
73,332,112217,2,0,P|54:299|128:292,1,140.625,6|0,0:0|0:0,0:0:0:0:
125,290,112570,1,2,3:2:0:0:
244,328,112747,1,4,1:3:0:0:
412,203,112923,5,2,0:0:0:0:
255,258,113276,1,0,0:0:0:0:
512,338,113629,5,2,0:0:0:0:
380,300,114158,1,2,0:0:0:0:
256,192,114247,12,0,115570,0:0:0:0:
