osu file format v14

[General]
AudioFilename: audio.mp3
AudioLeadIn: 0
PreviewTime: 13921
Countdown: 0
SampleSet: Soft
StackLeniency: 0.3
Mode: 0
LetterboxInBreaks: 0
WidescreenStoryboard: 1

[Editor]
DistanceSpacing: 0.19
BeatDivisor: 4
GridSize: 4
TimelineZoom: 2.299999

[Metadata]
Title:Feel It
TitleUnicode:Feel It
Artist:IAHN
ArtistUnicode:IAHN
Creator:Cellina
Version:Hard
Source:osu!
Tags:featured artist mappers' guild sonnyc electronic
BeatmapID:2146972
BeatmapSetID:1017701

[Difficulty]
HPDrainRate:5
CircleSize:3.8
OverallDifficulty:6
ApproachRate:7.8
SliderMultiplier:1.4
SliderTickRate:1

[Events]
//Background and Video events
0,0,"cxzcxzcz.png",0,0
//Break Periods
//Storyboard Layer 0 (Background)
//Storyboard Layer 1 (Fail)
//Storyboard Layer 2 (Pass)
//Storyboard Layer 3 (Foreground)
//Storyboard Layer 4 (Overlay)
//Storyboard Sound Samples

[TimingPoints]
1534,387.096774193548,4,2,1,55,1,0
13921,-100,4,2,1,75,0,0
26308,-100,4,2,1,55,0,0
32501,-100,4,2,1,75,0,0
38695,-100,4,2,1,85,0,0
39663,-100,4,2,1,85,0,0
44888,384.615384615385,4,2,1,85,1,0
46426,382.165605095541,4,2,1,85,1,0
47188,-100,4,2,1,85,0,0
47954,379.746835443038,4,2,1,85,1,0
49472,377.358490566038,4,2,1,85,1,0
50981,375,4,2,1,85,1,0
56606,-200,4,2,1,85,0,0
57543,-100,4,2,1,85,0,0
62981,387.096774193548,4,2,1,55,1,0
75368,-100,4,2,1,75,0,0
87755,-100,4,2,1,55,0,0
93948,-100,4,2,1,75,0,0

[Colours]
Combo1 : 245,137,205
Combo2 : 4,198,159
Combo3 : 183,255,130
Combo4 : 48,197,218

[HitObjects]
35,230,1050,6,0,L|29:193,4,35,0|0|0|0|0,0:0|0:0|0:0|0:0|0:0,0:0:0:0:
24,249,1534,6,0,P|94:234|178:238,1,140,4|8,1:0|0:0,0:0:0:0:
239,202,2114,1,0,0:0:0:0:
321,220,2308,2,0,P|327:180|327:133,1,70,8|2,0:0|0:0,0:0:0:0:
266,282,2695,2,0,P|267:316|272:351,1,70,8|2,0:0|0:0,0:0:0:0:
352,321,3082,6,0,P|391:323|437:329,1,70,8|0,0:0|0:0,0:0:0:0:
508,300,3469,1,8,0:0:0:0:
464,227,3663,1,0,0:0:0:0:
464,227,3759,1,0,0:0:0:0:
464,227,3856,2,0,P|458:186|456:140,1,70,8|2,0:0|0:0,0:0:0:0:
468,74,4243,2,0,P|433:71|398:66,1,70,8|0,0:0|0:0,0:0:0:0:
320,35,4630,6,0,P|246:64|169:58,1,140,8|8,0:0|0:0,0:0:0:0:
113,103,5211,1,0,0:0:0:0:
38,66,5404,2,0,P|29:30|24:-8,1,70,8|2,0:0|0:0,0:0:0:0:
113,103,5792,5,8,0:0:0:0:
54,163,5985,2,0,P|18:231|30:310,1,140,2|2,0:0|0:0,0:0:0:0:
87,347,6566,2,0,L|165:344,1,70,8|2,0:0|0:0,0:0:0:0:
227,298,6953,1,10,0:0:0:0:
227,298,7050,1,0,0:0:0:0:
227,298,7146,1,2,0:0:0:0:
298,345,7340,2,0,L|376:348,1,70,10|2,0:0|0:0,0:0:0:0:
446,308,7727,6,0,P|459:272|459:226,1,70,8|2,0:0|0:0,0:0:0:0:
399,181,8114,1,8,0:0:0:0:
448,112,8308,2,0,P|489:116|522:118,1,70,2|8,0:0|0:0,0:0:0:0:
368,103,8695,2,0,P|355:67|355:21,1,70,2|8,0:0|0:0,0:0:0:0:
314,169,9082,6,0,P|249:191|150:185,1,140,2|2,0:0|0:0,0:0:0:0:
103,146,9663,1,8,0:0:0:0:
103,146,9759,1,2,0:0:0:0:
103,146,9856,1,2,0:0:0:0:
33,202,10050,2,0,L|37:238,3,35,10|0|2|0,0:0|0:0|0:0|0:0,0:0:0:0:
57,241,10437,2,0,L|53:277,3,35,10|0|2|0,0:0|0:0|0:0|0:0,0:0:0:0:
45,295,10824,6,0,P|131:301|202:312,1,140,8|8,0:0|0:0,0:0:0:0:
255,356,11404,1,2,0:0:0:0:
327,312,11598,2,0,P|346:280|334:242,1,70,8|0,0:0|0:0,0:0:0:0:
273,196,11985,2,0,P|254:164|266:126,1,70,8|2,0:0|0:0,0:0:0:0:
310,66,12372,6,0,L|396:77,1,70,8|2,0:0|0:0,0:0:0:0:
229,51,12759,1,8,0:0:0:0:
229,51,12856,1,0,0:0:0:0:
229,51,12953,2,0,L|220:9,2,35,0|0|10,1:0|0:0|0:0,0:0:0:0:
174,114,13340,1,2,1:2:0:0:
174,114,13533,2,0,P|171:155|168:186,1,70,8|0,1:2|0:0,0:0:0:0:
125,258,13921,6,0,P|57:269|0:211,1,140,2|0,0:0|0:0,0:0:0:0:
50,157,14501,1,0,0:0:0:0:
50,157,14598,1,0,1:0:0:0:
50,157,14695,2,0,P|45:113|47:77,1,70,6|2,1:0|1:0,0:0:0:0:
106,29,15082,2,0,L|191:33,1,70,0|2,0:0|1:0,0:0:0:0:
245,79,15469,6,0,P|284:77|342:63,1,70,0|2,0:0|0:0,0:0:0:0:
389,29,15856,1,2,0:0:0:0:
466,84,16050,1,0,1:0:0:0:
466,84,16146,1,0,0:0:0:0:
466,84,16243,2,0,L|463:162,1,70,8|2,0:0|0:1,0:0:0:0:
407,270,16630,2,0,P|390:241|398:208,1,70,0|0,1:0|0:0,0:0:0:0:
480,312,17017,6,0,P|413:300|350:340,1,140,0|0,1:0|0:0,0:0:0:0:
273,303,17598,1,0,1:0:0:0:
197,340,17792,2,0,P|159:332|101:328,1,70,8|2,1:2|1:0,0:0:0:0:
54,288,18179,1,2,1:0:0:0:
120,236,18372,6,0,P|137:163|148:82,1,140,0|2,1:0|0:1,0:0:0:0:
127,16,18953,1,2,0:1:0:0:
221,29,19146,1,2,0:0:0:0:
221,29,19243,1,0,0:0:0:0:
221,29,19340,2,0,L|268:24,3,35,10|0|2|0,1:2|0:0|0:0|0:0,0:0:0:0:
277,39,19727,2,0,L|324:34,2,35,2|0|0,0:0|0:0|0:0,0:0:0:0:
390,6,20114,5,0,1:0:0:0:
467,61,20308,1,0,0:0:0:0:
467,61,20404,1,0,0:0:0:0:
467,61,20501,1,0,0:0:0:0:
398,110,20695,2,0,P|366:175|377:252,1,140,2|2,0:0|1:0,0:0:0:0:
447,276,21275,1,0,0:0:0:0:
318,301,21469,6,0,L|163:291,1,140,0|2,1:0|0:1,0:0:0:0:
103,330,22050,1,2,0:1:0:0:
103,330,22146,1,0,0:0:0:0:
103,330,22243,1,0,1:0:0:0:
42,271,22437,2,0,L|38:225,3,35,10|0|2|0,1:2|0:0|0:0|0:0,0:0:0:0:
65,224,22824,2,0,L|68:178,3,35,2|0|2|0,1:2|0:0|0:0|0:0,0:0:0:0:
47,151,23211,5,2,0:1:0:0:
115,102,23404,2,0,P|138:67|133:26,1,70,0|0,0:0|0:0,0:0:0:0:
47,151,23792,2,0,P|124:129|179:167,1,140,2|0,0:1|1:0,0:0:0:0:
291,229,24372,1,2,0:1:0:0:
251,158,24566,1,0,1:0:0:0:
352,124,24759,6,0,L|436:118,1,70,2|0,1:0|0:0,0:0:0:0:
461,102,25050,1,0,1:0:0:0:
461,102,25146,2,0,B|476:120|476:120|470:181,1,70,2|0,0:1|1:0,0:0:0:0:
402,215,25533,1,0,0:0:0:0:
402,215,25630,1,0,1:0:0:0:
402,215,25727,1,2,0:1:0:0:
472,261,25921,2,0,B|476:307|476:307|461:325,1,70,2|0,1:0|1:0,0:0:0:0:
380,348,26308,6,0,B|294:366|337:313|240:338,1,140,4|8,1:0|0:0,0:0:0:0:
224,342,26792,1,2,0:0:0:0:
223,340,26888,1,0,0:0:0:0:
166,277,27082,2,0,L|171:238,2,35,8|2|0,0:0|0:1|0:0,0:0:0:0:
92,317,27469,1,8,0:0:0:0:
92,317,27566,1,0,0:0:0:0:
92,317,27663,1,2,0:1:0:0:
46,242,27856,6,0,L|41:162,1,70,8|0,0:0|0:0,0:0:0:0:
20,135,28146,2,0,P|97:130|151:113,1,105,2|0,0:1|0:0,0:0:0:0:
192,74,28630,1,8,0:0:0:0:
192,74,28727,2,0,P|269:79|323:96,1,105,2|8,0:1|0:0,0:0:0:0:
383,120,29211,1,0,1:0:0:0:
383,120,29308,1,0,0:0:0:0:
383,120,29404,6,0,L|373:267,1,140,8|8,0:0|0:0,0:0:0:0:
374,279,29888,1,0,0:0:0:0:
374,279,29985,1,0,0:0:0:0:
294,250,30179,1,8,0:0:0:0:
294,250,30275,1,2,0:1:0:0:
294,250,30372,1,0,0:0:0:0:
228,303,30566,2,0,L|234:351,2,35,8|0|2,0:0|0:0|0:1,0:0:0:0:
154,262,30953,6,0,P|99:279|63:283,1,70,8|2,0:0|0:1,0:0:0:0:
33,215,31340,2,0,L|-6:205,2,35,8|0|8,0:0|0:0|0:0,0:0:0:0:
103,168,31727,1,8,0:0:0:0:
103,168,31824,1,2,0:1:0:0:
103,168,31921,1,8,0:0:0:0:
103,168,32017,1,0,0:0:0:0:
103,168,32114,2,0,P|130:94|139:35,1,105,0|0,1:0|0:0,0:0:0:0:
133,26,32501,6,0,P|184:38|222:38,1,70,8|8,1:2|0:2,0:0:0:0:
241,24,32792,2,0,L|248:131,1,105,2|8,0:1|0:2,0:0:0:0:
325,181,33275,1,8,1:2:0:0:
325,181,33372,1,2,0:1:0:0:
325,181,33469,1,8,0:2:0:0:
268,243,33663,2,0,L|280:283,2,35,8|0|2,1:2|0:0|0:1,0:0:0:0:
325,181,34050,6,0,P|365:172|396:157,1,70,8|8,1:2|0:2,0:0:0:0:
428,139,34340,2,0,P|425:222|429:267,1,105,2|8,0:1|0:2,0:0:0:0:
477,310,34824,2,0,L|520:303,2,35,8|2|8,1:2|0:1|0:2,0:0:0:0:
413,364,35211,1,8,1:2:0:0:
413,364,35308,1,0,0:0:0:0:
413,364,35404,1,8,0:2:0:0:
329,319,35598,6,0,L|275:326,3,35,8|0|8|0,1:2|0:0|0:2|0:0,0:0:0:0:
265,292,35985,2,0,L|211:299,3,35,8|0|8|0,1:2|0:0|0:2|0:0,0:0:0:0:
200,326,36372,2,0,L|146:333,3,35,8|8|8|8,1:2|0:0|0:0|0:0,0:0:0:0:
128,310,36759,5,8,1:2:0:0:
126,285,36856,1,8,0:0:0:0:
124,260,36953,1,8,0:0:0:0:
122,235,37050,1,8,0:0:0:0:
120,210,37146,1,8,1:2:0:0:
41,54,37921,5,0,1:1:0:0:
108,118,38114,1,8,1:2:0:0:
51,193,38308,2,0,L|53:233,3,35,8|8|8|8,1:2|1:2|1:2|1:2,0:0:0:0:
41,252,38695,5,2,1:0:0:0:
130,263,38888,1,0,0:0:0:0:
220,275,39082,1,0,1:0:0:0:
220,275,39469,6,0,L|300:267,1,70,4|2,1:0|0:1,0:0:0:0:
377,292,39856,1,0,0:0:0:0:
377,292,39953,1,0,0:0:0:0:
377,292,40050,2,0,P|407:221|396:149,1,140,2|0,0:1|1:0,0:0:0:0:
329,102,40630,1,0,1:0:0:0:
329,102,40727,1,0,0:0:0:0:
329,102,40824,2,0,L|257:98,1,70,2|0,0:1|0:0,0:0:0:0:
171,72,41211,2,0,P|156:35|155:0,2,70,0|8|0,1:0|0:0|0:0,0:0:0:0:
119,147,41792,6,0,P|65:200|75:263,1,140,0|2,1:0|0:0,0:0:0:0:
143,314,42372,1,2,1:2:0:0:
143,314,42469,1,2,0:0:0:0:
143,314,42566,2,0,P|184:306|219:305,1,70,8|0,1:2|0:0,0:0:0:0:
248,276,42856,2,0,P|289:284|324:285,1,70,2|0,0:0|0:0,0:0:0:0:
351,314,43146,1,0,1:0:0:0:
433,275,43340,6,0,P|471:202|440:140,1,140,2|2,0:1|0:1,0:0:0:0:
375,103,43921,1,2,0:0:0:0:
375,103,44017,1,2,0:2:0:0:
375,103,44114,2,0,P|317:110|292:117,1,70,2|0,1:1|0:0,0:0:0:0:
175,53,44501,2,0,P|210:51|245:44,1,70,2|0,1:1|0:0,0:0:0:0:
217,131,44888,6,0,P|146:180|85:174,1,140,2|2,1:0|0:1,0:0:0:0:
55,354,45657,1,8,1:2:0:0:
126,297,45849,1,2,1:1:0:0:
215,353,46041,1,0,0:0:0:0:
215,353,46138,1,0,0:0:0:0:
215,353,46234,2,0,P|308:340|369:343,1,140,2|0,1:1|0:0,0:0:0:0:
363,250,46808,1,0,0:0:0:0:
452,264,46999,2,0,P|472:304|461:348,1,70,0|2,1:0|1:2,0:0:0:0:
363,250,47381,1,10,0:0:0:0:
363,250,47476,1,0,0:0:0:0:
363,250,47572,2,0,P|342:215|351:162,1,70,2|2,1:2|0:2,0:0:0:0:
375,101,47954,6,0,P|316:160|240:148,1,140,2|0,1:0|0:0,0:0:0:0:
186,110,48523,1,0,0:0:0:0:
186,110,48618,1,0,0:0:0:0:
186,110,48713,2,0,P|175:44|163:-3,2,105,8|0|0,1:2|0:0|0:0,0:0:0:0:
126,180,49472,6,0,L|133:232,3,35,2|2|2|2,0:1|0:0|0:0|0:2,0:0:0:0:
101,249,49849,2,0,L|94:301,3,35,2|2|2|2,0:1|0:0|0:0|0:2,0:0:0:0:
120,322,50226,2,0,L|211:314,1,70,2|2,1:0|0:0,0:0:0:0:
247,244,50604,1,0,1:2:0:0:
326,288,50792,1,0,1:2:0:0:
402,236,50981,6,0,P|434:172|430:92,1,140,4|2,1:0|0:1,0:0:0:0:
360,49,51543,1,2,0:1:0:0:
360,49,51637,1,2,0:0:0:0:
360,49,51731,2,0,P|317:56|282:64,1,70,0|0,1:0|0:0,0:0:0:0:
202,82,52106,2,0,L|205:35,2,35,2|2|0,1:1|0:0|0:0,0:0:0:0:
156,160,52481,6,0,P|92:202|30:204,1,140,2|8,1:0|1:2,0:0:0:0:
112,243,53043,1,2,0:0:0:0:
112,243,53137,1,2,0:0:0:0:
112,243,53231,2,0,P|123:290|124:337,1,70,0|2,1:0|0:0,0:0:0:0:
204,355,53606,2,0,P|246:348|285:345,1,70,8|2,1:2|0:0,0:0:0:0:
354,306,53981,6,0,L|392:311,3,35,2|2|2|2,1:0|0:0|0:0|0:0,0:0:0:0:
420,342,54356,2,0,L|454:337,3,35,2|2|2|2,0:1|0:0|0:0|0:0,0:0:0:0:
486,305,54731,2,0,P|497:255|493:212,1,70,2|2,1:0|0:0,0:0:0:0:
452,156,55106,1,2,0:1:0:0:
445,157,55199,1,2,0:0:0:0:
438,158,55293,1,2,0:0:0:0:
431,159,55387,1,2,0:0:0:0:
424,160,55481,6,0,B|342:180|382:126|279:149,1,140,2|2,1:0|0:1,0:0:0:0:
204,113,56043,1,0,1:0:0:0:
204,113,56137,1,2,0:0:0:0:
204,113,56231,2,0,P|187:77|201:35,1,70,2|2,0:1|0:0,0:0:0:0:
253,0,56606,6,0,P|176:26|108:34,1,140,2|0,1:0|0:0,0:0:0:0:
42,54,57543,5,0,1:0:0:0:
42,54,57637,1,0,1:0:0:0:
42,54,57731,2,0,L|53:126,1,70,0|2,1:0|0:1,0:0:0:0:
47,215,58106,2,0,L|2:211,2,35,0|2|2,1:1|0:1|0:1,0:0:0:0:
109,281,58481,6,0,P|165:314|256:314,1,140,2|2,1:1|1:0,0:0:0:0:
325,288,59043,1,2,0:0:0:0:
325,288,59137,1,2,0:0:0:0:
325,288,59231,2,0,L|318:210,1,70,0|2,1:0|0:0,0:0:0:0:
376,77,59606,2,0,P|381:111|372:145,1,70,8|0,1:2|0:0,0:0:0:0:
281,135,59981,6,0,L|189:146,1,70,2|2,1:0|0:0,0:0:0:0:
186,147,60262,1,2,0:1:0:0:
186,147,60356,2,0,P|167:97|177:61,1,70,8|2,1:2|0:0,0:0:0:0:
88,40,60731,2,0,L|85:-1,2,35,2|2|2,1:0|0:0|0:0,0:0:0:0:
37,116,61106,1,2,1:1:0:0:
38,122,61199,1,2,0:0:0:0:
39,128,61293,1,2,0:0:0:0:
40,134,61387,1,2,0:0:0:0:
40,140,61481,6,0,P|49:181|55:224,1,70,2|0,1:0|1:0,0:0:0:0:
135,249,61856,1,0,1:0:0:0:
80,323,62043,1,0,1:0:0:0:
80,323,62137,1,0,1:0:0:0:
80,323,62231,2,0,L|28:312,2,35,0|0|0,1:0|1:0|1:0,0:0:0:0:
170,333,62606,2,0,L|222:344,2,35,8|0|0,1:2|0:0|0:0,0:0:0:0:
136,251,62981,6,0,P|195:226|291:234,1,140,4|8,1:0|0:0,0:0:0:0:
341,183,63561,1,0,0:0:0:0:
422,202,63755,2,0,P|435:155|437:102,1,70,8|2,0:0|0:0,0:0:0:0:
359,100,64142,2,0,P|348:66|343:31,1,70,8|2,0:0|0:0,0:0:0:0:
341,183,64529,5,8,0:0:0:0:
269,227,64722,2,0,L|276:268,2,35,0|0|8,0:0|0:0|0:0,0:0:0:0:
200,177,65110,1,0,0:0:0:0:
200,177,65206,1,0,0:0:0:0:
200,177,65303,2,0,P|186:131|185:90,1,70,8|2,0:0|0:0,0:0:0:0:
214,30,65690,2,0,L|136:23,1,70,8|0,0:0|0:0,0:0:0:0:
64,51,66077,6,0,P|19:111|39:181,1,140,8|8,0:0|0:0,0:0:0:0:
105,209,66658,1,0,0:0:0:0:
69,284,66851,2,0,P|17:277|-30:276,1,70,8|2,0:0|0:0,0:0:0:0:
105,209,67239,1,8,0:0:0:0:
176,252,67432,6,0,P|247:275|317:266,1,140,2|2,0:0|0:0,0:0:0:0:
380,219,68013,1,8,0:0:0:0:
455,275,68206,1,2,0:0:0:0:
455,275,68303,1,0,0:0:0:0:
455,275,68400,2,0,L|449:329,3,35,10|0|2|0,0:0|0:0|0:0|0:0,0:0:0:0:
423,314,68787,2,0,L|426:348,2,35,10|0|2,0:0|0:0|0:0,0:0:0:0:
345,346,69174,5,8,0:0:0:0:
262,363,69368,1,2,0:0:0:0:
262,363,69464,1,0,0:0:0:0:
262,363,69561,1,8,0:0:0:0:
285,282,69755,2,0,P|266:211|275:136,1,140,2|2,0:0|0:0,0:0:0:0:
327,82,70335,1,8,0:0:0:0:
205,93,70529,6,0,P|273:116|330:74,1,140,2|2,0:0|0:0,0:0:0:0:
408,63,71110,2,0,L|413:22,2,35,8|2|2,0:0|0:0|0:0,0:0:0:0:
411,147,71497,6,0,L|419:207,3,35,10|0|2|0,0:0|0:0|0:0|0:0,0:0:0:0:
443,187,71884,2,0,L|438:221,3,35,10|0|2|0,0:0|0:0|0:0|0:0,0:0:0:0:
453,251,72271,6,0,L|376:256,1,70,8|0,0:0|0:0,0:0:0:0:
369,261,72561,1,0,0:0:0:0:
369,261,72658,1,8,0:0:0:0:
304,314,72851,2,0,P|234:298|150:306,1,140,2|0,0:0|0:0,0:0:0:0:
83,319,73432,1,8,0:0:0:0:
39,246,73626,1,2,0:0:0:0:
86,177,73819,6,0,P|96:125|97:90,1,70,8|2,0:0|0:0,0:0:0:0:
158,50,74206,1,8,0:0:0:0:
158,50,74303,1,0,0:0:0:0:
158,50,74400,2,0,L|154:8,2,35,0|0|10,1:0|0:0|0:0,0:0:0:0:
215,111,74787,1,2,1:2:0:0:
215,111,74980,2,0,L|305:120,1,70,8|0,1:2|0:0,0:0:0:0:
348,62,75368,6,0,B|437:49|403:95|491:82,1,140,2|0,0:0|0:0,0:0:0:0:
504,163,75948,1,0,0:0:0:0:
429,202,76142,2,0,P|436:251|439:286,1,70,6|2,1:0|1:0,0:0:0:0:
496,331,76529,1,0,0:0:0:0:
364,323,76722,6,0,P|439:307|504:337,1,140,2|2,1:0|0:0,0:0:0:0:
348,228,77303,1,2,0:0:0:0:
276,286,77497,1,0,1:0:0:0:
276,286,77593,1,0,0:0:0:0:
276,286,77690,2,0,P|231:276|196:275,1,70,8|2,0:0|0:1,0:0:0:0:
103,361,78077,2,0,P|100:326|91:292,1,70,0|0,1:0|0:0,0:0:0:0:
65,140,78464,6,0,P|8:191|36:260,1,140,0|0,1:0|0:0,0:0:0:0:
91,292,79045,1,0,1:0:0:0:
172,270,79239,2,0,P|208:265|264:262,1,70,8|2,1:2|1:0,0:0:0:0:
318,227,79626,1,2,1:0:0:0:
318,227,79819,6,0,P|327:160|273:120,1,140,0|2,1:0|0:1,0:0:0:0:
210,65,80400,1,2,0:1:0:0:
139,109,80593,1,2,0:0:0:0:
139,109,80690,1,0,0:0:0:0:
139,109,80787,2,0,L|89:111,3,35,10|0|2|0,1:2|0:0|0:0|0:0,0:0:0:0:
72,137,81174,2,0,L|22:135,2,35,2|0|0,0:0|0:0|0:0,0:0:0:0:
130,197,81561,5,0,1:0:0:0:
70,257,81755,1,0,0:0:0:0:
70,257,81851,1,0,0:0:0:0:
70,257,81948,1,0,0:0:0:0:
126,319,82142,2,0,P|199:314|286:311,1,140,2|2,0:0|1:0,0:0:0:0:
337,268,82722,1,0,0:0:0:0:
312,126,82916,6,0,P|249:167|269:225,1,140,0|2,1:0|0:1,0:0:0:0:
345,275,83497,1,2,0:1:0:0:
345,275,83593,1,0,0:0:0:0:
345,275,83690,1,0,1:0:0:0:
421,239,83884,2,0,L|469:232,3,35,10|0|2|0,1:2|0:0|0:0|0:0,0:0:0:0:
466,213,84271,2,0,L|460:178,3,35,2|0|2|0,1:2|0:0|0:0|0:0,0:0:0:0:
474,162,84658,6,0,L|463:75,1,70,2|0,0:1|0:0,0:0:0:0:
465,92,84948,1,0,0:0:0:0:
465,92,85045,1,0,0:0:0:0:
494,4,85239,2,0,P|411:29|336:37,1,140,2|0,0:1|1:0,0:0:0:0:
189,91,85819,2,0,P|237:94|281:104,1,70,2|0,0:1|1:0,0:0:0:0:
335,132,86206,5,2,1:0:0:0:
287,201,86400,1,0,0:0:0:0:
352,253,86593,2,0,L|405:246,2,35,2|2|0,0:1|0:0|1:0,0:0:0:0:
297,316,86980,1,0,0:0:0:0:
297,316,87077,1,0,1:0:0:0:
297,316,87174,2,0,P|251:309|212:309,1,70,2|2,0:1|1:0,0:0:0:0:
148,337,87561,1,0,1:0:0:0:
71,302,87755,6,0,P|62:223|49:150,1,140,4|8,1:0|0:0,0:0:0:0:
51,163,88239,1,2,0:0:0:0:
51,163,88335,1,0,0:0:0:0:
116,109,88529,2,0,L|119:72,2,35,8|2|0,0:0|0:1|0:0,0:0:0:0:
183,159,88916,2,0,L|185:193,2,35,8|0|2,0:0|0:0|0:1,0:0:0:0:
243,100,89303,6,0,P|288:96|324:90,1,70,8|0,0:0|0:0,0:0:0:0:
335,78,89593,2,0,P|322:147|321:197,1,105,2|0,0:1|0:0,0:0:0:0:
364,253,90077,2,0,L|411:246,2,35,8|2|8,0:0|0:1|0:0,0:0:0:0:
293,298,90464,2,0,P|238:306|231:359,1,105,8|0,0:0|0:0,0:0:0:0:
243,356,90851,6,0,B|149:339|211:391|109:373,1,140,8|8,0:0|0:0,0:0:0:0:
110,373,91335,1,0,0:0:0:0:
110,373,91432,1,0,0:0:0:0:
52,311,91626,2,0,L|12:314,2,35,8|2|0,0:0|0:1|0:0,0:0:0:0:
118,259,92013,2,0,L|158:262,2,35,8|0|2,0:0|0:0|0:1,0:0:0:0:
53,204,92400,6,0,L|47:166,2,35,8|0|2,0:0|0:0|0:1,0:0:0:0:
120,121,92787,2,0,L|126:83,3,35,8|0|8|0,0:0|0:0|0:0|0:0,0:0:0:0:
131,141,93174,6,0,P|207:130|259:126,1,105,8|0,0:0|0:0,0:0:0:0:
254,90,93561,2,0,P|330:101|382:105,1,105,0|0,1:0|0:0,0:0:0:0:
390,129,93948,6,0,P|402:160|389:199,1,70,2|8,1:0|0:0,0:0:0:0:
377,210,94239,1,0,0:0:0:0:
377,210,94335,2,0,L|382:288,1,70,2|8,1:0|0:0,0:0:0:0:
442,337,94722,1,0,1:0:0:0:
442,337,94819,2,0,P|369:340|317:352,1,105,2|0,0:1|1:0,0:0:0:0:
265,303,95303,1,2,0:1:0:0:
192,346,95497,6,0,L|143:347,3,35,0|0|8|0,1:0|0:0|0:0|0:0,0:0:0:0:
138,326,95884,2,0,L|89:327,2,35,0|0|2,1:0|0:0|0:1,0:0:0:0:
195,264,96271,1,0,1:0:0:0:
152,191,96464,1,2,0:1:0:0:
152,191,96561,1,0,0:0:0:0:
152,191,96658,2,0,P|141:142|137:107,1,70,2|8,1:0|0:0,0:0:0:0:
256,192,97045,12,6,98980,1:0:0:0:
