osu file format v14

[General]
AudioFilename: audio.mp3
AudioLeadIn: 0
PreviewTime: 13921
Countdown: 0
SampleSet: Soft
StackLeniency: 0.3
Mode: 0
LetterboxInBreaks: 0
WidescreenStoryboard: 1

[Editor]
DistanceSpacing: 0.5
BeatDivisor: 12
GridSize: 4
TimelineZoom: 7.299995

[Metadata]
Title:Feel It
TitleUnicode:Feel It
Artist:IAHN
ArtistUnicode:IAHN
Creator:Cellina
Version:Expert
Source:osu!
Tags:featured artist mappers' guild sonnyc electronic
BeatmapID:2129967
BeatmapSetID:1017701

[Difficulty]
HPDrainRate:6
CircleSize:4.5
OverallDifficulty:8.5
ApproachRate:9.3
SliderMultiplier:1.7
SliderTickRate:1

[Events]
//Background and Video events
0,0,"cxzcxzcz.png",0,0
//Break Periods
//Storyboard Layer 0 (Background)
//Storyboard Layer 1 (Fail)
//Storyboard Layer 2 (Pass)
//Storyboard Layer 3 (Foreground)
//Storyboard Layer 4 (Overlay)
//Storyboard Sound Samples

[TimingPoints]
1534,387.096774193548,4,2,1,55,1,0
1534,-100,4,2,1,55,0,0
4243,-83.3333333333333,4,2,1,55,0,0
4630,-100,4,2,1,55,0,0
13921,-83.3333333333333,4,2,1,75,0,0
16630,-71.4285714285714,4,2,1,75,0,0
17017,-83.3333333333333,4,2,1,75,0,0
23792,-76.9230769230769,4,2,1,75,0,0
24372,-71.4285714285714,4,2,1,75,0,0
26308,-100,4,2,1,55,0,0
32114,-500,4,2,1,55,0,0
32501,-76.9230769230769,4,2,1,75,0,0
35598,-71.4285714285714,4,2,1,75,0,0
37146,-133.333333333333,4,2,1,75,0,0
37921,-71.4285714285714,4,2,1,75,0,0
38695,-45.4545454545455,4,2,1,85,0,0
39663,-71.4285714285714,4,2,1,85,0,0
41792,-66.6666666666667,4,2,1,85,0,0
44114,-76.9230769230769,4,2,1,85,0,0
44888,384.615384615385,4,2,1,85,1,0
44888,-71.4285714285714,4,2,1,85,0,0
45271,-333.333333333333,4,2,1,85,0,0
45654,-76.9230769230769,4,2,1,85,0,0
46426,382.165605095541,4,2,1,85,1,0
46426,-76.9230769230769,4,2,1,85,0,0
47188,-47.6190476190476,4,2,1,85,0,0
47954,379.746835443038,4,2,1,85,1,0
47954,-66.6666666666667,4,2,1,85,0,0
48333,-333.333333333333,4,2,1,85,0,0
48713,-71.4285714285714,4,2,1,85,0,0
49472,377.358490566038,4,2,1,85,1,0
49472,-66.6666666666667,4,2,1,85,0,0
50604,-52.6315789473684,4,2,1,85,0,0
50981,375,4,2,1,85,1,0
50981,-55.5555555555556,4,2,1,85,0,0
51356,-55.5555555555556,4,2,1,85,0,0
53231,-52.6315789473684,4,2,1,85,0,0
53981,-58.8235294117647,4,2,1,85,0,0
54356,-55.5555555555556,4,2,1,85,0,0
55481,-55.5555555555556,4,2,1,85,0,0
56606,-1000,4,2,1,85,0,0
57731,-52.6315789473684,4,2,1,85,0,0
59231,-76.9230769230769,4,2,1,85,0,0
59981,-58.8235294117647,4,2,1,85,0,0
61481,-52.6315789473684,4,2,1,85,0,0
62699,-133.333333333333,4,2,1,85,0,0
62887,-133.333333333333,4,2,1,5,0,0
62981,387.096774193548,4,2,1,55,1,0
62981,-100,4,2,1,55,0,0
65690,-83.3333333333333,4,2,1,55,0,0
66077,-100,4,2,1,55,0,0
75368,-83.3333333333333,4,2,1,75,0,0
78077,-71.4285714285714,4,2,1,75,0,0
78464,-83.3333333333333,4,2,1,75,0,0
86206,-71.4285714285714,4,2,1,75,0,0
87755,-100,4,2,1,55,0,0
90464,-41.6666666666667,4,2,1,55,0,0
90658,-250,4,2,1,55,0,0
90851,-100,4,2,1,55,0,0
93561,-500,4,2,1,55,0,0
93948,-76.9230769230769,4,2,1,75,0,0
95303,-38.4615384615385,4,2,1,75,0,0
95497,-71.4285714285714,4,2,1,75,0,0

[Colours]
Combo1 : 245,137,205
Combo2 : 4,198,159
Combo3 : 183,255,130
Combo4 : 48,197,218

[HitObjects]
35,111,1050,5,0,0:0:0:0:
37,128,1146,1,0,0:0:0:0:
39,145,1243,1,0,0:0:0:0:
41,162,1340,1,0,0:0:0:0:
43,179,1437,1,0,0:0:0:0:
8,248,1534,6,0,P|101:209|194:218,1,170,4|8,1:0|0:0,0:0:0:0:
252,151,2114,1,0,0:0:0:0:
185,83,2308,2,0,P|176:37|172:-4,1,85,8|2,0:0|0:0,0:0:0:0:
346,140,2695,1,8,0:0:0:0:
267,241,2888,1,2,0:0:0:0:
332,352,3082,5,8,0:0:0:0:
408,319,3275,2,0,L|457:325,2,42.5,0|0|8,0:0|0:0|0:0,0:0:0:0:
246,354,3663,1,0,0:0:0:0:
246,354,3759,1,0,0:0:0:0:
246,354,3856,2,0,L|238:289,1,42.5,8|0,0:0|0:0,0:0:0:0:
183,257,4050,1,2,0:0:0:0:
204,121,4243,6,0,B|256:96|256:96|227:201,1,152.999995330811,8|0,0:0|0:0,0:0:0:0:
183,257,4630,6,0,L|11:274,1,170,8|8,0:0|0:0,0:0:0:0:
70,196,5211,1,0,0:0:0:0:
19,51,5404,2,0,B|3:72|3:72|18:133,1,85,8|2,0:0|0:0,0:0:0:0:
94,91,5792,1,8,0:0:0:0:
265,80,5985,6,0,L|165:86,1,85,2|8,0:0|0:0,0:0:0:0:
104,91,6275,1,0,0:0:0:0:
94,91,6372,1,2,0:0:0:0:
138,18,6566,1,8,0:0:0:0:
224,164,6759,1,2,0:0:0:0:
224,164,6856,1,0,0:0:0:0:
224,164,6953,5,10,0:0:0:0:
222,185,7050,1,0,0:0:0:0:
220,205,7146,1,2,0:0:0:0:
218,226,7243,1,0,0:0:0:0:
249,252,7340,5,10,0:0:0:0:
252,273,7437,1,0,0:0:0:0:
255,293,7533,1,2,0:0:0:0:
437,215,7727,5,8,0:0:0:0:
347,208,7921,1,2,0:0:0:0:
347,208,8017,1,0,0:0:0:0:
347,208,8114,2,0,P|342:236|356:259,1,42.5,8|0,0:0|0:0,0:0:0:0:
507,333,8308,2,0,P|470:311|398:327,1,85,2|8,0:0|0:0,0:0:0:0:
437,215,8695,1,2,0:0:0:0:
355,368,8888,1,8,0:0:0:0:
226,307,9082,6,0,P|224:258|217:215,1,85,2|8,0:0|0:0,0:0:0:0:
208,141,9469,1,2,0:0:0:0:
209,13,9663,1,8,0:0:0:0:
209,13,9759,1,2,0:0:0:0:
209,13,9856,2,0,L|208:77,1,42.5,2|0,0:0|0:0,0:0:0:0:
262,94,10050,5,10,0:0:0:0:
224,97,10146,1,0,0:0:0:0:
185,100,10243,1,2,0:0:0:0:
146,103,10340,1,0,0:0:0:0:
124,89,10437,5,10,0:0:0:0:
103,85,10533,1,0,0:0:0:0:
81,82,10630,1,2,0:0:0:0:
59,79,10727,1,0,0:0:0:0:
40,110,10824,6,0,P|47:158|49:224,1,85,8|0,0:0|0:0,0:0:0:0:
145,161,11114,1,0,0:0:0:0:
145,161,11211,1,8,0:0:0:0:
144,339,11404,2,0,P|137:296|134:254,1,85,2|8,0:0|0:0,0:0:0:0:
54,311,11792,1,0,0:0:0:0:
218,287,11985,2,0,L|287:277,2,42.5,8|0|2,0:0|0:0|0:0,0:0:0:0:
145,161,12372,6,0,P|184:165|240:168,1,85,8|2,0:0|0:0,0:0:0:0:
334,32,12759,5,8,0:0:0:0:
333,53,12856,1,0,0:0:0:0:
332,74,12953,1,0,1:0:0:0:
331,95,13050,1,0,0:0:0:0:
397,142,13146,5,10,0:0:0:0:
398,180,13243,1,0,0:0:0:0:
400,218,13340,1,2,1:2:0:0:
401,255,13437,1,0,0:0:0:0:
349,321,13533,5,8,1:2:0:0:
421,360,13630,1,0,0:0:0:0:
472,295,13727,1,0,0:0:0:0:
401,255,13824,1,0,0:0:0:0:
406,262,13921,6,0,B|333:272|333:272|286:241|286:241|208:252,1,203.999993774414,2|0,0:0|0:0,0:0:0:0:
51,309,14501,2,0,L|84:303,2,25.4999992218018,0|0|0,0:0|0:0|1:0,0:0:0:0:
51,309,14695,2,0,P|37:284|49:248,1,50.9999984436036,6|0,1:0|0:0,0:0:0:0:
135,108,14888,2,0,L|131:167,1,50.9999984436036,2|0,1:0|0:0,0:0:0:0:
122,235,15082,1,0,0:0:0:0:
0,54,15275,6,0,B|52:64|52:64|119:26,1,101.999996887207,2|0,1:0|0:0,0:0:0:0:
217,159,15663,1,2,0:0:0:0:
50,145,15856,1,2,0:0:0:0:
183,39,16050,5,0,1:0:0:0:
183,39,16146,1,0,0:0:0:0:
183,39,16243,2,0,L|183:92,1,50.9999984436036,8|0,0:0|0:0,0:0:0:0:
217,159,16437,1,2,0:1:0:0:
190,321,16630,6,0,B|136:335|136:335|161:203,1,178.499994552612,0|0,1:0|0:0,0:0:0:0:
217,159,17017,6,0,B|112:139|163:202|72:180,1,152.999995330811,0|0,1:0|0:0,0:0:0:0:
2,119,17404,2,0,P|53:84|94:105,1,101.999996887207,0|0,0:0|1:0,0:0:0:0:
158,214,17792,1,8,1:2:0:0:
233,34,17985,6,0,L|183:38,1,50.9999984436036,2|0,1:0|0:0,0:0:0:0:
25,4,18179,2,0,B|18:28|18:28|29:51,1,50.9999984436036,2|0,1:0|0:0,0:0:0:0:
158,214,18372,6,0,P|57:236|39:337,1,203.999993774414,0|2,1:0|0:1,0:0:0:0:
97,370,18953,1,2,0:1:0:0:
236,331,19146,1,2,0:0:0:0:
242,338,19243,1,0,0:0:0:0:
248,345,19340,5,10,1:2:0:0:
252,309,19437,1,0,0:0:0:0:
256,273,19533,1,2,0:0:0:0:
260,237,19630,1,0,0:0:0:0:
223,150,19727,6,0,L|220:86,2,50.9999984436036,2|0|0,0:0|0:0|0:0,0:0:0:0:
260,237,20114,5,0,1:0:0:0:
352,294,20308,1,0,0:0:0:0:
387,265,20404,1,0,0:0:0:0:
432,272,20501,1,0,0:0:0:0:
489,180,20695,2,0,B|508:119|508:119|470:84,1,101.999996887207,2|8,0:0|1:2,0:0:0:0:
338,177,21082,2,0,P|368:172|400:175,1,50.9999984436036,2|0,1:0|0:0,0:0:0:0:
349,94,21275,1,0,0:0:0:0:
223,150,21469,6,0,B|150:160|150:160|103:129|103:129|25:140,1,203.999993774414,0|2,1:0|0:1,0:0:0:0:
172,73,22050,2,0,L|179:20,2,50.9999984436036,2|0|0,0:1|0:0|1:0,0:0:0:0:
90,217,22437,5,10,1:2:0:0:
91,226,22533,1,0,0:0:0:0:
92,236,22630,1,2,0:0:0:0:
93,246,22727,1,0,0:0:0:0:
116,280,22824,5,2,1:2:0:0:
115,289,22921,1,0,0:0:0:0:
114,299,23017,1,2,0:0:0:0:
113,309,23114,1,0,0:0:0:0:
84,338,23211,6,0,L|195:332,1,101.999996887207,2|0,0:1|0:0,0:0:0:0:
214,344,23501,2,0,L|224:281,1,50.9999984436036,0|0,0:0|0:0,0:0:0:0:
172,73,23792,6,0,B|144:106|144:106|163:171,1,110.499994941712,2|8,0:1|1:2,0:0:0:0:
240,208,24179,1,0,1:0:0:0:
48,240,24372,6,0,L|135:227,1,59.4999981842042,2|0,0:1|0:0,0:0:0:0:
328,200,24566,1,0,1:0:0:0:
25,56,24759,6,0,B|12:85|12:85|20:119,1,59.4999981842042,2|0,1:0|0:0,0:0:0:0:
234,279,24953,1,0,0:0:0:0:
236,267,25050,2,0,L|240:197,1,59.4999981842042,0|2,1:0|0:1,0:0:0:0:
87,308,25243,1,2,0:0:0:0:
51,377,25340,2,0,B|80:390|80:390|114:382,1,59.4999981842042,0|0,1:0|0:0,0:0:0:0:
239,207,25533,5,0,0:0:0:0:
232,129,25630,1,0,1:0:0:0:
225,51,25727,1,2,0:1:0:0:
236,41,25824,6,0,L|276:46,2,29.7499990921021,0|0|2,0:0|0:0|1:0,0:0:0:0:
159,99,26114,1,0,1:0:0:0:
325,159,26308,5,4,1:0:0:0:
396,125,26501,1,2,0:0:0:0:
396,125,26598,2,0,L|400:74,1,42.5,2|8,0:1|0:0,0:0:0:0:
454,218,26792,1,2,0:0:0:0:
454,218,26888,1,0,0:0:0:0:
454,218,26985,2,0,L|449:160,1,42.5,0|8,0:0|0:0,0:0:0:0:
407,282,27179,2,0,B|448:271|448:271|500:296,1,85,2|0,0:1|0:0,0:0:0:0:
442,353,27469,5,8,0:0:0:0:
365,357,27566,1,0,0:0:0:0:
288,362,27663,1,2,0:1:0:0:
167,282,27856,5,8,0:0:0:0:
96,316,28050,1,0,0:0:0:0:
96,316,28146,2,0,L|92:367,1,42.5,2|8,0:1|0:0,0:0:0:0:
38,223,28340,1,0,0:0:0:0:
38,223,28437,1,0,0:0:0:0:
38,223,28533,2,0,L|43:281,1,42.5,0|8,0:0|0:0,0:0:0:0:
85,159,28727,2,0,B|44:170|44:170|-8:145,1,85,2|0,0:1|0:0,0:0:0:0:
50,88,29017,5,8,0:0:0:0:
127,84,29114,1,0,0:0:0:0:
136,73,29211,5,0,1:0:0:0:
213,77,29308,1,0,0:0:0:0:
290,81,29404,5,8,0:0:0:0:
256,192,29598,1,0,0:0:0:0:
256,192,29695,2,0,B|248:173|248:173|254:143,1,42.5,2|8,0:1|0:0,0:0:0:0:
367,49,29888,1,0,0:0:0:0:
367,49,29985,1,0,0:0:0:0:
367,49,30082,2,0,B|375:68|375:68|369:98,1,42.5,0|8,0:0|0:0,0:0:0:0:
339,163,30275,2,0,L|442:166,1,85,2|0,0:1|0:0,0:0:0:0:
430,177,30566,5,8,0:0:0:0:
425,253,30663,1,0,0:0:0:0:
421,328,30759,1,2,0:1:0:0:
167,288,30953,5,8,0:0:0:0:
167,288,31050,1,0,0:0:0:0:
167,288,31146,2,0,B|189:281|189:281|234:288,1,42.5,2|0,0:1|0:0,0:0:0:0:
345,288,31340,2,0,B|323:281|323:281|278:288,1,42.5,8|0,0:0|0:0,0:0:0:0:
256,384,31533,2,0,L|256:336,1,42.5,8|0,0:0|0:0,0:0:0:0:
252,208,31727,5,8,0:0:0:0:
282,162,31824,1,2,0:1:0:0:
256,124,31921,1,8,0:0:0:0:
266,94,32017,1,0,0:0:0:0:
260,76,32114,6,0,B|256:64|256:64|260:48,1,25.5,0|0,1:0|0:0,0:0:0:0:
182,29,32501,6,0,L|126:26,1,55.2499974708558,8|0,1:2|0:0,0:0:0:0:
126,192,32695,1,8,0:2:0:0:
135,197,32792,1,2,0:1:0:0:
144,202,32888,2,0,B|156:177|156:177|148:140,1,55.2499974708558,8|0,1:2|0:0,0:0:0:0:
23,22,33082,1,8,0:2:0:0:
23,22,33179,2,0,L|25:77,1,55.2499974708558,0|8,0:0|1:2,0:0:0:0:
8,170,33372,2,0,B|34:175|34:175|59:163,1,55.2499974708558,2|8,0:1|0:2,0:0:0:0:
77,308,33566,5,0,0:0:0:0:
154,328,33663,1,8,1:2:0:0:
98,384,33759,1,0,0:0:0:0:
77,308,33856,2,0,B|69:281|69:281|81:253,1,55.2499974708558,2|0,0:1|0:0,0:0:0:0:
252,208,34050,6,0,L|312:211,1,55.2499974708558,8|0,1:2|0:0,0:0:0:0:
456,143,34243,1,8,0:2:0:0:
463,134,34340,2,0,B|435:125|435:125|410:133,1,55.2499974708558,2|8,0:1|1:2,0:0:0:0:
371,278,34533,1,0,0:0:0:0:
377,286,34630,1,8,0:2:0:0:
383,294,34727,2,0,L|389:227,1,55.2499974708558,0|8,0:0|1:2,0:0:0:0:
305,55,34921,2,0,B|298:84|298:84|309:110,1,55.2499974708558,2|8,0:1|0:2,0:0:0:0:
254,259,35114,5,0,0:0:0:0:
177,279,35211,1,8,1:2:0:0:
233,335,35308,1,0,0:0:0:0:
254,259,35404,2,0,B|262:232|262:232|250:204,1,55.2499974708558,8|0,0:2|0:0,0:0:0:0:
0,70,35598,6,0,L|4:141,1,59.4999981842042,8|0,1:2|0:0,0:0:0:0:
60,299,35792,1,8,0:2:0:0:
68,307,35888,1,0,0:0:0:0:
76,315,35985,2,0,L|79:255,1,59.4999981842042,8|0,1:2|0:0,0:0:0:0:
184,88,36179,1,8,0:2:0:0:
182,76,36275,1,0,0:0:0:0:
157,47,36372,5,8,1:2:0:0:
204,13,36469,1,8,0:0:0:0:
262,15,36566,1,8,0:0:0:0:
305,55,36663,1,8,0:0:0:0:
314,112,36759,1,8,1:2:0:0:
284,162,36856,1,8,0:0:0:0:
229,182,36953,1,8,0:0:0:0:
174,162,37050,1,8,0:0:0:0:
109,114,37146,5,8,1:2:0:0:
94,107,37243,2,0,P|58:112|-4:118,1,95.6250036478044,0|0,0:0|0:0,0:0:0:0:
32,30,37630,1,0,0:0:0:0:
72,197,37824,1,0,0:0:0:0:
59,188,37921,6,0,B|45:217|45:217|58:261,1,59.4999981842042,0|0,1:1|0:0,0:0:0:0:
198,384,38114,2,0,B|205:357|205:357|191:328,1,59.4999981842042,8|0,1:2|0:0,0:0:0:0:
48,325,38308,5,8,1:2:0:0:
104,332,38404,1,8,1:2:0:0:
187,244,38501,5,8,1:2:0:0:
243,237,38598,1,8,1:2:0:0:
357,311,38695,6,0,P|418:283|344:264,2,187.000005706787,2|0|0,1:0|0:0|1:0,0:0:0:0:
395,117,39275,1,0,1:0:0:0:
507,149,39469,2,0,B|486:142|475:115|475:115|477:145|462:161,1,93.5000028533936,4|0,1:0|0:0,0:0:0:0:
311,143,39663,5,2,0:1:0:0:
234,143,39759,1,0,0:0:0:0:
175,91,39856,1,0,0:0:0:0:
183,13,39953,1,0,0:0:0:0:
165,102,40050,6,0,B|145:150|117:162|83:152|83:152|68:110|-6:109,1,178.499994552612,2|0,0:1|0:0,0:0:0:0:
10,242,40437,2,0,P|3:210|30:176,1,59.4999981842042,0|0,1:0|0:0,0:0:0:0:
166,247,40630,5,0,1:0:0:0:
230,294,40727,1,0,0:0:0:0:
163,336,40824,2,0,B|41:320|122:398|2:384,1,178.499994552612,2|0,0:1|0:0,0:0:0:0:
18,255,41211,6,0,B|8:285|8:285|22:321,1,59.4999981842042,0|0,1:0|0:0,0:0:0:0:
166,247,41404,2,0,L|90:243,1,59.4999981842042,8|0,0:0|0:0,0:0:0:0:
53,122,41598,2,0,B|63:152|63:152|52:177,1,59.4999981842042,0|0,0:0|0:0,0:0:0:0:
132,56,41792,6,0,P|230:73|231:169,1,191.250007295609,0|0,1:0|0:0,0:0:0:0:
305,217,42179,1,2,0:0:0:0:
330,218,42275,1,2,0:0:0:0:
355,219,42372,1,2,1:2:0:0:
380,220,42469,1,2,0:0:0:0:
454,156,42566,6,0,B|466:128|466:128|456:94,1,63.7500024318696,8|0,1:2|0:0,0:0:0:0:
329,10,42759,1,0,0:0:0:0:
331,24,42856,2,0,L|336:107,1,63.7500024318696,2|0,0:0|0:0,0:0:0:0:
435,278,43050,5,0,0:0:0:0:
380,220,43146,1,0,1:0:0:0:
300,231,43243,1,0,0:0:0:0:
266,304,43340,5,2,0:1:0:0:
190,330,43437,2,0,B|158:335|158:335|123:320,1,63.7500024318696,2|2,0:0|0:0,0:0:0:0:
40,181,43630,5,2,0:2:0:0:
111,143,43727,1,2,0:1:0:0:
176,189,43824,2,0,L|165:271,1,63.7500024318696,2|2,0:0|0:0,0:0:0:0:
57,343,44017,1,2,0:2:0:0:
57,343,44114,6,0,B|9:369|9:369|36:258,1,165.749992412568,2|0,1:1|0:0,0:0:0:0:
132,60,44501,2,0,B|84:34|84:34|110:142,1,165.749992412568,2|0,1:1|0:0,0:0:0:0:
176,189,44888,6,0,P|251:140|333:166,1,178.499994552612,2|0,1:0|0:0,0:0:0:0:
411,148,45272,6,0,L|409:187,1,38.2499988327027,2|0,0:1|0:0,0:0:0:0:
397,322,45657,6,0,P|385:301|392:260,1,55.2499974708558,8|0,1:2|0:0,0:0:0:0:
459,255,45849,2,0,P|471:276|464:324,1,55.2499974708558,2|0,1:1|0:0,0:0:0:0:
323,378,46041,5,0,0:0:0:0:
271,320,46138,1,0,0:0:0:0:
202,354,46234,2,0,B|96:382|155:312|41:340,1,165.749992412568,2|0,1:1|0:0,0:0:0:0:
182,227,46617,2,0,B|189:256|189:256|179:282,1,55.2499974708558,2|0,0:0|0:0,0:0:0:0:
41,201,46808,2,0,L|114:196,1,55.2499974708558
168,132,46999,5,0,1:0:0:0:
64,68,47190,2,0,B|83:61|92:31|92:31|91:62|107:80,1,89.2499972763062,2|0,1:2|0:0,0:0:0:0:
182,227,47381,5,10,0:0:0:0:
201,237,47476,1,0,0:0:0:0:
237,247,47572,1,2,1:2:0:0:
291,252,47668,1,0,0:0:0:0:
367,237,47763,1,2,0:2:0:0:
435,192,47859,1,2,0:0:0:0:
454,100,47954,6,0,B|382:86|382:86|439:200,1,191.250007295609,2|0,1:0|0:0,0:0:0:0:
510,224,48333,6,0,L|511:214,6,6.37499980545045
478,311,48713,2,0,B|450:298|450:298|419:306,1,59.4999981842042,8|0,1:2|0:0,0:0:0:0:
298,359,48903,5,2,0:0:0:0:
232,316,48998,1,0,0:0:0:0:
160,345,49093,2,0,P|81:358|87:276,1,178.499994552612,2|0,0:1|0:0,0:0:0:0:
120,207,49472,5,2,0:1:0:0:
187,249,49566,2,0,B|203:222|203:222|193:179,1,63.7500024318696,2|2,0:0|0:0,0:0:0:0:
92,29,49755,1,2,0:2:0:0:
50,106,49849,5,2,0:1:0:0:
93,117,49943,1,2,0:0:0:0:
136,107,50038,1,2,0:0:0:0:
163,71,50132,1,2,0:2:0:0:
92,29,50226,5,2,1:0:0:0:
195,190,50415,5,2,0:0:0:0:
262,139,50509,1,0,0:0:0:0:
337,174,50604,2,0,L|346:88,1,80.7499978437424,0|0,1:2|0:0,0:0:0:0:
472,246,50792,2,0,B|433:236|433:236|388:257,1,80.7499978437424,0|0,1:2|0:0,0:0:0:0:
119,326,50981,6,0,B|99:360|56:364|56:364|18:335|27:264|84:240,1,229.499992996216,4|0,1:0|0:0,0:0:0:0:
234,365,51356,1,2,0:1:0:0:
234,365,51543,5,2,0:1:0:0:
297,312,51637,1,2,0:0:0:0:
366,358,51731,1,0,1:0:0:0:
366,358,51824,2,0,B|401:340|401:340|451:355,1,76.4999976654053,2|0,0:0|0:0,0:0:0:0:
337,174,52012,1,2,0:0:0:0:
414,136,52106,5,2,1:1:0:0:
426,163,52199,1,2,0:0:0:0:
424,193,52293,1,0,0:0:0:0:
424,193,52481,6,0,B|386:205|341:190|341:190|297:231|297:231|266:218|210:226,1,229.499992996216,2|0,1:0|0:0,0:0:0:0:
84,239,52856,1,8,1:2:0:0:
42,174,52949,1,2,0:0:0:0:
66,101,53043,1,2,0:0:0:0:
138,77,53137,1,2,0:0:0:0:
212,104,53231,6,0,P|253:103|295:98,1,80.7499978437424,0|0,1:0|0:0,0:0:0:0:
424,193,53418,2,0,L|470:189,1,40.3749989218712,2|0,0:0|0:0,0:0:0:0:
424,211,53512,2,0,L|470:207,1,40.3749989218712,2|0,0:0|0:0,0:0:0:0:
432,225,53606,2,0,P|391:220|351:219,1,80.7499978437424,8|0,1:2|0:0,0:0:0:0:
88,359,53793,1,2,0:0:0:0:
36,300,53887,1,2,0:0:0:0:
84,239,53981,5,2,1:0:0:0:
84,239,54074,1,2,0:0:0:0:
84,239,54168,2,0,P|90:203|92:166,1,72.2500013780594,2|2,0:0|0:0,0:0:0:0:
202,28,54356,5,2,0:1:0:0:
202,28,54449,1,2,0:0:0:0:
202,28,54543,2,0,P|209:66|212:116,1,76.4999976654053,2|2,0:0|0:0,0:0:0:0:
351,218,54731,5,2,1:0:0:0:
412,171,54824,1,2,0:0:0:0:
402,95,54918,1,2,0:0:0:0:
334,58,55012,1,2,0:0:0:0:
279,173,55106,5,2,0:1:0:0:
270,256,55199,1,2,0:0:0:0:
337,306,55293,1,2,0:0:0:0:
416,277,55387,1,2,0:0:0:0:
351,218,55481,6,0,B|200:180|283:283|136:250,1,229.499992996216,2|0,1:0|0:0,0:0:0:0:
137,250,55856,2,0,P|140:217|128:164,1,76.4999976654053,2|0,0:1|0:0,0:0:0:0:
116,25,56043,1,0,1:0:0:0:
116,25,56137,1,2,0:0:0:0:
32,59,56231,5,2,0:1:0:0:
91,107,56324,1,2,0:0:0:0:
165,92,56418,1,2,0:0:0:0:
199,23,56512,1,2,0:0:0:0:
199,23,56606,6,0,P|217:27|239:29,1,38.25,2|0,1:0|0:0,0:0:0:0:
403,75,57543,5,0,1:0:0:0:
403,75,57637,1,0,1:0:0:0:
403,75,57731,2,0,B|382:65|372:47|372:47|371:67|357:82,1,80.7499978437424,0|0,1:0|0:0,0:0:0:0:
321,259,57918,2,0,B|300:269|290:287|290:287|289:267|275:252,1,80.7499978437424,2|0,0:1|0:0,0:0:0:0:
245,147,58106,5,0,1:1:0:0:
324,158,58199,1,2,0:1:0:0:
403,169,58293,2,0,P|366:171|321:179,1,80.7499978437424,2|0,0:1|0:0,0:0:0:0:
64,292,58481,6,0,B|149:339|149:339|106:200,1,242.249993531227,2|0,1:1|0:0,0:0:0:0:
28,62,58856,5,2,1:0:0:0:
21,142,58949,1,2,0:0:0:0:
88,185,59043,1,2,0:0:0:0:
163,155,59137,1,2,0:0:0:0:
98,103,59231,5,0,1:0:0:0:
146,325,59418,2,0,P|124:327|110:330,1,27.6249987354279,2|0,0:0|0:0,0:0:0:0:
145,310,59512,2,0,P|123:312|109:315,1,27.6249987354279,2|0,0:0|0:0,0:0:0:0:
147,294,59606,2,0,P|149:261|155:222,1,55.2499974708558,8|0,1:2|0:0,0:0:0:0:
169,13,59793,2,0,P|172:40|173:67,1,55.2499974708558,0|0,0:0|0:0,0:0:0:0:
280,169,59981,6,0,B|312:154|312:154|355:165,1,72.2500013780594,2|0,1:0|0:0,0:0:0:0:
479,62,60168,1,2,0:0:0:0:
397,27,60262,2,0,L|405:122,1,72.2500013780594,2|8,0:1|1:2,0:0:0:0:
502,288,60449,1,2,0:0:0:0:
512,269,60543,1,2,0:0:0:0:
507,247,60637,1,2,0:0:0:0:
428,261,60731,5,2,1:0:0:0:
372,317,60824,2,0,P|399:338|446:338,1,72.2500013780594,2|2,0:0|0:0,0:0:0:0:
311,264,61012,1,2,0:0:0:0:
289,344,61106,2,0,P|284:363|292:387,2,36.1250006890297,2|0|2,1:1|0:0|0:0,0:0:0:0:
200,29,61293,5,2,0:0:0:0:
141,84,61387,1,2,0:0:0:0:
75,41,61481,6,0,P|65:87|64:132,1,80.7499978437424,2|0,1:0|0:0,0:0:0:0:
187,383,61668,2,0,P|197:337|198:292,1,80.7499978437424,0|0,1:0|0:0,0:0:0:0:
116,222,61856,1,0,1:0:0:0:
396,162,62043,5,0,1:0:0:0:
396,162,62137,1,0,1:0:0:0:
469,212,62231,5,0,1:0:0:0:
399,247,62324,1,0,1:0:0:0:
324,218,62418,1,0,1:0:0:0:
314,139,62512,1,0,1:0:0:0:
396,162,62606,5,8,1:2:0:0:
396,162,62699,2,0,P|404:133|407:96,1,63.7500024318696
245,320,62981,6,0,P|152:309|70:305,1,170,4|8,1:0|0:0,0:0:0:0:
97,152,63561,1,0,0:0:0:0:
30,205,63755,2,0,P|8:165|29:116,1,85,8|2,0:0|0:0,0:0:0:0:
192,85,64142,1,8,0:0:0:0:
122,235,64335,1,2,0:0:0:0:
269,115,64529,5,8,0:0:0:0:
109,45,64722,2,0,P|89:49|60:52,2,42.5,0|0|8,0:0|0:0|0:0,0:0:0:0:
186,185,65110,1,0,0:0:0:0:
186,185,65206,1,0,0:0:0:0:
186,185,65303,2,0,L|180:120,1,42.5,8|0,0:0|0:0,0:0:0:0:
274,23,65497,1,2,0:0:0:0:
349,155,65690,6,0,P|397:192|379:112,1,152.999995330811,8|0,0:0|0:0,0:0:0:0:
269,115,66077,6,0,B|155:87|214:156|102:136,1,170,8|8,0:0|0:0,0:0:0:0:
40,180,66658,1,0,0:0:0:0:
103,304,66851,2,0,B|126:277|126:277|110:222,1,85,8|2,0:0|0:0,0:0:0:0:
207,266,67239,1,8,0:0:0:0:
62,338,67432,6,0,P|118:349|163:363,1,85,2|8,0:0|0:0,0:0:0:0:
167,364,67722,1,0,0:0:0:0:
167,364,67819,1,2,0:0:0:0:
371,315,68013,1,8,0:0:0:0:
295,377,68206,1,2,0:0:0:0:
295,377,68303,1,0,0:0:0:0:
295,377,68400,5,10,0:0:0:0:
292,355,68497,1,0,0:0:0:0:
290,333,68593,1,2,0:0:0:0:
288,311,68690,1,0,0:0:0:0:
336,239,68787,5,10,0:0:0:0:
336,217,68884,1,0,0:0:0:0:
337,195,68981,1,2,0:0:0:0:
269,56,69174,5,8,0:0:0:0:
356,94,69368,1,2,0:0:0:0:
356,94,69464,1,0,0:0:0:0:
356,94,69561,2,0,L|365:31,1,42.5,8|0,0:0|0:0,0:0:0:0:
271,149,69755,2,0,L|179:159,1,85,2|8,0:0|0:0,0:0:0:0:
12,112,70142,1,2,0:0:0:0:
170,64,70335,1,8,0:0:0:0:
96,134,70529,6,0,P|93:96|82:40,1,85,2|8,0:0|0:0,0:0:0:0:
186,158,70916,1,2,0:0:0:0:
22,207,71110,1,8,0:0:0:0:
22,207,71206,1,2,0:0:0:0:
22,207,71303,2,0,L|81:211,1,42.5,2|0,0:0|0:0,0:0:0:0:
188,297,71497,5,10,0:0:0:0:
217,295,71593,1,0,0:0:0:0:
246,293,71690,1,2,0:0:0:0:
275,291,71787,1,0,0:0:0:0:
340,244,71884,5,10,0:0:0:0:
352,245,71980,1,0,0:0:0:0:
364,246,72077,1,2,0:0:0:0:
376,247,72174,1,0,0:0:0:0:
428,308,72271,6,0,L|524:299,1,85,8|0,0:0|0:0,0:0:0:0:
458,224,72561,1,0,0:0:0:0:
458,224,72658,1,8,0:0:0:0:
292,362,72851,2,0,B|267:345|267:345|278:265,1,85,2|8,0:0|0:0,0:0:0:0:
340,244,73239,1,0,0:0:0:0:
279,143,73432,1,8,0:0:0:0:
279,143,73529,1,0,0:0:0:0:
279,143,73626,2,0,L|288:219,1,42.5,2|0,0:0|0:0,0:0:0:0:
340,244,73819,5,8,0:0:0:0:
218,229,74013,1,2,0:0:0:0:
340,244,74206,1,8,0:0:0:0:
382,239,74303,1,0,0:0:0:0:
424,234,74400,1,0,1:0:0:0:
466,230,74497,1,0,0:0:0:0:
476,238,74593,5,10,0:0:0:0:
474,250,74690,1,0,0:0:0:0:
472,262,74787,1,2,1:2:0:0:
471,274,74884,1,0,0:0:0:0:
475,353,74980,5,8,1:2:0:0:
404,321,75077,1,0,0:0:0:0:
338,364,75174,1,0,0:0:0:0:
272,321,75271,1,0,0:0:0:0:
263,327,75368,6,0,B|221:331|189:319|189:319|140:354|140:354|103:345|48:348,1,203.999993774414,2|0,0:0|0:0,0:0:0:0:
106,194,75948,2,0,L|102:157,2,25.4999992218018,0|0|0,0:0|0:0|1:0,0:0:0:0:
106,194,76142,2,0,B|117:219|117:219|112:256,1,50.9999984436036,6|0,1:0|0:0,0:0:0:0:
6,110,76335,2,0,L|81:115,1,50.9999984436036,2|0,1:0|0:0,0:0:0:0:
132,7,76529,2,0,B|121:32|121:32|126:69,1,50.9999984436036,0|0,0:0|0:0,0:0:0:0:
185,137,76722,6,0,B|320:112|242:194|376:172,1,203.999993774414,2|2,1:0|0:0,0:0:0:0:
495,102,77303,1,2,0:0:0:0:
342,34,77497,1,0,1:0:0:0:
342,34,77593,1,0,0:0:0:0:
342,34,77690,2,0,P|333:63|341:94,1,50.9999984436036,8|0,0:0|0:0,0:0:0:0:
460,192,77884,1,2,0:1:0:0:
405,340,78077,6,0,B|346:368|346:368|377:234,1,178.499994552612,0|0,1:0|0:0,0:0:0:0:
460,192,78464,6,0,B|324:167|402:249|268:227,1,203.999993774414,0|0,1:0|0:0,0:0:0:0:
78,263,79045,1,0,1:0:0:0:
172,157,79239,2,0,L|169:214,1,50.9999984436036,8|0,1:2|0:0,0:0:0:0:
143,350,79432,6,0,P|146:320|154:287,1,50.9999984436036,2|0,1:0|0:0,0:0:0:0:
80,115,79626,2,0,P|85:139|87:165,1,50.9999984436036,2|0,1:0|0:0,0:0:0:0:
78,263,79819,6,0,B|213:287|135:205|269:227,1,203.999993774414,0|2,1:0|0:1,0:0:0:0:
460,192,80400,1,2,0:1:0:0:
340,103,80593,1,2,0:0:0:0:
340,103,80690,1,0,0:0:0:0:
340,103,80787,5,10,1:2:0:0:
345,143,80884,1,0,0:0:0:0:
351,183,80980,1,2,0:0:0:0:
357,223,81077,1,0,0:0:0:0:
419,319,81174,6,0,B|433:295|433:295|424:262,2,50.9999984436036,2|0|0,0:0|0:0|0:0,0:0:0:0:
334,364,81561,5,0,1:0:0:0:
196,301,81755,1,0,0:0:0:0:
196,301,81851,1,0,0:0:0:0:
196,301,81948,2,0,L|266:309,1,50.9999984436036,0|0,0:0|0:0,0:0:0:0:
419,319,82142,6,0,B|446:300|446:300|432:213,1,101.999996887207,2|8,0:0|1:2,0:0:0:0:
265,150,82529,1,2,1:0:0:0:
435,60,82722,1,0,0:0:0:0:
380,163,82916,6,0,B|245:139|323:221|189:199,1,203.999993774414,0|2,1:0|0:1,0:0:0:0:
1,118,83497,1,2,0:1:0:0:
1,118,83593,1,0,0:0:0:0:
1,118,83690,2,0,L|60:124,1,50.9999984436036,0|0,1:0|0:0,0:0:0:0:
129,93,83884,5,10,1:2:0:0:
123,133,83980,1,0,0:0:0:0:
118,173,84077,1,2,0:0:0:0:
113,213,84174,1,0,0:0:0:0:
148,286,84271,5,2,1:2:0:0:
148,301,84368,1,0,0:0:0:0:
148,316,84464,1,2,0:0:0:0:
148,331,84561,1,0,0:0:0:0:
128,355,84658,6,0,P|67:360|51:315,1,101.999996887207,2|0,0:1|0:0,0:0:0:0:
30,339,84948,2,0,L|22:271,1,50.9999984436036,0|0,0:0|0:0,0:0:0:0:
123,133,85239,6,0,P|176:142|243:142,1,101.999996887207,2|8,0:1|1:2,0:0:0:0:
292,185,85626,1,0,1:0:0:0:
411,248,85819,6,0,P|385:240|345:239,1,50.9999984436036,2|0,0:1|0:0,0:0:0:0:
292,185,86013,1,0,1:0:0:0:
383,37,86206,6,0,B|397:69|397:69|389:98,1,59.4999981842042,2|0,1:0|0:0,0:0:0:0:
292,185,86400,1,0,0:0:0:0:
255,110,86497,2,0,P|286:109|317:106,1,59.4999981842042,0|2,1:0|0:1,0:0:0:0:
433,169,86690,1,2,0:0:0:0:
470,244,86787,2,0,P|439:245|408:248,1,59.4999981842042,0|0,1:0|0:0,0:0:0:0:
243,273,86980,5,0,0:0:0:0:
205,342,87077,1,0,1:0:0:0:
284,341,87174,1,2,0:1:0:0:
290,350,87271,6,0,L|329:343,2,29.7499990921021,0|0|2,0:0|0:0|1:0,0:0:0:0:
161,274,87561,1,0,1:0:0:0:
45,300,87755,6,0,L|40:244,1,42.5,4|0,1:0|0:0,0:0:0:0:
149,170,87948,1,2,0:0:0:0:
162,185,88045,2,0,B|141:193|141:193|119:188,1,42.5,2|8,0:1|0:0,0:0:0:0:
20,102,88239,1,2,0:0:0:0:
20,102,88335,1,0,0:0:0:0:
20,102,88432,2,0,B|41:94|41:94|63:99,1,42.5,0|8,0:0|0:0,0:0:0:0:
157,27,88626,1,2,0:1:0:0:
166,23,88722,2,0,L|163:79,1,42.5,0|0,0:0|0:0,0:0:0:0:
231,112,88916,5,8,0:0:0:0:
307,107,89013,1,0,0:0:0:0:
383,102,89110,1,2,0:1:0:0:
487,73,89303,6,0,L|492:129,1,42.5,8|0,0:0|0:0,0:0:0:0:
383,203,89497,1,0,0:0:0:0:
370,188,89593,2,0,B|391:180|391:180|413:185,1,42.5,2|8,0:1|0:0,0:0:0:0:
512,271,89787,1,0,0:0:0:0:
512,271,89884,1,0,0:0:0:0:
512,271,89980,2,0,B|491:279|491:279|469:274,1,42.5,0|8,0:0|0:0,0:0:0:0:
375,346,90174,1,2,0:1:0:0:
366,350,90271,2,0,L|367:295,1,42.5,8|0,0:0|0:0,0:0:0:0:
258,235,90464,6,0,P|228:209|171:223,1,101.999996887207,8|0,0:0|0:0,0:0:0:0:
89,229,90658,6,0,L|91:251,1,17,0|0,1:0|0:0,0:0:0:0:
150,347,90851,6,0,B|161:326|161:326|154:305,1,42.5,8|0,0:0|0:0,0:0:0:0:
7,175,91045,1,0,0:0:0:0:
8,189,91142,2,0,L|12:243,1,42.5,2|8,0:1|0:0,0:0:0:0:
195,131,91335,1,0,0:0:0:0:
195,131,91432,1,0,0:0:0:0:
195,131,91529,1,0,0:0:0:0:
195,131,91626,2,0,L|144:135,1,42.5,8|2,0:0|0:1,0:0:0:0:
30,61,91819,2,0,B|50:69|50:69|75:65,1,42.5,0|0,0:0|0:0,0:0:0:0:
242,41,92013,5,8,0:0:0:0:
318,45,92110,1,0,0:0:0:0:
393,49,92206,1,2,0:1:0:0:
457,142,92400,5,8,0:0:0:0:
457,142,92497,1,0,0:0:0:0:
457,142,92593,2,0,L|453:188,1,42.5,2|0,0:1|0:0,0:0:0:0:
456,374,92787,2,0,B|448:358|448:358|454:333,1,42.5,8|0,0:0|0:0,0:0:0:0:
476,257,92980,2,0,L|430:261,1,42.5,8|0,0:0|0:0,0:0:0:0:
312,250,93174,5,8,0:0:0:0:
266,280,93271,1,2,0:1:0:0:
228,254,93368,1,8,0:0:0:0:
198,264,93464,1,0,0:0:0:0:
179,258,93561,6,0,P|166:255|152:255,1,25.5,0|0,1:0|0:0,0:0:0:0:
50,356,93948,6,0,B|39:332|39:332|45:300,1,55.2499974708558,2|0,1:0|0:0,0:0:0:0:
126,83,94142,1,8,0:0:0:0:
126,83,94239,1,0,0:0:0:0:
126,83,94335,2,0,L|123:151,1,55.2499974708558,2|0,1:0|0:0,0:0:0:0:
21,208,94529,2,0,L|76:205,1,55.2499974708558,8|0,0:0|0:0,0:0:0:0:
246,169,94722,5,0,1:0:0:0:
258,154,94819,2,0,B|229:148|229:148|205:159,1,55.2499974708558,2|8,0:1|0:0,0:0:0:0:
245,329,95013,1,0,0:0:0:0:
233,344,95110,2,0,B|262:350|262:350|286:339,1,55.2499974708558,0|0,1:0|0:0,0:0:0:0:
437,154,95303,6,0,B|415:141|420:105|420:105|411:139|378:146,1,110.499994941712,2|0,0:1|0:0,0:0:0:0:
262,244,95497,5,0,1:0:0:0:
312,249,95593,1,0,0:0:0:0:
373,339,95690,5,8,0:0:0:0:
423,334,95787,1,0,0:0:0:0:
495,242,95884,5,0,1:0:0:0:
502,251,95980,2,0,P|507:229|519:198,1,29.7499990921021,0|0,0:0|0:0,0:0:0:0:
507,258,96077,2,0,P|471:247|427:243,1,59.4999981842042,2|0,0:1|0:0,0:0:0:0:
200,169,96271,6,0,P|229:164|257:154,1,59.4999981842042,0|0,1:0|0:0,0:0:0:0:
493,44,96464,1,2,0:1:0:0:
428,2,96561,1,0,0:0:0:0:
352,23,96658,2,0,P|361:60|365:104,1,59.4999981842042,2|0,1:0|0:0,0:0:0:0:
460,184,96851,2,0,P|453:213|449:243,1,59.4999981842042,8|0,0:0|0:0,0:0:0:0:
423,334,97045,5,6,1:0:0:0:
108,279,97335,1,0,0:0:0:0:
108,279,97432,1,0,0:0:0:0:
87,350,97529,5,2,1:1:0:0:
372,211,97722,1,0,0:0:0:0:
372,211,97819,1,0,0:0:0:0:
372,211,97916,2,0,P|341:211|307:205,1,59.4999981842042,0|2,0:0|1:0,0:0:0:0:
69,117,98110,1,0,0:0:0:0:
145,153,98206,2,0,P|146:123|152:81,1,59.4999981842042,0|0,0:0|0:0,0:0:0:0:
397,37,98400,5,0,0:0:0:0:
397,37,98497,2,0,P|367:44|327:46,1,59.4999981842042,2|0,1:0|0:0,0:0:0:0:
51,257,98690,2,0,L|36:228,1,29.7499990921021,0|0,0:0|0:0,0:0:0:0:
64,255,98787,2,0,L|54:224,1,29.7499990921021,0|0,0:0|0:0,0:0:0:0:
78,256,98884,2,0,L|74:224,1,29.7499990921021,0|0,0:0|0:0,0:0:0:0:
108,279,98980,5,6,1:0:0:0:
