osu file format v14

[General]
AudioFilename: audio.mp3
AudioLeadIn: 0
PreviewTime: 13921
Countdown: 0
SampleSet: Soft
StackLeniency: 0.3
Mode: 0
LetterboxInBreaks: 0
WidescreenStoryboard: 1

[Editor]
DistanceSpacing: 1
BeatDivisor: 2
GridSize: 4
TimelineZoom: 1.399999

[Metadata]
Title:Feel It
TitleUnicode:Feel It
Artist:IAHN
ArtistUnicode:IAHN
Creator:Cellina
Version:Easy
Source:osu!
Tags:featured artist mappers' guild sonnyc electronic
BeatmapID:2132212
BeatmapSetID:1017701

[Difficulty]
HPDrainRate:3
CircleSize:2.6
OverallDifficulty:3
ApproachRate:5
SliderMultiplier:0.899999999999999
SliderTickRate:1

[Events]
//Background and Video events
0,0,"cxzcxzcz.png",0,0
//Break Periods
//Storyboard Layer 0 (Background)
//Storyboard Layer 1 (Fail)
//Storyboard Layer 2 (Pass)
//Storyboard Layer 3 (Foreground)
//Storyboard Layer 4 (Overlay)
//Storyboard Sound Samples

[TimingPoints]
1534,387.096774193548,4,2,1,55,1,0
13921,-100,4,2,1,75,0,0
26308,-100,4,2,1,55,0,0
32501,-100,4,2,1,75,0,0
38695,-100,4,2,1,85,0,0
44888,384.615384615385,4,2,1,85,1,0
46426,382.165605095541,4,2,1,85,1,0
47188,-100,4,2,1,85,0,0
47954,379.746835443038,4,2,1,85,1,0
49472,377.358490566038,4,2,1,85,1,0
50981,375,4,2,1,85,1,0
62981,387.096774193548,4,2,1,55,1,0
75368,-100,4,2,1,75,0,0
87755,-100,4,2,1,55,0,0
93948,-100,4,2,1,75,0,0

[Colours]
Combo1 : 245,137,205
Combo2 : 4,198,159
Combo3 : 183,255,130
Combo4 : 48,197,218

[HitObjects]
45,46,1534,6,0,P|91:51|157:54,1,89.9999999999999,4|8,1:0|0:0,0:0:0:0:
190,123,2308,2,0,P|236:118|302:115,1,89.9999999999999,8|8,0:0|0:0,0:0:0:0:
335,44,3082,2,0,P|376:109|306:202,1,180,8|8,0:0|0:0,0:0:0:0:
276,263,4243,1,8,0:0:0:0:
325,338,4630,6,0,P|419:329|518:330,1,180,8|8,0:0|0:0,0:0:0:0:
465,247,5792,1,8,0:0:0:0:
487,159,6179,2,0,P|498:116|457:50,1,89.9999999999999,8|8,0:0|0:0,0:0:0:0:
405,29,6953,2,0,P|347:41|269:44,1,89.9999999999999,10|10,0:0|0:0,0:0:0:0:
236,84,7727,6,0,B|120:114|195:29|58:62,1,180,8|8,0:0|0:0,0:0:0:0:
20,136,8888,1,8,0:0:0:0:
97,181,9275,2,0,P|110:222|117:279,1,89.9999999999999,8|8,0:0|0:0,0:0:0:0:
83,352,10050,2,0,P|127:358|170:371,1,89.9999999999999,10|10,0:0|0:0,0:0:0:0:
244,320,10824,6,0,P|297:318|363:307,1,89.9999999999999,8|8,0:0|0:0,0:0:0:0:
393,245,11598,2,0,P|398:200|399:155,1,89.9999999999999,8|8,0:0|0:0,0:0:0:0:
417,67,12372,1,8,0:0:0:0:
329,87,12759,1,8,0:0:0:0:
251,41,13146,2,0,P|209:24|143:43,1,89.9999999999999,10|8,0:0|1:2,0:0:0:0:
75,24,13921,6,0,P|145:81|117:187,1,180,2|6,0:0|1:0,0:0:0:0:
80,232,15082,1,0,0:0:0:0:
151,286,15469,2,0,P|196:278|270:275,2,89.9999999999999,0|2|8,0:0|0:0|0:0,0:0:0:0:
116,368,16630,1,0,1:0:0:0:
41,317,17017,6,0,P|36:215|20:119,1,180,0|8,1:0|1:2,0:0:0:0:
74,63,18179,1,2,1:0:0:0:
160,86,18566,2,0,P|251:98|327:42,1,180,0|10,0:0|1:2,0:0:0:0:
409,32,19727,1,2,0:0:0:0:
478,89,20114,6,0,P|468:131|462:200,1,89.9999999999999,0|0,1:0|0:0,0:0:0:0:
498,260,20888,1,8,1:2:0:0:
451,337,21275,1,0,0:0:0:0:
372,292,21663,2,0,P|313:274|264:268,1,89.9999999999999,0|2,0:0|0:1,0:0:0:0:
212,322,22437,2,0,P|178:340|117:331,1,89.9999999999999,10|2,1:2|1:2,0:0:0:0:
67,269,23211,6,0,P|85:173|94:72,1,180,2|8,0:1|1:2,0:0:0:0:
152,23,24372,1,2,0:1:0:0:
225,74,24759,2,0,P|261:90|320:102,1,89.9999999999999,2|2,1:0|0:1,0:0:0:0:
386,149,25533,2,0,P|360:186|362:233,1,89.9999999999999,0|2,0:0|1:0,0:0:0:0:
436,278,26308,6,0,P|345:266|281:340,1,180,4|8,1:0|0:0,0:0:0:0:
204,284,27469,1,8,0:0:0:0:
115,297,27856,2,0,P|110:245|100:198,1,89.9999999999999,8|8,0:0|0:0,0:0:0:0:
124,120,28630,2,0,L|128:72,2,45,8|0|8,0:0|0:0|0:0,0:0:0:0:
187,183,29404,6,0,B|313:169|231:237|359:217,1,180,8|8,0:0|0:0,0:0:0:0:
434,175,30566,1,8,0:0:0:0:
488,246,30953,1,8,0:0:0:0:
440,322,31340,2,0,L|450:372,2,45,8|8|8,0:0|0:0|0:0,0:0:0:0:
350,318,32114,2,0,P|306:324|251:336,1,89.9999999999999,0|8,1:0|1:2,0:0:0:0:
172,349,32888,6,0,P|148:313|161:261,1,89.9999999999999,8|8,1:2|1:2,0:0:0:0:
235,227,33663,1,8,1:2:0:0:
212,139,34050,2,0,P|162:148|116:153,1,89.9999999999999,8|8,1:2|1:2,0:0:0:0:
45,106,34824,2,0,P|26:69|58:7,1,89.9999999999999,8|8,1:2|1:2,0:0:0:0:
125,4,35598,5,8,1:2:0:0:
197,56,35985,1,8,1:2:0:0:
280,22,36372,2,0,L|344:27,2,45,8|8|8,1:2|0:0|1:2,0:0:0:0:
197,56,37146,6,0,P|209:146|219:275,1,180,8|0,1:2|1:1,0:0:0:0:
279,299,38308,1,8,1:2:0:0:
332,226,38695,6,0,P|414:216|483:305,1,180,2|4,1:0|1:0,0:0:0:0:
426,355,39856,1,0,0:0:0:0:
343,319,40243,2,0,P|285:328|229:340,1,89.9999999999999,0|0,0:0|1:0,0:0:0:0:
176,288,41017,2,0,P|118:279|62:267,1,89.9999999999999,0|8,0:0|0:0,0:0:0:0:
26,206,41792,6,0,P|48:103|137:94,1,180,0|8,1:0|1:2,0:0:0:0:
193,52,42953,1,0,0:0:0:0:
257,114,43340,2,0,P|306:112|359:111,1,89.9999999999999,2|2,0:1|0:1,0:0:0:0:
432,83,44114,1,2,1:1:0:0:
487,154,44501,1,2,1:1:0:0:
449,236,44888,6,0,P|440:281|438:347,1,89.9999999999999,2|2,1:0|0:1,0:0:0:0:
347,317,45657,2,0,P|263:358|207:343,1,135,8|2,1:2|1:1,0:0:0:0:
129,256,46808,2,0,P|119:190|111:152,2,89.9999999999999,0|2|2,0:0|1:2|1:2,0:0:0:0:
215,281,47954,6,0,B|337:307|278:229|398:262,1,180,2|8,1:0|1:2,0:0:0:0:
470,290,49093,1,2,0:1:0:0:
498,203,49472,2,0,P|490:152|488:111,1,89.9999999999999,2|2,0:1|0:1,0:0:0:0:
427,46,50226,2,0,P|382:32|330:48,1,89.9999999999999,2|0,1:0|1:2,0:0:0:0:
278,108,50981,6,0,P|233:122|181:106,1,89.9999999999999,4|2,1:0|0:1,0:0:0:0:
122,55,51731,1,0,1:0:0:0:
38,88,52106,1,2,1:1:0:0:
64,173,52481,2,0,P|72:226|73:296,1,89.9999999999999,2|8,1:0|1:2,0:0:0:0:
118,340,53231,1,0,1:0:0:0:
201,305,53606,1,8,1:2:0:0:
284,336,53981,6,0,P|323:361|365:362,1,89.9999999999999,2|2,1:0|0:1,0:0:0:0:
451,335,54731,2,0,P|454:283|464:241,1,89.9999999999999,2|2,1:0|0:1,0:0:0:0:
496,162,55481,1,2,1:0:0:0:
470,75,55856,2,0,L|468:29,2,45,2|0|2,0:1|1:0|0:1,0:0:0:0:
403,139,56606,6,0,P|326:158|201:157,1,180,2|0,1:0|0:0,0:0:0:0:
149,116,57731,2,0,P|92:136|60:162,1,89.9999999999999,0|0,1:0|1:1,0:0:0:0:
16,226,58481,2,0,P|25:274|29:325,1,89.9999999999999,2|2,1:1|1:0,0:0:0:0:
107,362,59231,1,0,1:0:0:0:
174,303,59606,1,8,1:2:0:0:
258,334,59981,6,0,P|310:341|355:353,1,89.9999999999999,2|8,1:0|1:2,0:0:0:0:
434,333,60731,2,0,P|466:294|456:245,1,89.9999999999999,2|2,1:0|1:1,0:0:0:0:
390,202,61481,1,2,1:0:0:0:
444,130,61856,1,0,1:0:0:0:
398,54,62231,2,0,L|390:3,2,45,0|0|8,1:0|1:0|1:2,0:0:0:0:
332,113,62981,6,0,P|239:131|151:136,1,180,4|8,1:0|0:0,0:0:0:0:
67,110,64142,1,8,0:0:0:0:
32,27,64529,2,0,P|82:20|134:48,1,89.9999999999999,8|8,0:0|0:0,0:0:0:0:
167,109,65303,2,0,P|161:171|158:227,1,89.9999999999999,8|8,0:0|0:0,0:0:0:0:
222,262,66077,6,0,P|146:231|52:251,1,180,8|8,0:0|0:0,0:0:0:0:
22,335,67239,1,8,0:0:0:0:
102,375,67626,2,0,P|155:368|206:365,1,89.9999999999999,8|8,0:0|0:0,0:0:0:0:
277,338,68400,2,0,P|330:345|381:348,1,89.9999999999999,10|10,0:0|0:0,0:0:0:0:
454,366,69174,6,0,P|491:304|459:201,1,180,8|8,0:0|0:0,0:0:0:0:
375,184,70335,1,8,0:0:0:0:
426,110,70722,2,0,P|440:62|449:5,1,89.9999999999999,8|8,0:0|0:0,0:0:0:0:
356,20,71497,2,0,P|293:26|254:29,1,89.9999999999999,10|10,0:0|0:0,0:0:0:0:
191,77,72271,6,0,P|105:25|14:34,1,180,8|8,0:0|0:0,0:0:0:0:
35,118,73432,1,8,0:0:0:0:
113,162,73819,2,0,P|98:222|94:266,1,89.9999999999999,8|8,0:0|0:0,0:0:0:0:
61,333,74593,1,10,0:0:0:0:
143,368,74980,1,8,1:2:0:0:
215,314,75368,6,0,P|319:291|394:335,1,180,2|6,0:0|1:0,0:0:0:0:
467,295,76529,1,0,0:0:0:0:
428,213,76916,2,0,P|430:161|442:120,1,89.9999999999999,0|2,0:0|0:0,0:0:0:0:
401,43,77690,2,0,P|351:61|286:61,1,89.9999999999999,8|0,0:0|1:0,0:0:0:0:
255,131,78464,6,0,P|199:63|252:2,1,180,0|8,1:0|1:2,0:0:0:0:
314,64,79626,1,2,1:0:0:0:
372,132,80013,2,0,P|362:187|360:239,1,89.9999999999999,0|2,0:0|0:1,0:0:0:0:
289,277,80787,2,0,P|234:267|182:265,1,89.9999999999999,10|2,1:2|0:0,0:0:0:0:
160,345,81561,6,0,P|150:247|132:156,1,180,0|8,1:0|1:2,0:0:0:0:
99,84,82722,1,0,0:0:0:0:
188,96,83110,2,0,P|242:102|284:77,1,89.9999999999999,0|2,0:0|0:1,0:0:0:0:
329,17,83884,1,10,1:2:0:0:
414,45,84271,1,2,1:2:0:0:
455,124,84658,6,0,P|448:217|447:321,1,180,2|8,0:1|1:2,0:0:0:0:
356,298,85819,1,2,0:1:0:0:
287,356,86206,2,0,P|227:363|203:337,1,89.9999999999999,2|2,1:0|0:1,0:0:0:0:
119,332,86980,1,0,0:0:0:0:
74,253,87368,1,2,1:0:0:0:
114,172,87755,6,0,P|124:123|117:79,1,89.9999999999999,4|8,1:0|0:0,0:0:0:0:
184,22,88529,2,0,P|234:33|279:38,1,89.9999999999999,8|8,0:0|0:0,0:0:0:0:
321,112,89303,2,0,P|371:101|416:96,1,89.9999999999999,8|8,0:0|0:0,0:0:0:0:
488,52,90077,2,0,L|497:3,2,45,8|8|8,0:0|0:0|0:0,0:0:0:0:
494,141,90851,6,0,P|478:187|478:239,1,89.9999999999999,8|8,0:0|0:0,0:0:0:0:
480,318,91626,1,8,0:0:0:0:
404,367,92013,2,0,P|344:356|314:356,1,89.9999999999999,8|8,0:0|0:0,0:0:0:0:
234,316,92787,2,0,L|228:271,2,45,8|8|8,0:0|0:0|0:0,0:0:0:0:
158,364,93561,1,0,1:0:0:0:
78,321,93948,6,0,P|58:277|77:228,1,89.9999999999999,2|2,1:0|1:0,0:0:0:0:
138,181,94722,2,0,P|157:141|147:98,1,89.9999999999999,0|0,1:0|1:0,0:0:0:0:
101,20,95497,1,0,1:0:0:0:
189,1,95884,1,0,1:0:0:0:
247,69,96271,2,0,P|297:78|353:83,1,89.9999999999999,0|2,1:0|1:0,0:0:0:0:
256,192,97045,12,6,98980,1:0:0:0:
