osu file format v14

[General]
AudioFilename: IAHN - Candy Luv (Short Ver.).mp3
AudioLeadIn: 0
PreviewTime: 46188
Countdown: 0
SampleSet: None
StackLeniency: 0.2
Mode: 0
LetterboxInBreaks: 0
WidescreenStoryboard: 0

[Editor]
DistanceSpacing: 1
BeatDivisor: 4
GridSize: 8
TimelineZoom: 1

[Metadata]
Title:Candy Luv (Short Ver.)
TitleUnicode:Candy Luv (Short Ver.)
Artist:IAHN
ArtistUnicode:IAHN
Creator:K i A i
Version:Insane
Source:
Tags:
BeatmapID:1004713
BeatmapSetID:469872

[Difficulty]
HPDrainRate:5
CircleSize:4.5
OverallDifficulty:7
ApproachRate:8
SliderMultiplier:1.9
SliderTickRate:2

[Events]
//Background and Video events
0,0,"CDLVbg2.png",0,0
//Break Periods
2,85157,91592
//Storyboard Layer 0 (Background)
//Storyboard Layer 1 (Fail)
//Storyboard Layer 2 (Pass)
//Storyboard Layer 3 (Foreground)
//Storyboard Sound Samples

[TimingPoints]
35,461.538461538462,4,3,1,50,1,0
12958,-100,4,3,1,100,0,0
13881,-100,4,3,1,50,0,0
14227,-50,4,3,1,50,0,0
14804,-90.9090909090909,4,3,1,50,0,1
15265,-90.9090909090909,4,3,1,50,0,0
15727,-60.6060606060606,4,3,1,50,0,0
16188,-90.9090909090909,4,3,1,50,0,0
17573,-60.6060606060606,4,3,1,50,0,0
18496,-90.9090909090909,4,3,1,50,0,0
18958,-60.6060606060606,4,3,1,50,0,0
19419,-90.9090909090909,4,3,1,50,0,0
21265,-60.6060606060606,4,3,1,50,0,0
22188,-90.9090909090909,4,3,1,50,0,1
22650,-90.9090909090909,4,3,1,50,0,0
23111,-60.6060606060606,4,3,1,50,0,0
24035,-90.9090909090909,4,3,1,50,0,0
24958,-60.6060606060606,4,3,1,50,0,0
25881,-90.9090909090909,4,3,1,50,0,0
29573,-90.9090909090909,4,3,1,5,0,0
29688,-90.9090909090909,4,3,1,5,0,0
29804,-90.9090909090909,4,3,1,15,0,0
29919,-90.9090909090909,4,3,1,20,0,0
30035,-90.9090909090909,4,3,1,25,0,0
30150,-90.9090909090909,4,3,1,33,0,0
30265,-90.9090909090909,4,3,1,40,0,0
30381,-90.9090909090909,4,3,1,47,0,0
30496,-90.9090909090909,4,3,1,55,0,0
30611,-90.9090909090909,4,3,1,60,0,0
30727,-90.9090909090909,4,3,1,70,0,0
30842,-90.9090909090909,4,3,1,65,0,0
30958,-90.9090909090909,4,3,1,50,0,0
31419,-100,4,3,1,50,0,0
32227,-100,4,2,1,50,0,0
32342,-100,4,3,1,50,0,0
33496,-100,4,2,1,50,0,0
33611,-100,4,3,1,50,0,0
33727,-100,4,1,1,50,0,0
33958,-100,4,3,1,50,0,0
37188,-100,4,2,1,50,0,0
37304,-100,4,3,1,50,0,0
37419,-100,4,1,1,50,0,0
37650,-100,4,3,1,50,0,0
38111,-100,4,2,1,50,0,0
38342,-100,4,3,1,50,0,0
39035,-100,4,2,1,50,0,0
39265,-100,4,3,1,50,0,0
39958,-100,4,2,1,50,0,0
40188,-100,4,3,1,50,0,0
42727,-100,4,2,1,50,0,0
42842,-100,4,3,1,50,0,0
43419,-100,4,1,2,50,0,0
43650,-100,4,3,1,50,0,0
44573,-100,4,2,1,50,0,0
44688,-100,4,3,1,50,0,0
45381,-100,4,3,1,100,0,0
46188,-100,4,3,1,50,0,1
48035,-100,4,1,2,50,0,1
48265,-100,4,3,1,50,0,1
53515,-100,4,3,1,50,0,0
53573,-100,4,3,1,50,0,1
60496,-100,4,3,2,50,0,1
60727,-100,4,3,1,50,0,1
62804,-100,4,3,1,50,0,0
63265,-95.2380952380952,4,3,1,50,0,0
63727,-90.9090909090909,4,3,1,50,0,0
64188,-86.9565217391304,4,3,1,50,0,0
64650,-83.3333333333333,4,3,1,50,0,0
65111,-76.9230769230769,4,3,1,50,0,0
65573,-71.4285714285714,4,3,1,50,0,0
66035,-66.6666666666667,4,3,1,50,0,0
66496,-62.5,4,3,1,50,0,0
69265,-100,4,3,1,50,0,0
69611,-50,4,3,1,50,0,0
70188,-60.6060606060606,4,3,1,50,0,1
71111,-90.9090909090909,4,3,1,50,0,1
72496,-60.6060606060606,4,3,1,50,0,1
73188,-90.9090909090909,4,3,1,50,0,1
77573,-60.6060606060606,4,3,1,50,0,1
78496,-90.9090909090909,4,3,1,50,0,1
79881,-60.6060606060606,4,3,1,50,0,1
80342,-90.9090909090909,4,3,1,50,0,1
82188,-60.6060606060606,4,3,1,50,0,1
83111,-90.9090909090909,4,3,1,50,0,1
84265,-133.333333333333,4,3,1,50,0,1
84496,-133.333333333333,4,3,2,50,0,1
84727,-133.333333333333,4,3,1,50,0,1
84958,-100,4,3,1,50,0,0
99265,-100,4,3,1,75,0,0
99727,-90.9090909090909,4,3,1,50,0,1
100188,-90.9090909090909,4,3,1,50,0,0
106650,-90.9090909090909,4,3,2,50,0,0
106881,-90.9090909090909,4,3,1,50,0,0
107111,-83.3333333333333,4,3,1,50,0,0
107573,-76.9230769230769,4,3,1,50,0,0
108035,-71.4285714285714,4,3,1,50,0,0
108496,-66.6666666666667,4,3,1,50,0,0
108958,-86.9565217391304,4,3,1,60,0,1
110111,-86.9565217391304,4,2,1,60,0,1
110227,-86.9565217391304,4,3,1,60,0,1
112881,-86.9565217391304,4,2,1,60,0,1
112996,-86.9565217391304,4,3,1,60,0,1
113804,-86.9565217391304,4,2,1,60,0,1
114035,-86.9565217391304,4,3,1,60,0,1
114727,-86.9565217391304,4,2,1,60,0,1
114842,-86.9565217391304,4,3,1,60,0,1
114958,-86.9565217391304,4,3,2,60,0,1
115188,-86.9565217391304,4,3,1,60,0,1
115419,-58.8235294117647,4,3,1,60,0,1
115650,-58.8235294117647,4,2,1,60,0,1
115765,-58.8235294117647,4,3,1,60,0,1
116111,-58.8235294117647,4,2,1,60,0,1
116227,-58.8235294117647,4,3,1,60,0,1
116285,-58.8235294117647,4,3,1,60,0,0
116342,-86.9565217391304,4,3,1,60,0,1
116573,-86.9565217391304,4,2,1,60,0,1
116804,-86.9565217391304,4,3,1,60,0,1
117496,-86.9565217391304,4,2,1,60,0,1
117611,-86.9565217391304,4,3,1,60,0,1
120265,-86.9565217391304,4,2,1,60,0,1
120381,-86.9565217391304,4,3,1,60,0,1
123035,-86.9565217391304,4,2,1,60,0,1
123150,-86.9565217391304,4,3,1,60,0,1
123265,-86.9565217391304,4,3,2,60,0,1
123496,-86.9565217391304,4,3,1,60,0,1
123727,-62.5,4,3,1,60,0,1
124188,-58.8235294117647,4,3,1,60,0,1
124650,-55.5555555555556,4,3,1,60,0,1
125111,-55.5555555555556,4,3,1,50,0,0
125573,-100,4,3,1,50,0,0
131111,-100,4,3,1,100,0,0
132150,-100,4,3,1,50,0,1
132496,-100,4,3,1,50,0,0

[Colours]
Combo1 : 251,70,255
Combo2 : 240,217,240
Combo3 : 205,241,234
Combo4 : 248,245,197
Combo5 : 241,205,205
Combo6 : 28,250,255

[HitObjects]
256,272,35,5,4,1:0:0:0:
320,144,381,1,0,0:0:0:0:
464,168,727,1,0,0:0:0:0:
488,312,1073,1,0,0:0:0:0:
360,376,1419,1,0,0:0:0:0:
0,104,1881,5,8,0:0:0:0:
64,232,2227,1,0,0:0:0:0:
208,208,2573,1,0,0:0:0:0:
232,64,2919,1,0,0:0:0:0:
104,0,3265,1,0,0:0:0:0:
512,192,3727,5,8,0:0:0:0:
376,0,4073,1,0,0:0:0:0:
376,240,4419,1,0,0:0:0:0:
512,48,4765,1,0,0:0:0:0:
296,120,5111,1,0,0:0:0:0:
0,192,5573,5,8,0:0:0:0:
136,384,5919,1,0,0:0:0:0:
136,144,6265,1,0,0:0:0:0:
0,336,6611,1,0,0:0:0:0:
216,264,6957,1,8,0:0:0:0:
216,264,7419,38,0,L|208:360,1,95,10|0,0:1|2:0,0:0:0:0:
320,224,7881,2,0,L|328:320,1,95,10|0,0:1|2:0,0:0:0:0:
424,144,8342,1,10,0:1:0:0:
416,168,8458,2,0,L|440:264,1,95,0|0,2:0|2:0,0:0:0:0:
440,288,8804,1,10,0:1:0:0:
304,232,9035,1,0,2:0:0:0:
304,232,9265,6,0,L|400:240,1,95,10|0,0:1|2:0,0:0:0:0:
264,128,9727,2,0,L|360:120,1,95,10|0,0:1|2:0,0:0:0:0:
184,24,10188,1,10,0:1:0:0:
208,32,10304,2,0,L|304:8,1,95,0|0,2:0|2:0,0:0:0:0:
328,8,10650,1,10,0:1:0:0:
272,144,10881,1,0,2:0:0:0:
272,144,11111,5,10,0:1:0:0:
328,280,11342,1,8,0:1:0:0:
200,192,11573,1,10,0:1:0:0:
232,336,11804,1,8,0:1:0:0:
120,224,12035,1,10,0:1:0:0:
128,368,12266,1,8,0:1:0:0:
32,240,12496,1,10,0:1:0:0:
16,384,12727,1,8,0:1:0:0:
24,216,12958,5,8,0:2:0:0:
64,240,13073,1,2,0:2:0:0:
112,240,13188,1,8,0:2:0:0:
152,216,13304,1,4,0:2:0:0:
184,184,13419,1,8,0:2:0:0:
224,160,13535,1,2,0:2:0:0:
272,152,13650,1,8,0:2:0:0:
320,168,13765,1,4,0:2:0:0:
352,208,13881,2,0,L|344:304,1,95,8|8,0:0|0:0,0:0:0:0:
360,288,14227,6,0,L|352:384,1,95,8|4,0:0|0:0,0:0:0:0:
352,382,14804,22,0,P|312:358|256:358,1,104.500003189087,4|0,1:0|0:0,0:0:0:0:
416,288,15265,2,0,P|472:288|512:264,1,104.500003189087,4|0,0:0|0:0,0:0:0:0:
448,32,15727,54,0,B|464:72|432:104|432:104|448:120|448:120|416:152|448:192|448:192|448:168|472:144,1,235.125002242327,8|0,0:0|0:0,0:0:0:0:
488,136,16188,2,0,P|432:128|384:136,1,104.500003189087,4|0,0:0|0:0,0:0:0:0:
448,336,16650,38,0,P|456:280|448:232,1,104.500003189087,8|0,0:0|0:0,0:0:0:0:
296,80,17111,2,0,P|288:136|296:184,1,104.500003189087,4|0,0:0|0:0,0:0:0:0:
184,384,17573,54,0,P|168:288|80:344,1,235.125002242327,8|0,0:0|0:0,0:0:0:0:
8,376,18035,2,0,L|0:296,1,78.3750007474423,4|0,0:0|0:0,0:0:0:0:
32,232,18265,2,0,L|40:80,1,78.3750007474423
88,104,18496,38,0,L|104:0,1,104.500003189087,8|0,0:0|0:0,0:0:0:0:
160,256,18958,22,0,B|160:216|176:192|176:192|160:176|160:176|176:152|176:112|176:112|168:160|120:184,1,235.125002242327,4|0,0:0|0:0,0:0:0:0:
120,192,19419,54,0,L|224:184,1,104.50000099659,8|0,0:0|0:0,0:0:0:0:
280,96,19881,2,0,L|384:88,1,104.50000099659,4|0,0:0|0:0,0:0:0:0:
496,192,20342,6,0,P|468:264|496:336,1,156.750004783631,8|0,0:0|0:0,0:0:0:0:
512,352,20804,2,0,L|408:360,1,104.500003189087,4|0,0:0|0:0,0:0:0:0:
248,256,21265,22,0,B|288:248|312:272|312:272|328:256|328:256|352:280|392:272|392:272|352:280|332:312,1,235.125002242327,8|0,0:0|0:0,0:0:0:0:
320,336,21727,2,0,P|256:356|256:288,1,156.750001494885,4|0,0:0|0:0,0:0:0:0:
128,384,22188,6,0,P|120:328|128:280,1,104.500003189087,4|0,1:0|0:0,0:0:0:0:
136,256,22535,1,0,0:0:0:0:
144,232,22650,2,0,P|88:240|40:232,1,104.500003189087,4|0,0:0|0:0,0:0:0:0:
240,256,23111,54,0,P|240:208|208:160,1,104.50000099659,8|0,0:0|0:0,0:0:0:0:
192,144,23342,2,0,P|272:144|296:80,1,156.750001494885,0|4,0:0|0:0,0:0:0:0:
240,32,23688,2,0,B|184:32|184:32|144:56|144:56|88:56,1,156.750001494885
64,56,24035,38,0,B|88:80|88:80|88:152,1,104.500003189087,8|0,0:0|0:0,0:0:0:0:
184,328,24496,2,0,B|208:304|208:304|208:232,1,104.500003189087,4|0,0:0|0:0,0:0:0:0:
336,24,24958,54,0,B|360:48|360:48|360:96|360:96|360:160|456:160|456:96,1,235.125002242327,8|0,0:0|0:0,0:0:0:0:
456,72,25419,2,0,B|456:128|456:128|480:168|480:168|480:224,1,156.750001494885,4|0,0:0|0:0,0:0:0:0:
368,376,25881,38,0,B|368:320|368:320|344:280|344:280|344:224,1,156.750004783631,8|0,0:0|0:0,0:0:0:0:
344,200,26342,2,0,P|304:232|248:232,1,104.500003189087,4|0,0:0|0:0,0:0:0:0:
80,160,26804,2,0,P|120:128|176:128,1,104.500003189087,8|0,0:0|0:0,0:0:0:0:
232,48,27265,2,0,P|264:88|264:144,1,104.500003189087,4|0,0:0|0:0,0:0:0:0:
192,312,27727,6,0,P|160:272|160:216,1,104.500003189087,8|0,0:0|0:0,0:0:0:0:
168,200,28073,1,0,0:0:0:0:
180,184,28188,2,0,L|76:192,1,104.500003189087,4|0,0:0|0:0,0:0:0:0:
0,352,28650,2,0,L|208:336,1,209.000006378174,8|4,0:0|0:0,0:0:0:0:
480,360,29573,37,8,0:1:0:0:
432,352,29689,1,8,0:1:0:0:
392,328,29804,1,8,0:1:0:0:
368,288,29919,1,8,0:1:0:0:
368,240,30035,1,8,0:1:0:0:
392,200,30150,1,8,0:1:0:0:
440,184,30265,1,8,0:1:0:0:
488,168,30381,1,8,0:1:0:0:
512,128,30496,1,8,0:1:0:0:
512,80,30612,1,8,0:1:0:0:
488,40,30727,1,8,0:1:0:0:
440,24,30842,1,8,0:1:0:0:
392,24,30958,1,4,0:0:0:0:
392,24,31188,2,0,L|328:24,1,52.2500015945435,0|0,2:0|2:0,0:0:0:0:
264,24,31419,6,0,P|256:72|264:120,1,95,6|0,0:1|2:0,0:0:0:0:
392,256,31881,1,2,0:1:0:0:
408,272,31996,2,0,P|424:200|408:132,1,142.5,0|2,2:0|0:1,0:0:0:0:
208,208,32573,2,0,L|304:200,1,95,0|2,2:1|0:1,0:0:0:0:
320,184,32919,2,0,P|296:224|296:272,1,95,0|0,2:0|2:0,0:0:0:0:
304,296,33265,6,0,P|376:296|424:344,2,142.5,2|0|0,0:1|0:0|2:0,0:0:0:0:
240,368,34188,2,0,L|144:360,1,95,2|0,0:1|2:0,0:0:0:0:
0,248,34650,2,0,L|96:256,1,95,2|0,0:1|2:0,0:0:0:0:
112,240,34996,2,0,P|120:168|112:96,1,142.5,0|0,0:0|2:0,0:0:0:0:
104,80,35458,5,0,0:0:0:0:
104,80,35573,2,0,P|152:80|192:56,1,95,2|0,0:1|2:0,0:0:0:0:
8,16,36035,2,0,L|16:112,1,95,2|0,0:1|2:0,0:0:0:0:
144,64,36496,1,2,0:1:0:0:
128,80,36611,2,0,L|120:176,1,95,0|0,2:0|2:0,0:0:0:0:
104,192,36958,38,0,P|176:192|224:240,2,142.5,2|0|0,0:1|0:0|2:0,0:0:0:0:
16,240,37881,2,0,P|16:144|88:96,1,190,2|2,0:1|0:1,0:0:0:0:
192,344,38804,6,0,L|0:336,1,190,4|8,1:0|0:0,0:0:0:0:
72,224,39496,1,0,2:0:0:0:
72,224,39727,2,0,L|264:232,1,190,8|8,0:0|0:0,0:0:0:0:
336,296,40419,1,0,2:0:0:0:
376,208,40650,5,8,0:0:0:0:
376,208,40765,1,0,0:0:0:0:
376,208,40881,2,0,L|368:112,1,95,0|8,2:0|0:0,0:0:0:0:
512,232,41342,1,0,2:0:0:0:
472,144,41573,1,8,0:0:0:0:
472,144,41688,1,0,0:0:0:0:
472,144,41804,2,0,L|480:48,2,95,0|8|0,2:0|0:0|2:0,0:0:0:0:
512,232,42496,6,0,L|500:376,1,142.5,8|0,0:0|0:0,0:0:0:0:
480,384,42958,1,8,0:0:0:0:
248,336,43188,2,0,B|304:360|344:336|328:304|376:280|424:304,1,190,0|0,2:0|2:0,0:0:0:0:
440,320,43765,1,0,0:0:0:0:
440,320,43881,2,0,P|440:272|464:232,1,95,8|0,0:0|2:0,0:0:0:0:
512,152,44342,38,0,P|440:152|384:112,1,142.5,8|2,0:0|0:1,0:0:0:0:
368,96,44804,2,0,L|464:88,1,95,8|2,0:1|0:1,0:0:0:0:
352,192,45265,1,4,0:0:0:0:
304,184,45381,1,2,0:2:0:0:
256,176,45496,2,0,L|208:168,1,47.5,8|4,0:2|0:2,0:0:0:0:
160,224,45727,1,2,0:2:0:0:
112,208,45843,1,2,0:2:0:0:
64,192,45958,2,0,L|16:176,1,47.5,8|4,0:2|0:2,0:0:0:0:
0,96,46188,6,0,P|96:96|160:32,1,190,4|4,1:0|0:0,0:0:0:0:
200,320,46881,1,0,0:0:0:0:
240,232,47111,2,0,L|232:88,1,142.5,8|0,0:0|0:0,0:0:0:0:
248,72,47573,1,4,0:0:0:0:
280,352,47804,2,0,P|184:352|128:280,1,190
344,280,48496,6,0,P|376:320|376:368,1,95,4|0,0:0|0:0,0:0:0:0:
248,296,48958,2,0,P|248:248|280:208,1,95,8|0,0:0|0:0,0:0:0:0:
360,88,49419,2,0,L|368:184,1,95,4|0,0:0|0:0,0:0:0:0:
472,384,49881,5,8,0:0:0:0:
488,368,49996,2,0,L|496:272,1,95
512,256,50342,2,0,P|464:264|416:256,1,95,4|0,0:0|0:0,0:0:0:0:
328,304,50804,2,0,P|328:208|400:160,1,190,8|4,0:0|0:0,0:0:0:0:
418,256,51496,1,0,0:0:0:0:
344,320,51727,38,0,L|200:304,1,142.5,8|0,0:0|0:0,0:0:0:0:
184,288,52188,2,0,B|192:336|192:336|184:384,1,95,4|0,0:0|0:0,0:0:0:0:
32,320,52650,2,0,B|24:272|24:272|32:224,1,95,8|0,0:0|0:0,0:0:0:0:
304,160,53111,2,0,B|312:208|312:208|304:256,1,95,4|0,0:0|0:0,0:0:0:0:
152,192,53573,6,0,B|136:96|136:96|152:0,1,190,4|4,1:0|0:0,0:0:0:0:
56,168,54265,1,0,0:0:0:0:
56,168,54496,2,0,L|80:312,1,142.5,8|0,0:0|0:0,0:0:0:0:
84,332,54958,2,0,P|48:304|0:304,1,95,4|0,0:0|0:0,0:0:0:0:
168,376,55419,6,0,P|216:376|256:352,1,95,8|0,0:0|0:0,0:0:0:0:
264,328,55765,1,0,0:0:0:0:
272,304,55881,2,0,L|256:208,1,95,4|0,0:0|0:0,0:0:0:0:
448,112,56342,2,0,L|464:208,1,95,8|0,0:0|0:0,0:0:0:0:
368,256,56804,2,0,L|352:160,1,95,4|0,0:0|0:0,0:0:0:0:
256,210,57265,6,0,L|280:354,1,142.5,8|0,0:0|0:0,0:0:0:0:
272,376,57727,1,4,0:0:0:0:
80,352,57958,2,0,P|128:352|168:328,1,95,0|8,0:0|0:0,0:0:0:0:
100,256,58419,2,0,P|100:208|76:168,1,95,0|4,0:0|0:0,0:0:0:0:
8,232,58881,1,0,0:0:0:0:
88,280,59111,38,0,L|184:272,1,95,8|0,0:0|0:0,0:0:0:0:
368,336,59573,2,0,L|272:344,1,95,4|0,0:0|0:0,0:0:0:0:
352,160,60035,2,0,L|536:144,2,142.5,8|0|0,0:0|0:0|0:0,0:0:0:0:
328,240,60958,5,4,1:0:0:0:
328,240,61073,2,0,L|336:144,1,95
248,204,61419,5,8,0:0:0:0:
248,204,61534,2,0,L|256:108,1,95
168,168,61881,5,8,0:0:0:0:
168,168,61996,2,0,L|176:72,1,95
88,132,62343,37,4,0:0:0:0:
88,132,62458,2,0,L|96:36,1,95
8,96,62804,53,4,1:0:0:0:
8,96,62919,2,0,L|16:0,1,95
96,144,63266,5,12,0:0:0:0:
96,144,63381,2,0,L|88:40,1,99.7499969558717
192,176,63727,69,8,0:0:0:0:
192,176,63842,2,0,L|160:64,1,104.500003189087
288,192,64188,5,12,0:0:0:0:
288,192,64304,2,0,L|240:88,1,109.250002083778
384,192,64650,69,8,0:0:0:0:
384,192,64765,2,0,L|320:96,1,113.999996520996
312,260,65111,5,12,0:0:0:0:
312,260,65227,2,0,L|256:132,1,123.499994346619
224,320,65573,69,8,0:0:0:0:
224,320,65688,2,0,L|192:184,1,132.999995941162
120,372,66035,5,12,0:0:0:0:
120,372,66150,2,0,L|112:228,1,142.500005435944
56,176,66496,70,0,L|48:40,1,76,8|0,1:0|0:0,0:0:0:0:
136,144,66727,2,0,L|128:8,1,76,8|0,1:0|0:0,0:0:0:0:
216,112,66958,2,0,L|208:-24,1,76,8|0,1:0|0:0,0:0:0:0:
296,80,67188,2,0,L|288:-56,1,76,8|0,1:0|0:0,0:0:0:0:
224,168,67419,6,0,L|216:32,1,76,8|0,1:0|0:0,0:0:0:0:
304,200,67650,2,0,L|296:64,1,76,8|0,1:0|0:0,0:0:0:0:
384,232,67881,2,0,L|376:96,1,76,8|0,1:0|0:0,0:0:0:0:
464,264,68111,2,0,L|456:128,1,76,8|0,1:0|0:0,0:0:0:0:
456,104,68342,21,8,1:1:0:0:
416,128,68457,1,8,0:1:0:0:
368,128,68572,1,8,1:1:0:0:
328,104,68688,1,8,0:1:0:0:
296,72,68803,1,8,1:1:0:0:
256,48,68919,1,8,0:1:0:0:
208,40,69034,1,8,1:1:0:0:
160,56,69149,1,8,0:1:0:0:
128,96,69265,2,0,L|136:192,1,95,4|8,0:0|0:0,0:0:0:0:
120,176,69611,54,0,L|128:272,1,95,8|4,0:0|0:0,0:0:0:0:
127,270,70188,70,0,B|167:270|191:254|191:254|207:270|207:270|231:254|271:254|271:254|223:262|199:310,1,235.125002242327,4|0,1:0|0:0,0:0:0:0:
259,342,70650,2,0,B|236:364|212:364|212:364|252:396|284:364|284:364|300:380|300:380|332:348|372:364,1,235.125002242327,4|0,0:0|0:0,0:0:0:0:
440,384,71111,22,0,L|448:280,1,104.500003189087,8|0,0:0|0:0,0:0:0:0:
304,184,71573,2,0,L|312:288,1,104.500003189087,4|0,0:0|0:0,0:0:0:0:
376,120,72035,2,0,P|328:88|280:88,1,104.500003189087,8|0,0:0|0:0,0:0:0:0:
24,248,72496,70,0,P|40:344|128:288,1,235.125002242327,4|0,0:0|0:0,0:0:0:0:
96,224,72958,2,0,L|192:208,1,78.3750007474423,8|0,0:0|0:0,0:0:0:0:
208,248,73188,21,0,0:0:0:0:
256,240,73304,1,0,0:0:0:0:
304,232,73419,1,4,0:0:0:0:
352,224,73535,1,0,0:0:0:0:
400,216,73650,1,0,0:0:0:0:
448,208,73765,1,0,0:0:0:0:
496,200,73881,6,0,L|488:360,1,156.750004783631,8|0,0:0|0:0,0:0:0:0:
472,376,74342,2,0,P|416:376|376:352,1,104.500003189087,4|0,0:0|0:0,0:0:0:0:
328,256,74804,2,0,P|408:256|456:200,1,156.750004783631,8|0,0:0|0:0,0:0:0:0:
464,176,75265,1,4,0:0:0:0:
496,0,75496,1,0,0:0:0:0:
504,48,75611,1,0,0:0:0:0:
512,96,75727,5,8,0:0:0:0:
464,80,75842,1,0,0:0:0:0:
416,88,75958,1,0,0:0:0:0:
384,120,76073,1,0,0:0:0:0:
376,168,76188,1,4,0:0:0:0:
360,216,76304,1,0,0:0:0:0:
320,240,76419,1,0,0:0:0:0:
272,240,76535,1,0,0:0:0:0:
232,216,76650,1,8,0:0:0:0:
208,176,76765,1,0,0:0:0:0:
208,128,76881,1,0,0:0:0:0:
232,88,76996,1,0,0:0:0:0:
272,64,77111,1,4,0:0:0:0:
224,56,77227,1,0,0:0:0:0:
176,48,77342,1,0,0:0:0:0:
128,40,77458,1,0,0:0:0:0:
80,32,77573,6,0,B|112:80|112:136|80:184|80:184|80:144|56:116,1,235.125002242327,8|0,0:0|0:0,0:0:0:0:
32,240,78035,2,0,B|8:212|8:172|8:172|-24:220|-24:276|8:324,1,235.125002242327,4|0,0:0|0:0,0:0:0:0:
72,368,78496,22,0,L|176:360,1,104.500003189087,8|0,0:0|0:0,0:0:0:0:
320,224,78958,2,0,L|216:232,1,104.500003189087,4|0,0:0|0:0,0:0:0:0:
360,384,79419,2,0,L|464:376,1,104.500003189087,8|0,0:0|0:0,0:0:0:0:
512,136,79881,70,0,P|496:232|408:176,1,235.125002242327,4|0,0:0|0:0,0:0:0:0:
336,152,80342,22,0,P|360:64|440:112,1,209.000006378174,8|4,0:0|0:0,0:0:0:0:
288,248,81035,1,0,0:0:0:0:
224,168,81265,6,0,P|216:112|224:64,1,104.500003189087,8|0,0:0|0:0,0:0:0:0:
376,200,81727,2,0,P|384:256|376:304,1,104.500003189087,4|0,0:0|0:0,0:0:0:0:
144,264,82188,22,0,B|184:264|208:248|208:248|224:264|224:264|248:248|288:248|288:248|240:256|216:304,1,235.125002242327,8|0,0:0|0:0,0:0:0:0:
192,360,82650,2,0,L|112:368,1,78.3750007474423,4|0,0:0|0:0,0:0:0:0:
80,304,82880,2,0,L|-72:296,1,78.3750007474423
0,224,83111,70,0,B|104:232|104:232|192:176,1,209.000006378174,8|4,0:0|0:0,0:0:0:0:
264,40,83804,1,0,0:0:0:0:
112,8,84035,2,0,L|120:80,1,69.6666687927247,8|0,0:0|0:0,0:0:0:0:
136,96,84265,54,0,P|48:96|96:168,1,213.750008153916,0|6,0:0|0:1,0:0:0:0:
96,168,92342,69,0,0:0:0:0:
152,224,92573,1,0,2:0:0:0:
224,232,92804,1,0,0:0:0:0:
288,192,93035,1,0,2:0:0:0:
320,120,93265,1,0,0:0:0:0:
384,80,93496,1,0,2:0:0:0:
460,88,93727,1,0,0:0:0:0:
512,160,93958,1,0,2:0:0:0:
512,160,94073,1,0,0:0:0:0:
512,160,94188,1,0,0:0:0:0:
448,200,94419,5,0,2:0:0:0:
448,200,94535,1,0,0:0:0:0:
456,272,94765,1,0,0:0:0:0:
456,272,94881,1,0,2:0:0:0:
464,344,95111,1,0,0:0:0:0:
392,352,95342,1,0,2:0:0:0:
384,280,95573,1,0,0:0:0:0:
456,272,95804,1,0,2:0:0:0:
464,344,96035,5,0,0:0:0:0:
400,360,96265,1,0,2:0:0:0:
400,360,96381,1,0,0:0:0:0:
400,360,96496,1,0,0:0:0:0:
328,336,96727,1,0,2:0:0:0:
256,360,96957,1,0,0:0:0:0:
232,352,97073,1,0,0:0:0:0:
208,344,97188,1,0,2:0:0:0:
184,336,97304,1,0,0:0:0:0:
112,360,97534,1,0,0:0:0:0:
88,352,97650,1,0,2:0:0:0:
16,328,97881,5,0,0:0:0:0:
72,272,98111,1,0,2:0:0:0:
72,272,98227,1,0,0:0:0:0:
72,272,98342,1,0,0:0:0:0:
48,200,98573,1,0,2:0:0:0:
104,144,98803,1,2,0:1:0:0:
176,352,99265,1,8,0:1:0:0:
176,352,99727,38,0,L|168:248,1,104.500003189087,4|0,1:0|0:0,0:0:0:0:
344,152,100188,2,0,L|352:256,1,104.500003189087,4|0,0:0|0:0,0:0:0:0:
264,304,100650,2,0,L|256:200,1,104.500003189087,8|0,0:0|0:0,0:0:0:0:
432,104,101111,2,0,L|440:208,1,104.500003189087,4|0,0:0|0:0,0:0:0:0:
344,144,101573,6,0,P|344:64|400:16,1,156.750004783631,8|0,0:0|0:0,0:0:0:0:
424,8,102035,2,0,L|272:0,1,104.500003189087,4|0,0:0|0:0,0:0:0:0:
144,112,102496,2,0,L|296:120,1,104.500003189087,8|0,0:0|0:0,0:0:0:0:
304,16,102958,1,4,0:0:0:0:
264,136,103188,1,0,0:0:0:0:
392,280,103419,6,0,P|400:200|392:120,1,156.750004783631,8|0,0:0|0:0,0:0:0:0:
376,104,103881,2,0,P|416:128|472:128,1,104.500003189087,4|0,0:0|0:0,0:0:0:0:
488,304,104342,2,0,P|512:264|512:208,1,104.500003189087,8|0,0:0|0:0,0:0:0:0:
304,32,104804,2,0,P|280:72|280:128,1,104.500003189087,4|0,0:0|0:0,0:0:0:0:
304,224,105265,5,8,0:0:0:0:
208,208,105496,1,0,0:0:0:0:
120,240,105727,1,4,0:0:0:0:
24,224,105958,1,0,0:0:0:0:
24,224,106188,2,0,L|8:24,2,156.750004783631,8|0|0,0:0|0:0|0:0,0:0:0:0:
104,320,107111,5,4,1:0:0:0:
104,320,107227,2,0,L|120:152,1,113.999996520996
216,288,107573,5,8,0:0:0:0:
216,288,107689,2,0,L|204:120,1,123.499994346619
320,240,108035,69,8,0:0:0:0:
320,240,108150,2,0,L|280:72,1,132.999995941162
416,176,108496,5,4,0:0:0:0:
416,176,108611,2,0,L|344:16,1,142.500005435944
512,160,108958,6,0,P|512:216|480:256,1,109.250002083778,4|0,1:0|2:0,0:0:0:0:
312,128,109419,2,0,P|312:72|344:32,1,109.250002083778,4|0,0:0|2:0,0:0:0:0:
344,240,109881,2,0,P|272:240|208:176,1,163.875003125668,8|0,0:0|0:0,0:0:0:0:
200,152,110342,1,4,0:0:0:0:
128,48,110573,6,0,L|240:56,1,109.250002083778,0|8,2:0|0:0,0:0:0:0:
128,216,111035,2,0,L|16:208,2,109.250002083778,0|4|0,2:0|0:0|2:0,0:0:0:0:
192,296,111727,2,0,P|224:256|224:200,1,109.250002083778,8|0,0:0|2:0,0:0:0:0:
32,16,112188,2,0,P|0:56|0:112,1,109.250002083778,4|0,0:0|2:0,0:0:0:0:
152,224,112650,6,0,P|152:144|96:88,1,163.875003125668,8|0,0:0|0:0,0:0:0:0:
72,80,113111,1,4,0:0:0:0:
120,72,113227,1,0,0:0:0:0:
168,64,113342,1,0,2:0:0:0:
384,128,113573,2,0,B|352:104|312:112|280:136|296:160|264:184|224:192|192:168,1,218.500004167557,8|4,0:0|0:0,0:0:0:0:
400,24,114265,1,0,2:0:0:0:
480,104,114496,6,0,P|480:184|408:224,2,163.875003125668,8|0|0,0:0|0:0|2:0,0:0:0:0:
384,128,115419,6,0,B|384:96|384:64|408:40|408:40|376:80|336:80|296:56|296:16,1,242.250004620552,8|0,0:0|0:0,0:0:0:0:
288,0,115881,2,0,B|304:40|272:72|272:72|288:88|288:88|256:120|272:160|272:160|272:128|296:104,1,242.250004620552,4|0,0:0|0:0,0:0:0:0:
312,96,116342,22,0,P|416:96|480:184,1,218.500004167557,4|4,1:0|0:0,0:0:0:0:
256,384,117035,1,0,2:0:0:0:
360,360,117265,2,0,L|368:192,1,163.875003125668,8|0,0:0|0:0,0:0:0:0:
352,176,117727,1,4,0:0:0:0:
504,296,117958,1,0,2:0:0:0:
336,376,118188,6,0,P|296:344|240:344,1,109.250002083778,8|0,0:0|2:0,0:0:0:0:
0,344,118650,2,0,P|40:376|96:376,1,109.250002083778,4|0,0:0|2:0,0:0:0:0:
72,160,119111,2,0,L|80:272,1,109.250002083778,8|0,0:0|2:0,0:0:0:0:
224,360,119573,2,0,L|232:248,1,109.250002083778,4|0,0:0|2:0,0:0:0:0:
320,8,120035,6,0,B|312:64|312:64|336:112|336:112|328:168,1,163.875003125668,8|0,0:0|0:0,0:0:0:0:
312,184,120496,2,0,P|352:152|408:152,1,109.250002083778,4|0,0:0|2:0,0:0:0:0:
488,288,120958,2,0,P|432:288|392:256,1,109.250002083778,8|0,0:0|2:0,0:0:0:0:
480,80,121419,2,0,P|512:120|512:176,1,109.250002083778,4|0,0:0|2:0,0:0:0:0:
296,200,121881,5,8,0:0:0:0:
488,56,122111,1,0,2:0:0:0:
504,304,122342,1,4,0:0:0:0:
280,224,122573,1,0,2:0:0:0:
496,32,122804,2,0,L|328:24,2,163.875003125668,8|0|0,0:0|0:0|2:0,0:0:0:0:
80,72,123727,5,4,0:0:0:0:
80,72,123842,2,0,L|248:80,1,152,8|0,0:0|0:0,0:0:0:0:
376,184,124188,5,4,0:0:0:0:
376,184,124303,2,0,L|208:176,1,161.500003080368,8|0,0:0|0:0,0:0:0:0:
0,248,124650,69,4,0:0:0:0:
0,248,124765,2,0,L|176:256,1,170.999994781494,8|0,0:0|0:0,0:0:0:0:
312,264,125111,5,4,0:0:0:0:
312,264,125573,6,0,L|320:360,1,95,10|0,0:1|2:0,0:0:0:0:
208,224,126035,2,0,L|200:320,1,95,10|0,0:1|2:0,0:0:0:0:
104,144,126496,1,10,0:1:0:0:
112,168,126612,2,0,L|88:264,1,95,0|0,2:0|2:0,0:0:0:0:
88,288,126958,1,10,0:1:0:0:
224,232,127189,1,0,2:0:0:0:
224,232,127419,6,0,L|128:240,1,95,10|0,0:1|2:0,0:0:0:0:
264,128,127881,2,0,L|168:120,1,95,10|0,0:1|2:0,0:0:0:0:
344,24,128342,1,10,0:1:0:0:
320,32,128458,2,0,L|224:8,1,95,0|0,2:0|2:0,0:0:0:0:
200,8,128804,1,10,0:1:0:0:
256,144,129035,1,0,2:0:0:0:
256,144,129265,5,10,0:1:0:0:
200,280,129496,1,8,0:1:0:0:
328,192,129727,1,10,0:1:0:0:
296,336,129958,1,8,0:1:0:0:
408,224,130189,1,10,0:1:0:0:
400,368,130420,5,8,0:1:0:0:
496,240,130650,1,10,0:1:0:0:
512,384,130881,1,8,0:1:0:0:
504,216,131111,1,8,0:2:0:0:
496,168,131227,1,2,0:2:0:0:
464,128,131342,1,8,0:2:0:0:
416,112,131458,1,4,0:2:0:0:
368,120,131573,1,8,0:2:0:0:
336,160,131689,1,2,0:2:0:0:
328,208,131804,2,0,L|336:352,1,142.5,8|4,0:2|1:0,0:0:0:0:
