osu file format v14

[General]
AudioFilename: audio.mp3
AudioLeadIn: 0
PreviewTime: 62673
Countdown: 0
SampleSet: None
StackLeniency: 0.7
Mode: 0
LetterboxInBreaks: 0
WidescreenStoryboard: 0

[Editor]
Bookmarks: 16635,24019,62789,101558,116327,131096,147712,164327
DistanceSpacing: 0.8
BeatDivisor: 4
GridSize: 16
TimelineZoom: 1

[Metadata]
Title:Candy Luv
TitleUnicode:Candy Luv
Artist:IAHN
ArtistUnicode:IAHN
Creator:Monstrata
Version:Rizen's Normal
Source:
Tags:rizen love a_q_p_w osu monthly beatmap mapping contest 12 twelve
BeatmapID:1046490
BeatmapSetID:491033

[Difficulty]
HPDrainRate:3
CircleSize:3.5
OverallDifficulty:4
ApproachRate:5.3
SliderMultiplier:1.3
SliderTickRate:1

[Events]
//Background and Video events
0,0,"Konachan.com - 201213 sample.jpg",0,0
//Break Periods
2,101758,115173
//Storyboard Layer 0 (Background)
//Storyboard Layer 1 (Fail)
//Storyboard Layer 2 (Pass)
//Storyboard Layer 3 (Foreground)
//Storyboard Sound Samples

[TimingPoints]
1866,461.538461538462,4,2,0,75,1,0
2558,-100,4,2,0,60,0,0
3712,-100,4,2,0,75,0,0
4404,-100,4,2,0,60,0,0
5558,-100,4,2,0,75,0,0
6250,-100,4,2,0,60,0,0
7404,-100,4,2,0,55,0,0
7866,-100,4,2,0,60,0,0
9250,-100,4,2,0,50,0,0
12942,-100,4,2,0,55,0,0
13866,-100,4,2,0,30,0,0
14096,-100,4,2,0,40,0,0
14327,-100,4,2,0,50,0,0
14558,-100,4,2,0,60,0,0
14789,-100,4,3,0,50,0,0
16635,-100,4,3,0,60,0,0
30019,-100,4,3,0,58,0,0
30481,-100,4,3,0,56,0,0
30827,-100,4,3,0,54,0,0
31404,-100,4,3,0,40,0,0
31866,-100,4,3,0,55,0,0
32327,-100,4,3,0,70,0,0
33019,-100,4,3,0,35,0,0
33250,-100,4,2,0,65,0,0
39712,-100,4,2,0,75,0,0
40635,-100,4,2,0,65,0,0
48019,-100,4,3,0,70,0,0
54712,-100,4,2,0,50,0,0
55404,-100,4,3,0,70,0,0
62442,-100,4,3,0,50,0,0
62789,-100,4,3,0,75,0,1
66481,-100,4,3,0,90,0,1
67866,-100,4,3,0,75,0,1
77558,-100,4,3,0,50,0,0
81250,-100,4,3,0,60,0,0
82173,-100,4,2,0,60,0,0
83096,-100,4,3,0,70,0,0
83558,-100,4,3,0,80,0,0
84019,-100,4,3,0,90,0,0
84481,-100,4,3,0,100,0,0
84942,-100,4,3,0,100,0,0
85866,-100,4,3,0,75,0,0
86327,-100,4,3,0,35,0,0
86789,-100,4,3,0,70,0,0
100981,-100,4,1,0,35,0,0
101096,-100,4,1,0,30,0,0
101212,-100,4,1,0,25,0,0
101327,-100,4,1,0,20,0,0
101442,-100,4,1,0,15,0,0
101558,-100,4,1,0,50,0,0
116327,-100,4,3,0,70,0,0
131096,-100,4,3,0,75,0,1
134789,-100,4,3,0,90,0,1
136173,-100,4,3,0,75,0,1
144019,-100,4,2,0,100,0,1
144942,-100,4,3,0,75,0,1
145866,-100,4,3,0,75,0,0
147712,-100,4,3,0,80,0,1
164327,-100,4,3,0,60,0,0
179096,-100,4,3,0,40,0,0
179558,-100,4,3,0,55,0,0
180019,-100,4,3,0,70,0,0
180481,-100,4,3,0,85,0,0
180942,-100,4,2,0,60,0,0
188327,-100,4,2,0,70,0,0

[Colours]
Combo1 : 89,255,255
Combo2 : 255,162,255
Combo3 : 30,142,255
Combo4 : 251,13,125

[HitObjects]
219,336,1866,6,0,P|281:320|341:341,1,130,4|2,3:2|0:0,0:0:0:0:
381,371,2558,2,0,B|362:221|362:221|396:247,1,195,0|2,3:0|0:0,0:0:0:0:
489,302,3712,2,0,L|472:173,1,130,4|2,0:0|0:0,0:0:0:0:
436,136,4404,2,0,B|408:102|359:95|315:115|315:115|306:51,1,195,0|2,3:0|0:0,0:0:0:0:
203,42,5558,6,0,L|219:170,1,130,4|2,3:2|0:0,0:0:0:0:
185,210,6250,2,0,B|148:250|164:305|194:325|194:325|273:296,1,195,0|2,3:0|0:0,0:0:0:0:
330,232,7404,2,0,P|391:213|453:231,1,130,4|2,1:2|0:0,0:0:0:0:
494,262,8096,2,0,B|513:112|513:112|478:138,1,195,0|2,3:0|1:2,0:0:0:0:
386,89,9250,6,0,B|359:155|404:210|404:210|386:339,1,260,2|0,0:0|0:0,0:0:0:0:
287,374,10635,1,8,0:0:0:0:
188,341,11096,2,0,L|169:212,1,130,2|8,0:0|0:0,0:0:0:0:
257,155,12019,2,0,L|275:26,1,130,0|10,0:0|0:0,0:0:0:0:
364,79,12942,6,0,B|344:208|344:208|282:251,2,195,2|2|2,0:0|0:0|0:0,0:0:0:0:
463,46,14789,2,0,L|445:175,1,130,8|4,0:3|0:0,0:0:0:0:
476,215,15481,1,8,0:0:0:0:
476,215,15712,2,0,L|463:304,2,65,4|4|4,0:0|0:0|0:1,0:0:0:0:
409,134,16635,6,0,L|345:121,1,65,6|0,0:0|0:0,0:0:0:0:
296,138,17096,2,0,L|232:125,1,65,10|2,0:0|0:0,0:0:0:0:
193,90,17558,2,0,P|205:152|183:213,1,130,4|10,0:3|0:0,0:0:0:0:
86,251,18481,2,0,L|23:238,2,65,4|0|8,0:3|0:0|0:0,0:0:0:0:
113,295,19173,1,2,0:0:0:0:
113,295,19404,2,0,P|172:317|235:305,1,130,4|10,0:3|0:0,0:0:0:0:
308,229,20327,6,0,L|316:164,1,65,4|0,0:3|0:0,0:0:0:0:
324,112,20789,1,8,0:3:0:0:
415,161,21250,1,4,0:3:0:0:
507,114,21712,2,0,L|483:44,1,65,8|0,0:3|0:0,0:0:0:0:
467,3,22173,2,0,P|411:41|332:21,1,130,4|8,0:0|0:0,0:0:0:0:
304,56,22866,1,2,0:0:0:0:
304,56,23096,2,0,P|248:18|169:38,1,130,4|2,0:0|1:3,0:0:0:0:
96,73,24019,6,0,L|82:136,1,65,4|2,1:1|0:2,0:0:0:0:
118,175,24481,2,0,L|104:238,1,65,8|0,0:0|0:0,0:0:0:0:
138,276,24942,2,0,P|200:296|261:277,1,130,4|10,0:0|0:0,0:0:0:0:
322,193,25866,2,0,L|313:128,2,65,4|2|8,0:0|0:2|0:0,0:0:0:0:
359,228,26558,1,2,0:0:0:0:
358,228,26789,2,0,P|412:188|419:123,1,130,4|8,0:0|0:0,0:0:0:0:
346,48,27712,6,0,P|283:33|224:56,1,130,8|8,0:0|0:0,0:0:0:0:
199,102,28404,2,0,P|139:125|77:110,1,130,4|4,0:0|0:0,0:0:0:0:
37,75,29096,1,8,0:0:0:0:
132,23,29558,2,0,P|192:0|254:15,1,130,4|8,0:0|0:0,0:0:0:0:
289,112,30481,1,4,0:0:0:0:
378,60,30942,1,8,0:0:0:0:
413,155,31404,6,0,B|431:183|421:210|405:226|383:237|348:220|348:220|315:262|251:242|240:283|240:283|317:275|349:337,1,390,0|4,1:0|1:3,0:0:0:0:
256,384,33250,6,0,B|176:366|176:366|112:382,1,130,4|2,0:2|3:0,0:0:0:0:
25,382,34173,2,0,B|6:341|6:341|15:239,1,130,2|2,3:0|3:0,0:0:0:0:
79,175,35096,2,0,L|65:78,2,97.5,2|2|2,0:0|0:0|0:0,0:0:0:0:
87,226,36019,1,2,3:0:0:0:
181,187,36481,1,2,0:0:0:0:
182,289,36942,6,0,L|309:312,1,130,2|2,3:0|3:0,0:0:0:0:
376,231,37866,1,2,3:0:0:0:
339,134,38327,1,2,3:0:0:0:
411,59,38789,2,0,P|438:102|442:147,2,97.5,2|2|2,3:3|0:3|0:3,0:0:0:0:
373,23,39712,2,0,P|313:45|250:34,1,130,2|2,0:0|0:0,0:0:0:0:
160,87,40635,6,0,L|176:215,1,130,2|0,3:0|0:0,0:0:0:0:
268,264,41558,2,0,P|300:259|328:244,1,65,2|2,3:0|0:0,0:0:0:0:
360,203,42019,2,0,L|351:333,2,130,2|2|2,0:0|3:0|0:3,0:0:0:0:
429,125,43404,1,2,3:3:0:0:
366,40,43866,2,0,P|334:40|306:55,1,65,2|0,0:0|0:0,0:0:0:0:
275,97,44327,6,0,P|231:75|184:82,2,97.5,2|2|2,0:0|0:0|0:0,0:0:0:0:
312,132,45250,1,2,3:0:0:0:
353,227,45712,1,2,3:0:0:0:
279,300,46173,2,0,P|254:259|250:211,2,97.5,2|0|2,3:2|3:2|3:2,0:0:0:0:
323,329,47096,1,0,1:0:0:0:
424,305,47558,1,4,1:3:0:0:
462,208,48019,6,0,B|448:110|448:110|457:80,1,130,4|8,1:0|0:0,0:0:0:0:
358,48,48942,2,0,B|341:97|341:97|352:174,1,130,4|8,0:0|0:0,0:0:0:0:
323,217,49635,1,0,0:0:0:0:
323,217,49866,2,0,P|263:240|204:217,1,130,4|8,0:0|0:0,0:0:0:0:
170,177,50558,1,0,0:0:0:0:
170,177,50789,2,0,L|189:305,1,130,4|2,0:0|0:2,0:0:0:0:
96,351,51712,6,0,L|76:222,1,130,4|8,0:0|0:0,0:0:0:0:
66,171,52404,1,2,0:0:0:0:
66,171,52635,2,0,P|86:111|143:85,1,130,4|8,0:0|0:0,0:0:0:0:
238,122,53558,1,4,0:0:0:0:
335,85,54019,1,8,0:0:0:0:
431,123,54481,1,0,1:0:0:0:
431,123,54712,1,4,1:2:0:0:
358,260,55404,6,0,P|298:236|234:244,1,130,4|8,1:2|0:0,0:0:0:0:
197,280,56096,1,0,0:0:0:0:
159,316,56327,1,4,0:0:0:0:
56,296,56789,2,0,L|52:223,1,65,8|0,0:0|0:0,0:0:0:0:
50,179,57250,2,0,B|49:136|49:136|72:100|72:100|72:53,1,130,4|8,0:0|0:0,0:0:0:0:
123,41,57942,1,2,0:0:0:0:
123,41,58173,2,0,L|251:57,1,130,4|10,0:0|0:0,0:0:0:0:
341,4,59096,6,0,P|354:67|328:126,1,130,6|8,0:0|0:0,0:0:0:0:
230,156,60019,2,0,P|264:208|332:229,1,130,4|8,0:0|0:0,0:0:0:0:
377,213,60712,1,2,0:2:0:0:
428,198,60942,2,0,L|452:103,2,97.5,4|2|4,0:0|0:2|0:0,0:0:0:0:
374,287,62096,2,0,P|396:329|398:377,2,97.5,4|4|4,2:3|0:0|1:2,0:0:0:0:
319,198,63250,5,10,0:0:0:0:
237,262,63712,2,0,P|188:260|145:237,2,97.5,4|2|2,0:3|0:2|0:2,0:0:0:0:
279,232,64635,1,4,0:0:0:0:
218,147,65096,1,10,0:3:0:0:
115,163,65558,1,6,0:0:0:0:
45,84,66019,2,0,P|69:67|108:58,1,65,8|2,0:0|0:2,0:0:0:0:
156,61,66481,6,0,B|244:67|244:67|296:46,1,130,2|8,1:2|0:0,0:0:0:0:
376,6,67404,1,6,0:3:0:0:
475,24,67866,2,0,P|487:53|486:86,1,65,8|2,3:0|1:2,0:0:0:0:
501,135,68327,2,0,B|520:191|520:191|510:258,2,97.5,6|2|2,0:0|0:2|0:2,0:0:0:0:
450,121,69250,1,4,1:2:0:0:
355,77,69712,1,4,1:2:0:0:
357,182,70173,6,0,P|365:244|322:309,1,130,4|8,1:0|0:0,0:0:0:0:
265,223,71096,1,4,0:0:0:0:
171,268,71558,2,0,L|107:255,1,65,10|2,0:0|0:2,0:0:0:0:
69,220,72019,2,0,L|59:90,1,130,4|8,0:0|0:0,0:0:0:0:
140,25,72942,2,0,L|203:12,1,65,6|2,0:0|0:0,0:0:0:0:
243,45,73404,2,0,L|323:68,1,65,8|2,0:0|0:0,0:0:0:0:
357,51,73866,6,0,P|336:111|357:171,1,130,4|10,0:0|0:0,0:0:0:0:
396,206,74558,1,4,0:2:0:0:
346,297,75019,2,0,L|340:361,2,65,4|8|2,0:2|0:0|0:2,0:0:0:0:
305,264,75712,6,0,L|240:273,1,65,2|2,0:2|0:2,0:0:0:0:
193,250,76173,2,0,L|128:240,1,65,2|2,0:2|0:2,0:0:0:0:
88,207,76635,2,0,B|85:148|85:148|66:114,2,97.5,2|2|2,0:2|0:2|0:2,0:0:0:0:
47,239,77558,1,4,0:0:0:0:
93,331,78019,1,8,0:0:0:0:
197,331,78481,1,4,0:0:0:0:
244,238,78942,1,8,0:0:0:0:
301,323,79404,6,0,P|340:269|340:206,1,130,4|8,1:2|1:3,0:0:0:0:
260,136,80327,2,0,P|197:146|152:191,1,130,4|8,1:3|1:3,0:0:0:0:
244,238,81250,1,4,1:3:0:0:
340,206,81712,1,8,1:3:0:0:
437,240,82173,1,4,1:3:0:0:
475,143,82635,1,8,1:3:0:0:
377,106,83096,6,0,L|370:41,2,65,0|0|0,1:0|1:0|1:0,0:0:0:0:
340,206,84019,2,0,L|346:270,2,65,0|0|0,1:0|1:0|1:0,0:0:0:0:
271,127,84942,2,0,B|217:178|242:245|242:245|178:229|178:229|116:247,1,260,2|0,0:0|1:0,0:0:0:0:
180,329,86327,1,4,0:0:0:0:
284,328,86789,6,0,P|328:283|330:219,1,130,4|8,1:2|0:0,0:0:0:0:
263,140,87712,2,0,B|185:140|218:171|136:168,1,130,4|8,0:0|0:0,0:0:0:0:
86,152,88404,1,0,0:0:0:0:
86,152,88635,2,0,L|23:166,2,65,4|0|8,0:0|0:0|0:0,0:0:0:0:
117,251,89558,1,4,0:0:0:0:
117,251,89789,2,0,L|53:265,2,65,2|8|2,0:2|0:0|0:2,0:0:0:0:
164,272,90481,6,0,P|223:294|283:272,1,130,4|8,0:0|0:0,0:0:0:0:
348,190,91404,2,0,P|376:229|386:276,2,97.5,6|2|2,0:0|0:0|0:0,0:0:0:0:
305,159,92327,2,0,L|315:94,2,65,6|2|8,1:3|1:2|1:3,0:0:0:0:
224,93,93250,2,0,L|212:29,2,65,4|2|8,1:3|0:2|0:3,0:0:0:0:
201,139,93942,1,2,0:2:0:0:
201,139,94173,6,0,P|220:200|201:261,1,130,4|8,0:0|0:0,0:0:0:0:
116,200,95096,2,0,L|104:136,2,65,4|2|8,0:0|0:2|0:0,0:0:0:0:
93,247,95789,1,2,0:2:0:0:
93,247,96019,2,0,L|104:310,1,65,4|2,0:0|0:2,0:0:0:0:
139,350,96481,2,0,P|200:368|261:349,2,130,8|4|8,0:0|0:0|0:0,0:0:0:0:
200,266,97866,6,0,P|261:246|322:265,1,130,4|8,0:0|0:0,0:0:0:0:
384,347,98789,2,0,P|419:293|409:212,1,130,8|8,0:0|0:0,0:0:0:0:
340,158,99712,1,6,0:3:0:0:
256,192,99827,12,4,101558,0:0:0:0:
154,108,116327,6,0,B|90:120|90:120|31:95,1,130,4|8,1:0|0:0,0:0:0:0:
105,20,117250,2,0,B|169:8|169:8|228:33,1,130,4|8,0:0|0:0,0:0:0:0:
245,82,117942,1,0,0:0:0:0:
259,132,118173,1,4,0:0:0:0:
358,160,118635,2,0,L|348:224,1,65,8|0,0:0|0:0,0:0:0:0:
368,272,119096,1,4,0:0:0:0:
389,319,119327,2,0,L|379:383,2,65,2|2|2,0:2|0:2|0:2,0:0:0:0:
421,278,120019,6,0,L|440:149,1,130,4|8,0:0|0:0,0:0:0:0:
419,101,120712,1,2,0:0:0:0:
419,100,120942,2,0,P|358:122|298:101,1,130,4|8,0:0|0:0,0:0:0:0:
246,11,121866,2,0,P|205:60|199:124,1,130,4|8,0:0|0:0,0:0:0:0:
267,202,122789,1,0,1:0:0:0:
267,202,123019,1,4,1:2:0:0:
414,261,123712,6,0,L|288:293,1,130,4|8,1:2|0:0,0:0:0:0:
239,303,124404,1,0,0:0:0:0:
239,303,124635,2,0,P|178:321|118:298,1,130,4|8,0:0|0:0,0:0:0:0:
182,219,125558,2,0,B|176:174|176:174|158:143|158:143|152:94,1,130,4|8,0:0|0:0,0:0:0:0:
186,55,126250,1,2,0:0:0:0:
186,55,126481,2,0,P|247:36|307:56,1,130,4|10,0:0|0:0,0:0:0:0:
411,50,127404,6,0,P|393:116|343:154,1,130,6|8,0:0|0:0,0:0:0:0:
405,238,128327,2,0,P|343:256|283:236,1,130,4|8,0:0|0:0,0:0:0:0:
252,195,129020,1,2,0:2:0:0:
252,195,129250,2,0,P|206:183|146:203,2,97.5,4|2|4,0:0|0:2|0:0,0:0:0:0:
204,287,130404,2,0,P|192:333|212:393,2,97.5,4|4|4,2:3|0:0|1:2,0:0:0:0:
294,336,131558,5,10,0:0:0:0:
385,287,132019,2,0,L|481:300,2,97.5,4|2|2,0:3|0:2|0:2,0:0:0:0:
349,248,132943,1,4,0:0:0:0:
401,158,133404,1,10,0:3:0:0:
309,108,133866,1,6,0:0:0:0:
259,198,134327,2,0,P|232:181|216:154,1,65,8|2,0:0|0:2,0:0:0:0:
204,101,134789,6,0,P|152:60|77:66,1,130,2|0,1:2|0:0,0:0:0:0:
18,135,135712,1,2,1:2:0:0:
119,159,136173,2,0,L|126:223,1,65,8|2,3:0|1:2,0:0:0:0:
169,252,136635,2,0,B|235:245|235:245|283:207,2,97.5,6|2|2,0:0|0:2|0:2,0:0:0:0:
122,276,137558,1,4,1:2:0:0:
45,205,138020,1,4,1:2:0:0:
78,106,138481,6,0,L|207:90,1,130,4|8,1:0|0:0,0:0:0:0:
302,48,139404,1,4,0:0:0:0:
394,94,139866,2,0,L|385:158,1,65,10|2,0:0|0:2,0:0:0:0:
414,202,140327,2,0,P|434:262|410:330,1,130,4|8,0:0|0:0,0:0:0:0:
329,262,141250,2,0,L|264:268,1,65,6|2,0:0|0:0,0:0:0:0:
222,300,141712,2,0,L|157:306,1,65,8|2,0:0|0:0,0:0:0:0:
114,335,142173,6,0,P|92:275|113:214,1,130,4|10,0:0|0:0,0:0:0:0:
156,184,142866,1,4,0:2:0:0:
101,87,143327,2,0,P|70:85|26:104,2,65,4|8|2,0:2|0:0|0:2,0:0:0:0:
149,65,144019,2,0,P|178:53|211:52,1,65,2|2,0:2|0:2,0:0:0:0:
257,76,144481,2,0,P|289:76|319:89,1,65,2|2,0:2|0:2,0:0:0:0:
352,127,144942,2,0,P|350:80|377:40,2,97.5,2|2|2,0:2|0:2|0:2,0:0:0:0:
379,172,145866,5,4,0:0:0:0:
391,275,146327,1,8,0:0:0:0:
474,212,146789,1,4,0:0:0:0:
463,107,147250,2,0,P|417:70|347:69,1,130,8|4,0:0|1:2,0:0:0:0:
275,142,148173,5,10,0:0:0:0:
170,157,148635,2,0,L|74:138,2,97.5,4|2|2,0:3|0:2|0:2,0:0:0:0:
188,205,149558,1,4,0:0:0:0:
275,142,150019,1,10,0:3:0:0:
285,245,150481,1,6,0:0:0:0:
371,186,150942,2,0,L|383:122,1,65,8|2,0:0|0:2,0:0:0:0:
356,77,151404,6,0,P|303:42|239:45,1,130,2|0,1:2|1:0,0:0:0:0:
166,123,152327,1,2,1:2:0:0:
155,226,152789,2,0,P|155:254|173:302,1,65,8|2,3:0|1:2,0:0:0:0:
136,331,153250,2,0,B|41:353,2,97.5,6|2|2,0:0|0:2|0:2,0:0:0:0:
187,337,154173,1,4,1:2:0:0:
264,267,154635,1,4,1:2:0:0:
340,336,155096,6,0,P|365:279|347:208,1,130,4|8,1:0|0:0,0:0:0:0:
266,161,156019,2,0,L|269:94,1,65,4|2,0:0|0:2,0:0:0:0:
264,43,156481,2,0,P|245:16|217:0,1,65,10|2,0:0|0:2,0:0:0:0:
168,16,156942,2,0,L|41:45,1,130,4|8,0:0|0:0,0:0:0:0:
4,142,157865,2,0,L|8:206,1,65,6|2,0:0|0:0,0:0:0:0:
51,236,158327,2,0,L|55:300,1,65,8|2,0:0|0:0,0:0:0:0:
98,330,158789,6,0,P|158:351|218:330,1,130,4|10,0:0|0:0,0:0:0:0:
260,299,159481,1,4,0:2:0:0:
305,199,159942,2,0,L|311:135,2,65,4|8|2,0:2|0:0|0:2,0:0:0:0:
323,247,160635,2,0,P|352:259|384:260,1,65,2|2,0:2|0:2,0:0:0:0:
430,236,161096,2,0,P|442:206|443:174,1,65,2|2,0:2|0:2,0:0:0:0:
440,121,161558,2,0,B|435:81|435:81|451:23,2,97.5,2|2|2,0:2|0:2|0:2,0:0:0:0:
395,148,162481,5,4,0:0:0:0:
305,199,162942,1,8,0:0:0:0:
214,249,163404,1,4,0:0:0:0:
121,200,163865,1,8,0:0:0:0:
214,249,164327,6,0,L|229:312,1,65,6|0,1:2|0:0,0:0:0:0:
275,337,164788,2,0,P|307:334|334:318,1,65,10|2,0:0|0:0,0:0:0:0:
377,287,165250,2,0,P|399:226|387:163,1,130,4|10,0:3|0:0,0:0:0:0:
341,69,166173,2,0,L|354:6,2,65,4|0|8,0:3|0:0|0:0,0:0:0:0:
302,103,166865,1,2,0:0:0:0:
302,103,167096,2,0,P|243:125|180:113,1,130,4|10,0:3|0:0,0:0:0:0:
85,158,168019,6,0,P|76:128|77:95,1,65,4|0,0:3|0:0,0:0:0:0:
100,48,168481,1,8,0:3:0:0:
179,113,168942,1,4,0:3:0:0:
234,24,169404,2,0,L|306:34,1,65,8|0,0:3|0:0,0:0:0:0:
349,40,169865,2,0,P|322:103|349:173,1,130,4|8,0:0|0:0,0:0:0:0:
307,203,170558,1,2,0:0:0:0:
307,203,170789,2,0,P|334:266|307:336,1,130,4|2,0:0|1:3,0:0:0:0:
216,298,171711,6,0,L|210:233,1,65,4|2,1:1|0:2,0:0:0:0:
226,183,172173,2,0,L|220:118,1,65,8|0,0:0|0:0,0:0:0:0:
183,81,172634,2,0,P|122:61|60:79,1,130,4|10,0:0|0:0,0:0:0:0:
39,180,173558,2,0,L|29:244,2,65,4|2|8,0:0|0:2|0:0,0:0:0:0:
87,160,174250,1,2,0:0:0:0:
87,160,174481,2,0,P|126:210|127:274,1,130,4|8,0:0|0:0,0:0:0:0:
215,329,175404,6,0,P|278:314|337:337,1,130,8|8,0:0|0:0,0:0:0:0:
370,376,176096,2,0,P|355:313|378:254,1,130,4|4,0:0|0:0,0:0:0:0:
414,216,176788,1,8,0:0:0:0:
435,114,177250,2,0,P|370:122|318:176,1,130,4|8,0:0|0:0,0:0:0:0:
249,237,178173,1,4,0:0:0:0:
227,135,178634,1,8,0:0:0:0:
154,209,179096,6,0,B|145:269|168:308|196:325|196:325|204:360|158:387|158:387|119:365|95:322|86:289|86:289|29:290,1,390,0|4,1:0|1:2,0:0:0:0:
55,188,180942,6,0,P|87:132|167:108,1,130,4|2,0:0|0:0,0:0:0:0:
169,60,181635,2,0,P|229:80|290:59,1,130,2|0,0:0|0:0,0:0:0:0:
324,20,182327,1,2,0:0:0:0:
425,0,182789,2,0,P|418:63|375:110,1,130,6|2,1:2|0:0,0:0:0:0:
326,127,183481,2,0,B|324:202|324:202|350:217|353:246,1,130,2|2,0:0|0:0,0:0:0:0:
353,297,184173,1,2,0:0:0:0:
258,340,184635,6,0,B|211:350|175:323|175:323|157:342|131:343,1,130,0|2,1:0|0:0,0:0:0:0:
86,335,185327,2,0,P|55:289|88:213,1,130,2|0,0:0|0:0,0:0:0:0:
111,184,186019,1,2,0:0:0:0:
201,234,186480,2,0,P|262:253|324:235,1,130,2|2,1:2|0:0,0:0:0:0:
359,197,187173,2,0,L|350:327,1,130,2|2,0:3|0:0,0:0:0:0:
346,378,187866,1,2,1:2:0:0:
256,319,188327,6,0,B|228:294|166:304|166:304|111:345|111:345|54:366|18:336,1,260,2|0,1:2|1:0,0:0:0:0:
72,250,189712,1,2,1:2:0:0:
55,147,190173,2,0,L|34:11,1,130,0|0,1:2|1:0,0:0:0:0:
131,57,191096,2,0,L|259:106,1,130,2|0,1:2|1:0,0:0:0:0:
356,105,192019,6,0,B|350:179|283:202|283:202|297:235|280:272,2,195,2|2|2,1:2|1:2|1:2,0:0:0:0:
301,15,193866,2,0,P|228:5|165:49,1,130,8|4,0:3|0:3,0:0:0:0:
135,57,194558,2,0,P|160:99|159:147,1,97.5,6|4,0:2|0:1,0:0:0:0:
