osu file format v14

[General]
AudioFilename: audio.mp3
AudioLeadIn: 0
PreviewTime: 62673
Countdown: 0
SampleSet: None
StackLeniency: 0.7
Mode: 0
LetterboxInBreaks: 0
WidescreenStoryboard: 0

[Editor]
Bookmarks: 63366
DistanceSpacing: 1.1
BeatDivisor: 4
GridSize: 4
TimelineZoom: 1.8

[Metadata]
Title:Candy Luv
TitleUnicode:Candy Luv
Artist:IAHN
ArtistUnicode:IAHN
Creator:Monstrata
Version:Hard
Source:
Tags:rizen love a_q_p_w osu monthly beatmap mapping contest 12 twelve
BeatmapID:1046488
BeatmapSetID:491033

[Difficulty]
HPDrainRate:4
CircleSize:4
OverallDifficulty:6
ApproachRate:7.6
SliderMultiplier:1.76
SliderTickRate:2

[Events]
//Background and Video events
0,0,"Konachan.com - 201213 sample.jpg",0,0
//Break Periods
2,101758,115517
//Storyboard Layer 0 (Background)
//Storyboard Layer 1 (Fail)
//Storyboard Layer 2 (Pass)
//Storyboard Layer 3 (Foreground)
//Storyboard Sound Samples

[TimingPoints]
1866,461.538461538462,4,2,0,75,1,0
1866,-166.666666666667,4,2,0,75,0,0
2558,-166.666666666667,4,2,0,60,0,0
3712,-166.666666666667,4,2,0,75,0,0
4404,-166.666666666667,4,2,0,60,0,0
5558,-166.666666666667,4,2,0,75,0,0
6250,-166.666666666667,4,2,0,60,0,0
7404,-166.666666666667,4,2,0,55,0,0
7866,-166.666666666667,4,2,0,60,0,0
9250,-142.857142857143,4,2,0,50,0,0
12942,-133.333333333333,4,2,0,55,0,0
13866,-133.333333333333,4,2,0,30,0,0
14096,-133.333333333333,4,2,0,40,0,0
14327,-133.333333333333,4,2,0,50,0,0
14558,-133.333333333333,4,2,0,60,0,0
14789,-125,4,3,0,50,0,0
16635,-111.111111111111,4,3,0,60,0,0
30019,-111.111111111111,4,3,0,58,0,0
30481,-111.111111111111,4,3,0,56,0,0
30827,-111.111111111111,4,3,0,54,0,0
31404,-142.857142857143,4,3,0,40,0,0
31866,-142.857142857143,4,3,0,55,0,0
32327,-142.857142857143,4,3,0,70,0,0
33019,-142.857142857143,4,3,0,35,0,0
33250,-142.857142857143,4,2,0,65,0,0
39712,-142.857142857143,4,2,0,75,0,0
40635,-142.857142857143,4,2,0,65,0,0
48019,-125,4,3,0,70,0,0
54712,-142.857142857143,4,2,0,50,0,0
55404,-125,4,3,0,70,0,0
62442,-125,4,3,0,50,0,0
62789,-111.111111111111,4,3,0,75,0,1
66481,-111.111111111111,4,3,0,90,0,1
67866,-111.111111111111,4,3,0,75,0,1
77558,-133.333333333333,4,3,0,50,0,0
81250,-117.647058823529,4,3,0,60,0,0
82173,-117.647058823529,4,2,0,60,0,0
83096,-117.647058823529,4,3,0,70,0,0
83558,-117.647058823529,4,3,0,80,0,0
84019,-117.647058823529,4,3,0,90,0,0
84481,-117.647058823529,4,3,0,100,0,0
84942,-133.333333333333,4,3,0,100,0,0
86327,-111.111111111111,4,3,0,35,0,0
86789,-111.111111111111,4,3,0,70,0,0
100981,-111.111111111111,4,1,0,35,0,0
101096,-111.111111111111,4,1,0,30,0,0
101212,-111.111111111111,4,1,0,25,0,0
101327,-111.111111111111,4,1,0,20,0,0
101442,-111.111111111111,4,1,0,15,0,0
101558,-111.111111111111,4,1,0,50,0,0
116327,-125,4,3,0,70,0,0
131096,-108.108108108108,4,3,0,75,0,1
134789,-108.108108108108,4,3,0,90,0,1
136173,-108.108108108108,4,3,0,75,0,1
144019,-108.108108108108,4,2,0,100,0,1
144942,-108.108108108108,4,3,0,75,0,1
145866,-108.108108108108,4,3,0,75,0,0
147712,-100,4,3,0,80,0,1
164327,-111.111111111111,4,3,0,60,0,0
179096,-111.111111111111,4,3,0,40,0,0
179558,-111.111111111111,4,3,0,55,0,0
180019,-111.111111111111,4,3,0,70,0,0
180481,-111.111111111111,4,3,0,85,0,0
180942,-142.857142857143,4,2,0,60,0,0
188327,-142.857142857143,4,2,0,70,0,0

[Colours]
Combo1 : 89,255,255
Combo2 : 255,162,255
Combo3 : 30,142,255
Combo4 : 251,13,125

[HitObjects]
29,231,1866,6,0,L|138:220,1,105.599996777344,4|2,3:2|0:0,0:0:0:0:
165,130,2558,2,0,L|59:140,1,105.599996777344,0|0,3:0|0:0,0:0:0:0:
89,49,3250,2,0,L|162:42,1,52.7999983886719,0|2,0:0|0:0,0:0:0:0:
252,124,3712,6,0,P|303:137|352:121,1,105.599996777344,4|2,0:0|0:0,0:0:0:0:
440,85,4404,2,0,P|427:136|443:185,1,105.599996777344,0|0,3:0|0:0,0:0:0:0:
473,275,5096,2,0,P|442:270|402:276,1,52.7999983886719,0|2,0:0|0:0,0:0:0:0:
307,348,5558,6,0,B|256:366|256:366|207:349,1,105.599996777344,4|2,3:2|0:0,0:0:0:0:
157,279,6250,2,0,B|206:296|206:296|257:278,1,105.599996777344,0|0,3:0|0:0,0:0:0:0:
255,190,6942,2,0,B|206:207,1,52.7999983886719,0|2,0:0|0:0,0:0:0:0:
256,103,7404,6,0,P|307:120|340:172,1,105.599996777344,4|2,1:2|0:0,0:0:0:0:
321,248,8096,2,0,P|367:242|415:202,1,105.599996777344,0|0,3:0|0:0,0:0:0:0:
492,154,8789,2,0,L|493:222,1,52.7999983886719,0|2,1:0|0:0,0:0:0:0:
479,357,9250,6,0,B|441:374|404:357|404:357|350:358,1,123.199996240234,2|8,0:0|0:0,0:0:0:0:
302,278,9942,2,0,P|271:314|261:364,2,92.3999971801759,0|0|8,0:0|0:0|0:0,0:0:0:0:
400,270,10866,1,0,0:0:0:0:
344,190,11096,6,0,B|346:98|346:98|380:122,1,123.199996240234,2|8,0:0|0:0,0:0:0:0:
381,24,11789,2,0,P|322:17|276:56,1,123.199996240234,0|0,0:0|0:0,0:0:0:0:
178,52,12481,2,0,P|194:77|200:108,1,61.5999981201172,10|2,0:0|0:0,0:0:0:0:
133,190,12942,6,0,L|58:181,2,66.0000025177003,0|0|8,0:0|0:0|0:0,0:0:0:0:
227,238,13635,2,0,L|302:229,2,66.0000025177003,0|2|2,0:0|0:0|0:0,0:0:0:0:
133,286,14327,1,2,0:0:0:0:
227,334,14558,1,2,0:0:0:0:
133,382,14789,6,0,L|70:374,3,35.2,8|0|4|0,0:3|0:0|0:0|0:0,0:0:0:0:
71,340,15250,2,0,L|36:344,3,35.2,4|2|8|0,0:0|0:0|0:0|0:0,0:0:0:0:
4,302,15712,5,4,0:0:0:0:
5,293,15827,1,0,0:0:0:0:
6,284,15942,1,4,0:0:0:0:
7,275,16058,1,4,0:0:0:0:
8,267,16173,1,4,0:1:0:0:
183,158,16635,6,0,P|222:192|260:196,1,79.1999975830079,6|0,0:0|0:0,0:0:0:0:
252,118,17096,2,0,P|291:84|329:80,1,79.1999975830079,10|2,0:0|0:0,0:0:0:0:
374,4,17558,2,0,P|351:78|370:154,1,158.399995166016,4|10,0:3|0:0,0:0:0:0:
418,217,18250,1,2,0:0:0:0:
296,186,18481,6,0,L|200:217,1,79.1999975830079,4|0,0:3|0:0,0:0:0:0:
174,274,18942,2,0,L|270:305,1,79.1999975830079,8|2,0:0|0:0,0:0:0:0:
332,345,19404,2,0,P|255:331|190:372,1,158.399995166016,4|10,0:3|0:0,0:0:0:0:
112,358,20096,1,2,0:0:0:0:
32,343,20327,6,0,P|48:306|80:284,1,79.1999975830079,4|0,0:3|0:0,0:0:0:0:
102,207,20789,2,0,P|137:223|176:221,1,79.1999975830079,8|0,0:3|0:0,0:0:0:0:
254,162,21250,2,0,L|252:242,1,79.1999975830079,4|0,0:3|0:0,0:0:0:0:
328,324,21712,1,8,0:3:0:0:
331,245,21942,1,0,0:0:0:0:
249,320,22173,6,0,P|211:310|185:281,1,79.1999975830079,4|0,0:0|0:0,0:0:0:0:
102,207,22635,1,8,0:0:0:0:
180,202,22866,1,2,0:0:0:0:
106,285,23096,2,0,L|12:290,2,79.1999975830079,4|2|2,0:0|1:3|1:3,0:0:0:0:
169,333,23789,1,2,0:2:0:0:
252,242,24019,6,0,P|299:261|326:315,1,79.1999975830079,4|2,1:1|0:2,0:0:0:0:
312,360,24481,2,0,P|351:352|381:327,1,79.1999975830079,8|0,0:0|0:0,0:0:0:0:
249,320,24942,2,0,B|199:322|199:322|138:345|138:345|82:345,1,158.399995166016,4|10,0:0|0:0,0:0:0:0:
20,317,25635,1,2,0:0:0:0:
83,267,25866,6,0,B|122:267|122:267|177:246,1,79.1999975830079,4|2,0:0|0:2,0:0:0:0:
187,175,26327,2,0,B|147:175|147:175|110:189,1,79.1999975830079,8|2,0:0|0:0,0:0:0:0:
239,234,26789,2,0,P|264:184|212:100,1,158.399995166016,4|8,0:0|0:0,0:0:0:0:
187,175,27481,1,0,0:0:0:0:
337,155,27712,6,0,L|424:143,1,79.1999975830079,8|0,0:0|0:0,0:0:0:0:
493,133,28173,1,8,0:0:0:0:
426,222,28404,2,0,L|414:135,1,79.1999975830079,4|0,0:0|0:0,0:0:0:0:
404,66,28865,1,4,0:0:0:0:
337,155,29096,2,0,L|250:167,1,79.1999975830079,8|2,0:0|0:0,0:0:0:0:
147,106,29558,6,0,P|154:143|187:177,1,79.1999975830079,4|0,0:0|0:0,0:0:0:0:
120,225,30019,2,0,P|153:245|216:243,1,79.1999975830079,8|0,0:0|0:0,0:0:0:0:
271,243,30481,2,0,L|247:357,1,79.1999975830079,4|0,0:0|0:0,0:0:0:0:
326,354,30942,2,0,L|341:275,1,79.1999975830079,8|0,0:0|0:0,0:0:0:0:
256,192,31404,12,4,32789,0:2:0:0:
256,192,33250,6,0,L|177:199,1,61.5999981201172,4|2,0:2|0:0,0:0:0:0:
121,244,33712,2,0,L|114:165,1,61.5999981201172,2|0,3:0|0:0,0:0:0:0:
69,109,34173,2,0,L|148:102,1,61.5999981201172,2|2,3:0|0:0,0:0:0:0:
204,57,34635,2,0,L|211:136,1,61.5999981201172,2|0,3:0|0:0,0:0:0:0:
256,191,35096,6,0,P|294:167|341:168,2,92.3999971801759,2|2|2,0:0|0:3|0:3,0:0:0:0:
318,251,36019,2,0,P|358:252|395:234,1,61.5999981201172,2|2,3:0|0:0,0:0:0:0:
428,174,36481,2,0,P|449:197|461:225,1,61.5999981201172,2|0,0:0|0:0,0:0:0:0:
433,307,36942,6,0,B|396:330|396:330|302:330,1,123.199996240234,2|2,3:0|3:0,0:0:0:0:
256,266,37635,1,2,0:0:0:0:
195,330,37866,1,2,3:0:0:0:
192,205,38096,1,6,0:0:0:0:
130,269,38327,2,0,L|51:269,1,61.5999981201172,2|0,3:0|0:0,0:0:0:0:
25,159,38789,6,0,P|62:184|108:186,2,92.3999971801759,2|2|2,3:3|0:3|0:3,0:0:0:0:
78,41,39712,2,0,L|90:102,1,61.5999981201172,2|0,0:0|0:0,0:0:0:0:
178,70,40173,2,0,L|166:130,1,61.5999981201172,2|0,0:0|0:0,0:0:0:0:
252,12,40635,6,0,L|269:105,2,92.3999971801759,2|2|2,3:0|0:3|0:3,0:0:0:0:
334,39,41558,2,0,P|364:47|395:44,1,61.5999981201172,0|2,3:0|0:0,0:0:0:0:
479,45,42019,2,0,L|423:145,1,92.3999971801759,2|2,0:0|0:0,0:0:0:0:
392,140,42481,6,0,L|410:225,1,61.5999981201172,2|0,3:0|0:0,0:0:0:0:
425,284,42942,2,0,B|357:278|374:317|307:313,1,123.199996240234,2|2,0:3|3:3,0:0:0:0:
227,282,43635,1,0,0:0:0:0:
245,197,43866,2,0,L|259:125,1,61.5999981201172,2|0,0:0|0:0,0:0:0:0:
276,51,44327,6,0,P|317:73|341:115,2,92.3999971801759,2|2|2,0:0|0:0|0:0,0:0:0:0:
195,80,45250,1,2,3:0:0:0:
129,22,45481,1,2,0:0:0:0:
137,146,45712,2,0,P|177:166|223:163,1,92.3999971801759,2|0,3:0|0:0,0:0:0:0:
263,146,46173,6,0,L|257:265,2,92.3999971801759,10|8|10,3:2|3:2|3:2,0:0:0:0:
195,80,47096,1,0,1:0:0:0:
399,47,47558,1,4,1:3:0:0:
195,80,48019,6,0,L|56:60,1,140.8,4|8,1:0|0:0,0:0:0:0:
65,137,48712,1,0,0:0:0:0:
74,214,48942,2,0,P|119:193|138:164,1,70.4,4|0,0:0|0:0,0:0:0:0:
195,80,49404,1,8,0:0:0:0:
207,156,49635,1,0,0:0:0:0:
271,68,49866,6,0,P|332:84|357:165,1,140.8,4|8,0:0|0:0,0:0:0:0:
275,220,50558,1,0,0:0:0:0:
283,144,50789,1,4,0:0:0:0:
351,228,51019,2,0,P|385:224|415:206,2,70.4,2|2|2,0:2|0:2|0:2,0:0:0:0:
213,175,51712,6,0,P|209:261|273:297,1,140.8,4|8,0:0|0:0,0:0:0:0:
275,220,52404,1,2,0:0:0:0:
221,99,52635,2,0,B|181:100|181:100|162:124|124:138|82:119,1,140.8,4|8,0:0|0:0,0:0:0:0:
122,54,53327,1,2,0:0:0:0:
213,175,53558,6,0,P|247:170|285:142,1,70.4,4|0,0:0|0:0,0:0:0:0:
353,107,54019,2,0,L|347:177,1,70.4,8|0,0:0|0:0,0:0:0:0:
287,74,54481,1,0,1:0:0:0:
427,87,54712,2,0,L|414:237,1,123.199996240234,4|0,1:2|0:0,0:0:0:0:
503,294,55404,6,0,P|481:230|417:209,1,140.8,4|8,1:2|0:0,0:0:0:0:
354,256,56096,1,0,0:0:0:0:
455,353,56327,2,0,P|487:368|522:366,1,70.4,4|0,0:0|0:0,0:0:0:0:
427,285,56789,2,0,L|365:340,1,70.4,8|0,0:0|0:0,0:0:0:0:
259,292,57250,6,0,P|323:282|377:346,1,140.8,4|8,0:0|0:0,0:0:0:0:
301,357,57942,1,2,0:0:0:0:
350,207,58173,2,0,L|448:195,2,70.4,4|0|10,0:0|0:0|0:0,0:0:0:0:
278,175,58866,1,2,0:0:0:0:
186,260,59096,6,0,L|51:276,2,105.6,6|2|2,0:0|0:2|0:2,0:0:0:0:
258,292,60019,2,0,P|292:275|350:286,1,70.4,4|0,0:0|0:0,0:0:0:0:
376,217,60481,2,0,P|410:234|468:223,1,70.4,8|2,0:0|0:2,0:0:0:0:
512,196,60942,6,0,P|477:159|425:153,2,105.6,4|2|4,0:0|0:2|0:0,0:0:0:0:
508,280,61866,1,8,1:3:0:0:
508,280,61981,1,0,1:0:0:0:
508,280,62096,1,4,2:3:0:0:
449,330,62327,2,0,L|400:335,1,35.2,8|4,0:0|0:0,0:0:0:0:
367,271,62558,2,0,L|318:266,1,35.2,4|4,0:0|0:0,0:0:0:0:
285,330,62789,6,0,L|195:339,1,79.1999975830079,4|0,1:2|0:0,0:0:0:0:
106,282,63250,2,0,P|163:271|190:245,1,79.1999975830079,10|0,0:0|0:0,0:0:0:0:
119,197,63712,2,0,B|76:197|76:197|42:209|42:209|-11:209,2,118.799996374512,4|2|2,0:3|0:2|0:2,0:0:0:0:
180,133,64635,6,0,L|271:133,1,79.1999975830079,4|0,0:0|0:0,0:0:0:0:
331,55,65096,2,0,P|324:93|337:130,1,79.1999975830079,10|0,0:3|0:0,0:0:0:0:
421,173,65558,2,0,P|384:185|360:216,1,79.1999975830079,6|0,0:0|0:0,0:0:0:0:
348,351,66019,1,8,0:0:0:0:
315,281,66250,1,2,0:2:0:0:
229,350,66481,6,0,L|110:349,2,118.799996374512,2|2|0,1:2|0:2|0:0,0:0:0:0:
213,272,67404,2,0,L|116:271,1,79.1999975830079,2|0,1:2|0:0,0:0:0:0:
174,195,67866,1,8,3:0:0:0:
260,199,68096,1,2,1:2:0:0:
135,117,68327,6,0,P|95:160|92:218,2,118.799996374512,6|2|2,0:0|0:2|0:2,0:0:0:0:
260,199,69250,2,0,L|342:177,1,79.1999975830079,4|2,1:2|0:0,0:0:0:0:
428,135,69712,2,0,L|408:212,1,79.1999975830079,4|2,1:2|0:0,0:0:0:0:
398,312,70173,6,0,L|341:256,1,79.1999975830079,4|0,1:0|0:0,0:0:0:0:
295,320,70635,2,0,L|218:340,1,79.1999975830079,8|0,0:0|0:0,0:0:0:0:
157,286,71096,2,0,P|138:320|138:359,2,79.1999975830079,4|2|10,0:0|0:2|0:0,0:0:0:0:
233,263,71789,1,2,0:2:0:0:
309,240,72019,6,0,B|338:207|326:164|326:164|288:117,2,118.799996374512,4|0|2,0:0|0:2|0:0,0:0:0:0:
218,340,72942,1,6,0:0:0:0:
233,263,73173,1,2,0:0:0:0:
295,354,73404,1,8,0:0:0:0:
309,276,73635,1,2,0:0:0:0:
371,367,73866,6,0,P|448:356|480:316,2,118.799996374512,4|2|4,0:0|0:0|0:2,0:0:0:0:
233,263,75019,2,0,L|149:272,2,79.1999975830079,4|8|2,0:2|0:0|0:2,0:0:0:0:
285,203,75712,5,2,0:2:0:0:
298,123,75942,1,2,0:2:0:0:
205,190,76173,1,2,0:2:0:0:
285,203,76404,1,2,0:2:0:0:
218,110,76635,2,0,P|241:64|316:42,2,118.799996374512,2|2|2,0:2|0:2|0:2,0:0:0:0:
360,174,77558,6,0,L|435:160,1,66.0000025177003,4|0,0:0|0:0,0:0:0:0:
471,253,78019,2,0,L|407:241,1,66.0000025177003,8|0,0:0|0:0,0:0:0:0:
287,305,78481,2,0,L|362:291,1,66.0000025177003,4|0,0:0|0:0,0:0:0:0:
398,384,78942,2,0,L|333:371,1,66.0000025177003,8|0,0:0|0:0,0:0:0:0:
211,322,79404,6,0,L|146:334,1,66.0000025177003,4|0,1:2|0:0,0:0:0:0:
68,372,79866,2,0,L|55:307,1,66.0000025177003,8|0,1:3|0:0,0:0:0:0:
18,229,80327,2,0,L|82:216,1,66.0000025177003,4|0,1:3|0:0,0:0:0:0:
161,179,80789,2,0,L|173:243,1,66.0000025177003,8|0,1:3|0:0,0:0:0:0:
214,328,81250,6,0,L|134:336,1,74.8000014266968,4|0,1:3|0:0,0:0:0:0:
60,375,81712,2,0,L|52:295,1,74.8000014266968,8|0,1:3|0:0,0:0:0:0:
13,221,82173,2,0,L|93:213,1,74.8000014266968,4|0,1:3|0:0,0:0:0:0:
167,174,82635,2,0,L|175:254,1,74.8000014266968,8|0,1:3|0:0,0:0:0:0:
218,338,83096,5,0,1:0:0:0:
218,338,83327,1,0,1:0:0:0:
273,255,83558,1,0,1:0:0:0:
273,255,83789,1,0,1:0:0:0:
356,310,84019,1,0,1:0:0:0:
356,310,84250,1,0,1:0:0:0:
411,227,84481,1,0,1:0:0:0:
411,227,84712,1,0,1:0:0:0:
328,172,84942,6,0,L|334:118,3,33.0000012588501,2|2|0|2,0:0|0:0|0:0|0:0,0:0:0:0:
258,82,85404,2,0,L|264:136,3,33.0000012588501,2|0|2|2,0:0|0:0|0:0|0:0,0:0:0:0:
342,64,85866,1,2,0:0:0:0:
426,46,86096,1,0,0:0:0:0:
430,50,86212,1,0,0:0:0:0:
434,54,86327,2,0,P|484:100|469:170,1,118.799996374512,4|0,0:0|0:0,0:0:0:0:
441,176,86789,6,0,L|446:255,1,79.1999975830079,4|0,1:2|0:0,0:0:0:0:
372,284,87250,2,0,L|367:205,1,79.1999975830079,8|0,0:0|0:0,0:0:0:0:
287,152,87712,1,4,0:0:0:0:
292,233,87942,2,0,L|297:312,1,79.1999975830079,2|8,0:2|0:0,0:0:0:0:
222,340,88404,1,0,0:0:0:0:
217,260,88635,6,0,L|212:181,1,79.1999975830079,4|0,0:0|0:0,0:0:0:0:
138,114,89096,2,0,P|207:144|272:104,1,158.399995166016,8|4,0:0|0:0,0:0:0:0:
316,37,89789,2,0,P|354:27|411:47,2,79.1999975830079,2|8|2,0:2|0:0|0:2,0:0:0:0:
356,105,90481,6,0,B|403:186,1,79.1999975830079,4|0,0:0|0:0,0:0:0:0:
483,190,90942,2,0,P|456:220|444:273,1,79.1999975830079,8|0,0:0|0:0,0:0:0:0:
382,306,91404,2,0,P|435:334|507:307,2,118.799996374512,6|2|2,0:0|0:2|0:0,0:0:0:0:
329,246,92327,6,0,P|279:255|250:245,2,79.1999975830079,6|2|8,1:3|1:2|1:3,0:0:0:0:
371,176,93019,1,2,0:2:0:0:
290,174,93250,2,0,P|257:135|251:105,2,79.1999975830079,4|2|8,1:3|0:2|0:3,0:0:0:0:
371,176,93942,1,2,0:2:0:0:
333,105,94173,6,0,P|350:57|373:37,1,79.1999975830079,4|0,0:0|0:0,0:0:0:0:
414,107,94635,2,0,L|512:110,1,79.1999975830079,8|0,0:0|0:0,0:0:0:0:
482,188,95096,1,4,0:0:0:0:
470,266,95327,2,0,P|481:317|506:347,2,79.1999975830079,2|8|2,0:2|0:0|0:2,0:0:0:0:
404,176,96019,5,4,0:0:0:0:
392,254,96250,1,2,0:2:0:0:
325,164,96481,2,0,P|339:127|370:102,1,79.1999975830079,8|0,0:0|0:0,0:0:0:0:
416,22,96942,2,0,P|377:28|340:13,1,79.1999975830079,4|0,0:0|0:0,0:0:0:0:
248,15,97404,2,0,P|272:45|278:84,1,79.1999975830079,8|0,0:0|0:0,0:0:0:0:
185,156,97866,6,0,L|199:78,1,79.1999975830079,4|0,0:0|0:0,0:0:0:0:
102,127,98327,2,0,L|115:205,1,79.1999975830079,8|0,0:0|0:0,0:0:0:0:
128,281,98789,2,0,P|71:269|40:220,2,118.799996374512,8|2|10,0:0|0:2|0:0,0:0:0:0:
185,155,99712,6,0,P|256:127|328:156,1,158.399995166016,6|8,0:3|0:0,0:0:0:0:
323,235,100404,1,2,0:0:0:0:
316,313,100635,2,0,P|363:302|394:201,2,158.399995166016,8|0|4,0:0|0:0|0:0,0:0:0:0:
73,203,116327,6,0,L|233:219,1,140.8,4|8,1:0|0:0,0:0:0:0:
290,226,117019,1,0,0:0:0:0:
221,140,117250,2,0,P|245:91|336:81,1,140.8,4|8,0:0|0:0,0:0:0:0:
299,149,117942,1,0,0:0:0:0:
367,235,118173,6,0,L|464:244,1,70.4,4|0,0:0|0:0,0:0:0:0:
376,158,118635,1,8,0:0:0:0:
290,226,118866,1,0,0:0:0:0:
221,140,119096,2,0,P|253:83|284:72,2,70.4,4|2|2,0:0|0:2|0:2,0:0:0:0:
299,149,119789,1,2,0:2:0:0:
346,87,120019,6,0,P|391:81|435:113,1,70.4,4|0,0:0|0:0,0:0:0:0:
460,152,120481,2,0,P|449:185|456:219,1,70.4,8|2,0:0|0:0,0:0:0:0:
401,273,120942,2,0,P|367:262|333:269,1,70.4,4|0,0:0|0:0,0:0:0:0:
257,253,121404,2,0,L|266:353,1,70.4,8|2,0:0|0:0,0:0:0:0:
180,360,121866,6,0,L|186:289,1,70.4,4|0,0:0|0:0,0:0:0:0:
186,211,122327,2,0,P|151:217|124:239,1,70.4,8|0,0:0|0:0,0:0:0:0:
257,253,122789,1,0,1:0:0:0:
257,131,123019,2,0,B|326:103|326:154|398:122,1,140.8,4|0,1:2|0:0,0:0:0:0:
437,54,123712,6,0,L|432:194,1,140.8,4|8,1:2|0:0,0:0:0:0:
429,272,124404,1,0,0:0:0:0:
355,192,124635,2,0,L|214:187,1,140.8,4|8,0:0|0:0,0:0:0:0:
137,184,125327,1,0,0:0:0:0:
215,110,125558,6,0,L|217:25,2,70.4,4|0|8,0:0|0:0|0:0,0:0:0:0:
263,178,126250,2,0,L|265:262,2,70.4,2|4|0,0:0|0:0|0:0,0:0:0:0:
338,140,126942,1,10,0:0:0:0:
376,215,127173,1,2,0:0:0:0:
413,102,127404,6,0,P|374:63|299:67,2,105.6,6|2|2,0:0|0:2|0:2,0:0:0:0:
451,177,128327,2,0,B|428:214|428:214|438:323,1,140.8,4|8,0:0|0:0,0:0:0:0:
381,374,129019,1,2,0:2:0:0:
281,315,129250,6,0,P|228:346|182:339,2,105.6,4|2|4,0:0|0:2|0:0,0:0:0:0:
218,264,130173,1,8,1:3:0:0:
218,264,130289,1,0,1:0:0:0:
218,264,130404,1,4,2:3:0:0:
237,181,130635,2,0,L|250:125,1,35.2,8|4,0:0|0:0,0:0:0:0:
184,88,130866,2,0,L|171:32,1,35.2,4|4,0:0|0:0,0:0:0:0:
240,1,131096,6,0,P|288:-6|336:26,1,81.3999996894837,4|0,1:2|0:0,0:0:0:0:
391,82,131558,2,0,P|351:74|314:88,1,81.3999996894837,10|0,0:0|0:0,0:0:0:0:
252,191,132019,2,0,P|312:195|358:157,2,122.099999534225,4|2|2,0:3|0:2|0:2,0:0:0:0:
182,149,132942,6,0,L|166:248,1,81.3999996894837,4|0,0:0|0:0,0:0:0:0:
78,318,133404,2,0,P|115:302|155:309,1,81.3999996894837,10|0,0:3|0:0,0:0:0:0:
231,279,133866,2,0,P|267:294|307:288,1,81.3999996894837,6|0,0:0|0:0,0:0:0:0:
327,147,134327,1,8,0:0:0:0:
279,213,134558,1,2,0:2:0:0:
294,72,134789,6,0,P|353:69|398:107,2,122.099999534225,2|2|0,1:2|0:2|0:0,0:0:0:0:
220,37,135712,2,0,P|215:93|227:119,1,81.3999996894837,2|0,1:2|0:0,0:0:0:0:
279,213,136173,1,8,3:0:0:0:
200,192,136404,1,2,1:2:0:0:
140,287,136635,6,0,B|61:305|61:305|12:288,2,122.099999534225,6|2|2,0:0|0:2|0:2,0:0:0:0:
200,192,137558,1,4,1:2:0:0:
122,210,137789,1,2,0:0:0:0:
218,270,138019,1,4,1:2:0:0:
200,192,138250,1,2,0:0:0:0:
193,346,138481,6,0,P|255:340|289:310,1,81.3999996894837,4|0,1:0|0:0,0:0:0:0:
301,255,138942,2,0,P|337:271|377:270,1,81.3999996894837,8|0,0:0|0:0,0:0:0:0:
430,176,139404,2,0,P|394:193|354:192,2,81.3999996894837,4|2|10,0:0|0:2|0:0,0:0:0:0:
459,99,140096,1,2,0:2:0:0:
405,35,140327,6,0,P|467:17|524:45,2,122.099999534225,4|0|2,0:0|0:2|0:0,0:0:0:0:
430,176,141250,1,6,0:0:0:0:
459,99,141481,1,2,0:0:0:0:
459,254,141712,1,8,0:0:0:0:
430,176,141943,1,2,0:0:0:0:
430,332,142173,6,0,P|487:332|536:283,2,122.099999534225,4|2|4,0:0|1:3|0:2,0:0:0:0:
260,227,143327,2,0,L|150:235,2,81.3999996894837,4|8|2,0:2|0:0|0:2,0:0:0:0:
291,97,144019,5,2,0:2:0:0:
228,151,144250,1,2,0:2:0:0:
342,221,144481,1,2,0:2:0:0:
361,141,144712,1,2,0:2:0:0:
260,227,144942,2,0,P|284:278|366:302,2,122.099999534225,2|2|2,0:2|0:2|0:2,0:0:0:0:
291,97,145866,6,0,L|316:-20,1,81.3999996894837,4|0,0:0|0:0,0:0:0:0:
210,111,146327,2,0,L|228:32,1,81.3999996894837,8|0,0:0|0:0,0:0:0:0:
129,125,146789,2,0,L|146:45,1,81.3999996894837,4|0,0:0|0:0,0:0:0:0:
48,139,147250,2,0,L|65:59,1,81.3999996894837,8|0,0:0|0:0,0:0:0:0:
100,202,147712,6,0,P|137:207|199:168,1,88,4|0,1:2|0:0,0:0:0:0:
255,106,148173,2,0,P|251:149|270:189,1,88,10|0,0:0|0:0,0:0:0:0:
383,197,148635,2,0,P|412:128|370:61,2,132,4|2|2,0:3|0:2|0:2,0:0:0:0:
322,260,149558,6,0,L|311:360,1,88,4|0,0:0|0:0,0:0:0:0:
234,250,150019,2,0,L|147:240,1,88,10|0,0:3|0:0,0:0:0:0:
101,164,150481,2,0,L|188:154,1,88,6|0,0:0|0:0,0:0:0:0:
265,54,150942,2,0,L|275:142,1,88,8|2,0:0|0:2,0:0:0:0:
355,86,151404,6,0,P|418:74|473:108,2,132,2|2|0,1:2|0:2|0:0,0:0:0:0:
361,236,152327,2,0,P|409:245|457:226,1,88,2|0,1:2|0:0,0:0:0:0:
401,158,152789,2,0,L|291:163,1,88,8|2,3:0|1:2,0:0:0:0:
248,104,153250,6,0,P|268:165|249:228,2,132,6|2|2,0:0|0:2|0:2,0:0:0:0:
110,19,154173,2,0,L|160:92,1,88,4|2,1:2|0:0,0:0:0:0:
300,36,154635,2,0,P|261:19|217:24,1,88,4|2,1:2|0:0,0:0:0:0:
195,171,155096,6,0,P|234:188|277:182,1,88,4|0,1:0|0:0,0:0:0:0:
341,122,155558,2,0,L|357:223,1,88,8|0,0:0|0:0,0:0:0:0:
441,196,156019,2,0,L|425:297,2,88,4|2|10,0:0|0:2|0:0,0:0:0:0:
455,110,156712,1,2,0:2:0:0:
388,55,156942,6,0,P|346:40|266:90,2,132,4|0|2,0:0|0:2|0:0,0:0:0:0:
354,208,157866,2,0,L|340:121,1,88,6|2,0:0|0:0,0:0:0:0:
287,265,158327,2,0,P|323:289|367:294,1,88,8|2,0:0|0:0,0:0:0:0:
438,242,158789,6,0,P|453:309|391:379,2,132,4|2|4,0:0|0:0|0:2,0:0:0:0:
193,174,159942,2,0,L|199:271,2,88,4|8|2,0:2|0:0|0:2,0:0:0:0:
188,87,160635,5,2,0:2:0:0:
260,39,160866,1,2,0:2:0:0:
344,163,161096,1,2,0:2:0:0:
266,125,161327,1,2,0:2:0:0:
415,114,161558,2,0,P|426:190|377:243,2,132,2|2|2,0:2|0:2|0:2,0:0:0:0:
272,211,162481,6,0,L|279:312,1,88,4|0,0:0|0:0,0:0:0:0:
199,338,162942,2,0,L|192:250,1,88,8|0,0:0|0:0,0:0:0:0:
265,123,163404,2,0,L|272:224,1,88,4|0,0:0|0:0,0:0:0:0:
406,156,163866,1,8,0:0:0:0:
340,99,164096,1,0,0:0:0:0:
349,222,164327,6,0,P|386:241|440:235,1,79.1999975830079,6|0,1:2|0:0,0:0:0:0:
457,339,164789,2,0,P|420:320|366:326,1,79.1999975830079,10|2,0:0|0:0,0:0:0:0:
281,338,165250,2,0,P|346:298|349:222,1,158.399995166016,4|10,0:3|0:0,0:0:0:0:
312,149,165942,1,2,0:0:0:0:
277,257,166173,6,0,L|166:251,1,79.1999975830079,4|0,0:3|0:0,0:0:0:0:
152,173,166635,2,0,L|231:177,1,79.1999975830079,8|2,0:0|0:0,0:0:0:0:
248,79,167096,2,0,P|225:151|152:173,1,158.399995166016,4|10,0:3|0:0,0:0:0:0:
167,92,167789,1,2,0:0:0:0:
327,64,168019,6,0,L|420:79,1,79.1999975830079,4|0,0:3|0:0,0:0:0:0:
473,142,168481,2,0,L|395:155,1,79.1999975830079,8|0,0:3|0:0,0:0:0:0:
326,220,168942,2,0,L|404:232,1,79.1999975830079,4|0,0:3|0:0,0:0:0:0:
384,376,169404,1,8,0:3:0:0:
355,301,169634,1,0,0:0:0:0:
256,355,169866,6,0,P|216:373|168:365,1,79.1999975830079,4|0,0:0|0:0,0:0:0:0:
176,218,170327,1,8,0:0:0:0:
205,293,170558,1,2,0:0:0:0:
199,140,170789,2,0,P|160:138|125:156,2,79.1999975830079,4|2|2,0:0|1:3|1:3,0:0:0:0:
255,230,171481,1,2,0:2:0:0:
278,152,171712,6,0,L|307:56,1,79.1999975830079,4|2,1:1|0:2,0:0:0:0:
322,0,172173,2,0,P|356:19|376:53,1,79.1999975830079,8|0,0:0|0:0,0:0:0:0:
364,132,172635,2,0,L|461:109,2,79.1999975830079,4|2|10,0:0|0:0|0:0,0:0:0:0:
341,207,173327,1,2,0:0:0:0:
318,282,173558,6,0,L|220:304,1,79.1999975830079,4|2,0:0|0:2,0:0:0:0:
164,319,174019,2,0,P|163:279|183:245,1,79.1999975830079,8|2,0:0|0:0,0:0:0:0:
252,146,174481,2,0,P|218:165|179:166,1,79.1999975830079,4|0,0:0|0:0,0:0:0:0:
137,32,174942,1,8,0:0:0:0:
197,88,175173,1,0,0:0:0:0:
77,87,175404,6,0,P|67:126|78:163,1,79.1999975830079,8|0,0:0|0:0,0:0:0:0:
140,213,175866,1,8,0:0:0:0:
197,88,176096,2,0,P|231:69|270:68,1,79.1999975830079,4|0,0:0|0:0,0:0:0:0:
252,146,176558,1,4,0:0:0:0:
134,139,176789,2,0,L|33:132,1,79.1999975830079,8|2,0:0|0:0,0:0:0:0:
54,250,177250,6,0,L|134:245,1,79.1999975830079,4|0,0:0|0:0,0:0:0:0:
205,181,177712,2,0,L|210:260,1,79.1999975830079,8|0,0:0|0:0,0:0:0:0:
307,181,178173,2,0,L|301:260,1,79.1999975830079,4|0,0:0|0:0,0:0:0:0:
378,245,178635,2,0,L|457:250,1,79.1999975830079,8|0,0:0|0:0,0:0:0:0:
256,192,179096,12,4,180481,0:2:0:0:
255,192,180942,6,0,P|293:165|338:166,1,92.3999971801759,4|2,0:0|0:0,0:0:0:0:
379,317,181635,2,0,P|341:343|296:342,1,92.3999971801759,2|0,0:0|0:0,0:0:0:0:
392,233,182327,2,0,L|476:227,1,61.5999981201172,2|2,0:0|0:0,0:0:0:0:
497,141,182789,6,0,L|386:148,1,92.3999971801759,6|2,1:2|0:0,0:0:0:0:
266,29,183481,2,0,L|359:36,1,92.3999971801759,2|2,0:0|0:0,0:0:0:0:
216,101,184173,2,0,L|138:95,1,61.5999981201172,2|2,0:0|0:0,0:0:0:0:
89,49,184635,6,0,P|115:103|101:162,1,123.199996240234,0|2,1:0|0:0,0:0:0:0:
49,223,185327,1,2,0:0:0:0:
102,282,185558,2,0,B|141:312|192:296|192:296|229:319,1,123.199996240234,2|2,0:0|0:0,0:0:0:0:
405,162,186481,6,0,P|433:197|437:242,1,92.3999971801759,2|2,1:2|0:0,0:0:0:0:
302,293,187173,2,0,P|273:257|269:212,1,92.3999971801759,2|2,0:3|0:3,0:0:0:0:
382,299,187866,2,0,L|401:364,1,61.5999981201172,2|0,1:2|0:0,0:0:0:0:
437,242,188327,6,0,P|406:224|313:259,1,123.199996240234,2|0,1:2|0:0,0:0:0:0:
272,304,189019,2,0,P|289:273|255:180,1,123.199996240234,2|0,1:2|0:0,0:0:0:0:
183,116,189712,1,2,1:2:0:0:
189,198,189942,1,2,0:0:0:0:
263,111,190173,6,0,B|304:106|304:106|344:117|344:117|391:112,1,123.199996240234,0|0,1:2|0:0,0:0:0:0:
454,75,190866,2,0,P|417:122|423:182,1,123.199996240234,2|2,1:2|0:0,0:0:0:0:
467,273,191558,2,0,L|407:261,1,61.5999981201172,0|2,1:0|0:0,0:0:0:0:
322,243,192019,6,0,L|341:301,2,61.5999981201172,2|0|0,1:2|0:0|0:0,0:0:0:0:
342,158,192712,2,0,L|382:112,2,61.5999981201172,2|0|0,1:2|0:0|0:0,0:0:0:0:
258,183,193404,2,0,L|197:170,1,61.5999981201172,2|2,1:2|1:2,0:0:0:0:
118,136,193866,6,0,P|154:183|148:243,1,123.199996240234,8|4,0:3|0:3,0:0:0:0:
119,324,194558,2,0,L|227:301,1,92.3999971801759,6|4,0:2|0:1,0:0:0:0:
