osu file format v14

[General]
AudioFilename: audio.mp3
AudioLeadIn: 0
PreviewTime: 62673
Countdown: 0
SampleSet: None
StackLeniency: 0.7
Mode: 0
LetterboxInBreaks: 0
WidescreenStoryboard: 0

[Editor]
Bookmarks: 63366
DistanceSpacing: 1.1
BeatDivisor: 4
GridSize: 4
TimelineZoom: 1.8

[Metadata]
Title:Candy Luv
TitleUnicode:Candy Luv
Artist:IAHN
ArtistUnicode:IAHN
Creator:Monstrata
Version:Extra
Source:
Tags:rizen love a_q_p_w osu monthly beatmap mapping contest 12 twelve
BeatmapID:1046487
BeatmapSetID:491033

[Difficulty]
HPDrainRate:6
CircleSize:4
OverallDifficulty:8
ApproachRate:9.2
SliderMultiplier:3.4
SliderTickRate:2

[Events]
//Background and Video events
0,0,"Konachan.com - 201213 sample.jpg",0,0
//Break Periods
2,101757,115757
//Storyboard Layer 0 (Background)
//Storyboard Layer 1 (Fail)
//Storyboard Layer 2 (Pass)
//Storyboard Layer 3 (Foreground)
//Storyboard Sound Samples

[TimingPoints]
1866,461.538461538462,4,2,0,75,1,0
1866,-166.666666666667,4,2,0,75,0,0
2558,-200,4,2,0,60,0,0
3712,-166.666666666667,4,2,0,75,0,0
4404,-200,4,2,0,60,0,0
5558,-166.666666666667,4,2,0,75,0,0
6250,-200,4,2,0,60,0,0
7404,-166.666666666667,4,2,0,55,0,0
7866,-166.666666666667,4,2,0,60,0,0
9250,-142.857142857143,4,2,0,50,0,0
12942,-125,4,2,0,55,0,0
13866,-125,4,2,0,30,0,0
14096,-125,4,2,0,40,0,0
14327,-125,4,2,0,50,0,0
14558,-125,4,2,0,60,0,0
14789,-142.857142857143,4,3,0,50,0,0
15019,-125,4,3,0,50,0,0
15250,-111.111111111111,4,3,0,50,0,0
15481,-100,4,3,0,50,0,0
16635,-111.111111111111,4,3,0,60,0,0
30019,-117.647058823529,4,3,0,58,0,0
30481,-125,4,3,0,56,0,0
30827,-133.333333333333,4,3,0,54,0,0
31404,-142.857142857143,4,3,0,40,0,0
31866,-142.857142857143,4,3,0,55,0,0
32327,-142.857142857143,4,3,0,70,0,0
33019,-142.857142857143,4,3,0,35,0,0
33250,-142.857142857143,4,2,0,65,0,0
39712,-142.857142857143,4,2,0,75,0,0
40635,-142.857142857143,4,2,0,65,0,0
48019,-125,4,3,0,70,0,0
54712,-142.857142857143,4,2,0,50,0,0
55404,-125,4,3,0,70,0,0
62442,-125,4,3,0,50,0,0
62789,-111.111111111111,4,3,0,75,0,1
66481,-111.111111111111,4,3,0,90,0,1
67866,-111.111111111111,4,3,0,75,0,1
77558,-133.333333333333,4,3,0,50,0,0
81250,-125,4,3,0,60,0,0
82173,-117.647058823529,4,2,0,60,0,0
83096,-111.111111111111,4,3,0,70,0,0
83558,-111.111111111111,4,3,0,80,0,0
84019,-111.111111111111,4,3,0,90,0,0
84481,-111.111111111111,4,3,0,100,0,0
84942,-133.333333333333,4,3,0,100,0,0
86327,-111.111111111111,4,3,0,35,0,0
86789,-111.111111111111,4,3,0,70,0,0
92789,-105.263157894737,4,3,0,70,0,0
93250,-100,4,3,0,70,0,0
93712,-95.2380952380952,4,3,0,70,0,0
94173,-111.111111111111,4,3,0,70,0,0
100981,-86.9565217391304,4,1,0,35,0,0
101096,-86.9565217391304,4,1,0,30,0,0
101212,-86.9565217391304,4,1,0,25,0,0
101327,-86.9565217391304,4,1,0,20,0,0
101442,-86.9565217391304,4,1,0,15,0,0
101558,-86.9565217391304,4,1,0,50,0,0
116327,-125,4,3,0,70,0,0
123712,-102.564102564103,4,3,0,70,0,0
124058,-125,4,3,0,70,0,0
126481,-114.285714285714,4,3,0,70,0,0
126827,-125,4,3,0,70,0,0
131096,-108.108108108108,4,3,0,75,0,1
134789,-108.108108108108,4,3,0,90,0,1
136173,-108.108108108108,4,3,0,75,0,1
144019,-166.666666666667,4,2,0,100,0,1
144250,-148.148148148148,4,2,0,100,0,1
144481,-133.333333333333,4,2,0,100,0,1
144712,-121.212121212121,4,2,0,100,0,1
144942,-111.111111111111,4,3,0,75,0,1
145866,-111.111111111111,4,3,0,75,0,0
147712,-100,4,3,0,80,0,1
164327,-111.111111111111,4,3,0,60,0,0
179096,-111.111111111111,4,3,0,40,0,0
179558,-111.111111111111,4,3,0,55,0,0
180019,-111.111111111111,4,3,0,70,0,0
180481,-111.111111111111,4,3,0,85,0,0
180942,-142.857142857143,4,2,0,60,0,0
188327,-142.857142857143,4,2,0,70,0,0

[Colours]
Combo1 : 89,255,255
Combo2 : 255,162,255
Combo3 : 30,142,255
Combo4 : 251,13,125

[HitObjects]
462,189,1866,6,0,P|384:129|278:120,1,203.999993774414,4|2,3:2|0:0,0:0:0:0:
418,248,2558,2,0,P|356:192|273:194,1,170,0|0,3:0|0:0,0:0:0:0:
361,290,3250,2,0,P|334:258|293:261,1,85,0|2,0:0|0:0,0:0:0:0:
102,288,3712,6,0,B|162:308|162:308|295:261,1,203.999993774414,4|2,0:0|0:0,0:0:0:0:
109,217,4404,2,0,B|162:235|162:235|281:192,1,170,0|0,3:0|0:0,0:0:0:0:
123,148,5096,2,0,B|162:161|162:161|204:146,1,85,0|2,0:0|0:0,0:0:0:0:
303,43,5558,6,0,P|227:39|212:156,1,203.999993774414,4|2,3:2|0:0,0:0:0:0:
394,82,6250,2,0,P|322:48|263:103,1,170,0|0,3:0|0:0,0:0:0:0:
408,153,6942,2,0,P|375:127|334:121,1,85,0|2,0:0|0:0,0:0:0:0:
197,217,7404,6,0,B|343:202|343:202|428:258,1,203.999993774414,4|2,1:2|0:0,0:0:0:0:
276,317,8096,2,0,B|316:276|316:276|462:260,1,203.999993774414,0|0,3:0|0:0,0:0:0:0:
313,380,8789,2,0,B|349:343|349:343|399:338,1,101.999996887207,0|2,1:0|0:0,0:0:0:0:
212,278,9250,6,0,P|202:332|241:384,1,118.999996368408,2|0,0:0|0:0,0:0:0:0:
231,205,9712,2,0,L|275:316,1,118.999996368408,8|0,0:0|0:0,0:0:0:0:
337,190,10173,2,0,P|280:176|230:205,1,118.999996368408,0|0,0:0|0:0,0:0:0:0:
269,104,10635,1,8,0:0:0:0:
291,247,10866,1,0,0:0:0:0:
384,133,11096,6,0,P|327:119|277:148,1,118.999996368408,2|0,0:0|0:0,0:0:0:0:
124,189,11558,2,0,P|180:175|230:204,1,118.999996368408,8|0,0:0|0:0,0:0:0:0:
219,338,12019,2,0,B|173:309|173:309|156:278|170:248,1,118.999996368408,0|0,0:0|0:0,0:0:0:0:
286,293,12481,1,10,0:0:0:0:
153,384,12712,1,2,0:0:0:0:
242,232,12942,6,0,B|290:207|330:234|330:234|377:231,1,136,0|0,0:0|0:0,0:0:0:0:
330,354,13404,2,0,B|282:379|242:352|242:352|195:355,1,136,8|0,0:0|0:0,0:0:0:0:
198,171,13866,1,2,0:0:0:0:
286,293,14096,1,2,0:0:0:0:
240,101,14327,1,2,0:0:0:0:
216,250,14558,1,2,0:0:0:0:
320,83,14789,6,0,L|342:24,1,59.4999981842042,8|0,0:3|0:0,0:0:0:0:
296,181,15019,6,0,L|374:145,1,68,4|0,0:0|0:0,0:0:0:0:
216,250,15250,6,0,L|310:285,1,76.4999976654053,4|2,0:0|0:0,0:0:0:0:
104,225,15480,6,0,L|144:312,1,76.4999976654053,8|0,0:0|0:0,0:0:0:0:
18,200,15712,1,4,0:0:0:0:
41,159,15827,1,0,0:0:0:0:
83,136,15942,1,4,0:0:0:0:
130,137,16058,1,4,0:0:0:0:
170,163,16173,6,0,P|225:104|171:26,1,170,4|0,0:1|0:0,0:0:0:0:
104,224,16635,6,0,P|181:253|245:225,1,152.999995330811,6|0,0:0|0:0,0:0:0:0:
287,164,16981,1,0,0:0:0:0:
287,164,17096,2,0,P|314:199|316:246,1,76.4999976654053,10|0,0:0|0:0,0:0:0:0:
276,294,17327,2,0,B|314:274|314:274|327:245|327:245|361:252|361:252|399:234,1,152.999995330811,2|4,0:0|0:3,0:0:0:0:
452,291,17673,1,0,0:0:0:0:
452,291,17789,2,0,L|366:331,1,76.4999976654053,2|0,0:0|0:0,0:0:0:0:
276,294,18019,2,0,P|301:323|308:361,1,76.4999976654053,10|0,0:0|0:0,0:0:0:0:
157,350,18250,2,0,P|170:314|199:290,1,76.4999976654053,2|0,0:0|0:0,0:0:0:0:
184,194,18481,6,0,P|213:270|292:292,1,152.999995330811,4|0,0:3|0:0,0:0:0:0:
333,165,18827,1,0,0:0:0:0:
333,165,18942,2,0,L|269:206,1,76.4999976654053,8|0,0:0|0:0,0:0:0:0:
326,77,19173,2,0,B|364:78|364:78|419:131|419:131|420:169,1,152.999995330811,2|4,0:0|0:3,0:0:0:0:
372,230,19519,1,0,0:0:0:0:
372,230,19635,2,0,L|363:314,1,76.4999976654053,2|0,0:0|0:0,0:0:0:0:
210,251,19866,2,0,L|294:242,1,76.4999976654053,10|0,0:0|0:0,0:0:0:0:
225,88,20096,2,0,L|217:165,1,76.4999976654053,2|0,0:0|0:0,0:0:0:0:
96,131,20327,6,0,P|151:81|225:88,1,152.999995330811,4|0,0:3|0:0,0:0:0:0:
333,165,20673,1,2,0:2:0:0:
333,165,20789,2,0,L|180:170,1,152.999995330811,8|0,0:3|0:0,0:0:0:0:
130,301,21135,1,2,0:2:0:0:
130,301,21250,2,0,B|182:248|182:248|180:169,1,152.999995330811,4|0,0:3|0:0,0:0:0:0:
50,203,21596,1,2,0:2:0:0:
50,203,21712,2,0,P|77:234|232:208,1,152.999995330811,8|0,0:3|0:0,0:0:0:0:
225,88,22058,1,2,0:2:0:0:
225,88,22173,6,0,B|243:79|249:68|249:68|263:83|263:83|311:57|359:83,1,152.999995330811,4|0,0:0|0:0,0:0:0:0:
399,152,22519,1,0,0:0:0:0:
399,152,22635,2,0,L|475:145,1,76.4999976654053,8|0,0:0|0:0,0:0:0:0:
309,219,22866,2,0,L|386:226,1,76.4999976654053,2|0,0:0|0:0,0:0:0:0:
222,302,23096,2,0,L|299:296,1,76.4999976654053,4|0,0:0|0:0,0:0:0:0:
194,186,23327,1,2,1:3:0:0:
266,374,23558,1,2,1:3:0:0:
270,179,23789,1,2,0:2:0:0:
189,380,24019,6,0,L|382:363,1,152.999995330811,4|2,1:1|0:2,0:0:0:0:
372,295,24366,1,0,0:0:0:0:
372,295,24481,2,0,L|448:301,1,76.4999976654053,8|0,0:0|0:0,0:0:0:0:
435,150,24712,2,0,L|429:227,1,76.4999976654053,0|0,0:0|0:0,0:0:0:0:
295,252,24942,2,0,P|367:269|428:227,1,152.999995330811,4|2,0:0|0:0,0:0:0:0:
356,101,25289,1,0,0:0:0:0:
356,101,25404,2,0,L|350:178,1,76.4999976654053,10|0,0:0|0:0,0:0:0:0:
203,130,25635,2,0,L|280:137,1,76.4999976654053,2|0,0:0|0:0,0:0:0:0:
338,18,25866,6,0,P|279:63|280:137,1,152.999995330811,4|2,0:0|0:2,0:0:0:0:
342,221,26212,1,0,0:0:0:0:
342,221,26327,2,0,P|306:208|269:213,1,76.4999976654053,8|0,0:0|0:0,0:0:0:0:
163,224,26558,2,0,P|192:199|208:165,1,76.4999976654053,2|0,0:0|0:0,0:0:0:0:
128,7,26789,2,0,B|111:54|111:54|137:187,1,152.999995330811,4|0,0:0|0:0,0:0:0:0:
59,198,27135,1,2,0:0:0:0:
59,198,27250,2,0,B|123:19,1,152.999995330811,8|0,0:0|0:0,0:0:0:0:
343,303,27712,6,0,P|400:277|402:164,1,152.999995330811,8|0,0:0|0:0,0:0:0:0:
318,148,28058,1,0,0:0:0:0:
318,148,28173,2,0,L|342:221,1,76.4999976654053,8|0,0:0|0:0,0:0:0:0:
381,101,28404,2,0,B|333:116|333:116|308:115|308:115|286:132|286:132|237:147,2,152.999995330811,4|0|4,0:0|0:0|0:0,0:0:0:0:
161,76,29096,1,8,0:0:0:0:
318,148,29327,1,2,0:0:0:0:
410,1,29558,6,0,P|323:14|282:72,1,152.999995330811,4|0,0:0|0:0,0:0:0:0:
210,44,29904,1,2,0:2:0:0:
210,44,30019,2,0,B|252:80|252:80|263:171,1,144.500002756119,8|0,0:0|0:0,0:0:0:0:
337,194,30366,1,0,0:0:0:0:
337,194,30481,2,0,P|271:226|249:291,1,136,4|0,0:0|0:0,0:0:0:0:
187,331,30827,1,0,0:0:0:0:
187,331,30942,2,0,B|227:323|227:323|269:331|269:331|312:323,1,127.500004863739,8|0,0:0|0:0,0:0:0:0:
405,292,31289,1,0,0:0:0:0:
405,292,31404,6,0,L|380:375,1,59.4999981842042,0|0,1:0|0:0,0:0:0:0:
315,230,31635,2,0,L|332:286,1,59.4999981842042,0|0,0:0|0:0,0:0:0:0:
432,202,31866,2,0,L|414:258,1,59.4999981842042,0|0,0:0|0:0,0:0:0:0:
288,140,32096,2,0,L|305:196,1,59.4999981842042,0|0,0:0|0:0,0:0:0:0:
459,112,32327,2,0,L|441:168,1,59.4999981842042,0|0,0:0|0:0,0:0:0:0:
261,50,32558,2,0,L|278:106,1,59.4999981842042,0|0,0:0|0:0,0:0:0:0:
486,22,32789,6,0,L|468:78,1,59.4999981842042,4|0,1:3|0:0,0:0:0:0:
347,138,33019,2,0,L|403:120,1,59.4999981842042,2|2,0:0|0:0,0:0:0:0:
179,39,33250,5,4,0:2:0:0:
66,198,33481,2,0,L|146:213,1,59.4999981842042,2|0,0:0|0:0,0:0:0:0:
155,319,33712,1,2,3:0:0:0:
155,319,33827,2,0,L|214:330,1,59.4999981842042,2|0,0:3|0:0,0:0:0:0:
84,279,34058,1,2,0:3:0:0:
84,279,34173,2,0,L|74:338,1,59.4999981842042,2|0,3:0|0:0,0:0:0:0:
195,248,34404,2,0,L|206:190,1,59.4999981842042,2|0,0:0|0:0,0:0:0:0:
276,229,34635,1,2,3:0:0:0:
276,229,34750,2,0,L|334:239,1,59.4999981842042,2|0,0:3|0:0,0:0:0:0:
245,118,34981,1,2,0:3:0:0:
245,118,35096,6,0,L|111:93,1,118.999996368408,2|0,0:0|0:0,0:0:0:0:
31,181,35442,1,2,0:3:0:0:
31,181,35558,2,0,L|89:171,1,59.4999981842042,2|0,3:0|0:0,0:0:0:0:
177,259,35789,2,0,L|119:249,1,59.4999981842042,2|0,0:3|0:0,0:0:0:0:
89,326,36019,1,2,3:0:0:0:
127,100,36250,1,2,0:0:0:0:
206,348,36481,2,0,L|72:323,1,118.999996368408,2|0,0:0|0:0,0:0:0:0:
0,254,36827,1,2,0:0:0:0:
0,254,36942,6,0,L|22:374,1,118.999996368408,2|0,3:0|0:0,0:0:0:0:
101,268,37289,1,2,0:3:0:0:
101,268,37404,2,0,L|90:326,1,59.4999981842042,2|0,3:0|0:0,0:0:0:0:
241,275,37635,2,0,P|213:265|184:271,1,59.4999981842042,2|0,0:0|0:0,0:0:0:0:
87,181,37866,2,0,L|96:239,1,59.4999981842042,2|0,3:0|0:0,0:0:0:0:
220,139,38097,2,0,P|190:140|164:154,1,59.4999981842042,6|0,0:0|0:0,0:0:0:0:
241,275,38327,1,2,3:0:0:0:
241,275,38442,2,0,L|361:269,1,118.999996368408,2|0,0:0|0:0,0:0:0:0:
374,146,38789,6,0,P|315:178|303:242,1,118.999996368408,2|0,3:3|0:0,0:0:0:0:
194,212,39135,2,0,P|260:199|310:240,1,118.999996368408,2|0,0:3|0:0,0:0:0:0:
211,65,39481,1,2,0:3:0:0:
241,275,39712,2,0,B|288:301|288:301|430:273,1,178.499994552612,2|0,0:0|0:0,0:0:0:0:
470,223,40173,2,0,B|423:248|423:248|281:220,1,178.499994552612,2|0,0:0|0:0,0:0:0:0:
398,114,40635,6,0,L|418:206,1,59.4999981842042,2|0,3:0|0:0,0:0:0:0:
320,98,40866,1,2,0:3:0:0:
320,98,40981,2,0,L|340:190,1,59.4999981842042,2|0,0:3|0:0,0:0:0:0:
242,82,41212,1,2,0:3:0:0:
242,82,41327,2,0,L|262:174,1,59.4999981842042,2|0,0:3|0:0,0:0:0:0:
176,254,41558,2,0,P|180:224|196:200,1,59.4999981842042,0|0,3:0|0:0,0:0:0:0:
96,115,41789,2,0,P|100:144|116:169,1,59.4999981842042,2|0,0:0|0:0,0:0:0:0:
65,271,42019,2,0,P|118:245|176:254,1,118.999996368408,2|2,0:0|0:0,0:0:0:0:
174,115,42366,1,2,0:0:0:0:
174,115,42481,6,0,P|151:169|98:194,1,118.999996368408,2|0,3:0|0:0,0:0:0:0:
40,96,42827,1,2,0:3:0:0:
40,96,42942,2,0,L|96:114,1,59.4999981842042,2|0,0:3|0:0,0:0:0:0:
193,22,43173,2,0,L|137:41,1,59.4999981842042,2|0,0:3|0:0,0:0:0:0:
6,149,43404,2,0,L|62:130,1,59.4999981842042,2|0,3:3|0:0,0:0:0:0:
74,3,43635,2,0,L|55:59,1,59.4999981842042,0|0,0:0|0:0,0:0:0:0:
163,159,43866,2,0,P|119:122|61:130,1,118.999996368408,2|0,0:0|0:0,0:0:0:0:
22,266,44212,1,0,0:0:0:0:
22,266,44327,6,0,P|76:246|98:192,1,118.999996368408,2|0,0:0|0:0,0:0:0:0:
22,132,44673,1,2,0:0:0:0:
22,132,44789,2,0,L|23:192,1,59.4999981842042,2|0,3:0|0:0,0:0:0:0:
157,192,45019,2,0,L|97:192,1,59.4999981842042,2|0,0:0|0:0,0:0:0:0:
96,59,45250,2,0,L|96:118,1,59.4999981842042,2|0,3:0|0:0,0:0:0:0:
230,118,45480,2,0,L|170:118,1,59.4999981842042,2|0,0:0|0:0,0:0:0:0:
257,23,45712,1,2,3:0:0:0:
263,40,45827,2,0,P|324:56|400:26,1,118.999996368408,2|0,0:0|0:0,0:0:0:0:
455,13,46173,6,0,L|436:151,1,118.999996368408,10|0,3:2|0:0,0:0:0:0:
326,138,46519,2,0,P|381:117|438:130,1,118.999996368408,8|0,3:2|0:0,0:0:0:0:
376,42,46866,1,10,3:2:0:0:
388,222,47096,2,0,P|445:234|499:213,1,118.999996368408,0|0,1:0|0:0,0:0:0:0:
242,81,47558,2,0,B|228:100|228:100|228:174|228:174|248:202,1,118.999996368408,4|0,1:3|0:0,0:0:0:0:
458,148,48019,6,0,B|394:128|394:128|325:138,1,136,4|0,1:0|0:0,0:0:0:0:
383,289,48366,1,2,0:0:0:0:
383,289,48481,2,0,L|388:221,1,68,8|0,0:0|0:0,0:0:0:0:
298,316,48712,1,0,0:0:0:0:
298,316,48827,2,0,L|303:249,1,68,0|4,0:0|0:0,0:0:0:0:
213,343,49058,2,0,B|148:364|148:364|60:338,1,136,0|2,0:0|0:0,0:0:0:0:
16,285,49404,2,0,B|80:304|80:304|145:283,1,136,8|0,0:0|0:0,0:0:0:0:
76,167,49750,1,0,0:0:0:0:
76,167,49866,6,0,L|81:303,1,136,4|0,0:0|0:0,0:0:0:0:
204,197,50212,1,2,0:0:0:0:
204,197,50327,2,0,P|138:181|77:207,1,136,8|0,0:0|0:0,0:0:0:0:
298,316,50789,1,4,0:0:0:0:
282,70,51019,2,0,L|198:50,1,68,2|0,0:2|0:0,0:0:0:0:
282,176,51250,2,0,L|366:156,1,68,2|0,0:2|0:0,0:0:0:0:
360,49,51481,1,2,0:2:0:0:
204,197,51712,6,0,B|138:213|138:213|117:176|55:171,1,136,4|0,0:0|0:0,0:0:0:0:
0,276,52058,1,2,0:0:0:0:
0,276,52173,2,0,L|84:256,1,68,8|0,0:0|0:0,0:0:0:0:
211,283,52404,2,0,L|145:299,1,68,2|0,0:0|0:0,0:0:0:0:
1,372,52635,2,0,P|65:356|127:384,1,136,4|0,0:0|0:0,0:0:0:0:
280,350,52981,1,2,0:0:0:0:
280,350,53096,2,0,L|214:366,1,68,8|0,0:0|0:0,0:0:0:0:
142,216,53327,1,2,0:0:0:0:
366,327,53558,6,0,P|434:319|477:266,1,136,4|0,0:0|0:0,0:0:0:0:
312,215,53904,1,0,0:0:0:0:
312,215,54019,2,0,P|317:283|369:328,1,136,8|0,0:0|0:0,0:0:0:0:
447,75,54481,5,0,1:0:0:0:
142,216,54712,2,0,P|34:170|142:126,1,297.499990921021,4|0,1:2|0:0,0:0:0:0:
268,197,55404,6,0,B|231:225|231:225|142:216,1,136,4|0,1:2|0:0,0:0:0:0:
172,297,55750,1,0,0:0:0:0:
172,297,55866,2,0,B|261:306,1,68,8|0,0:0|0:0,0:0:0:0:
322,156,56096,2,0,B|267:197,1,68,0|0,0:0|0:0,0:0:0:0:
203,379,56327,2,0,P|282:374|323:301,1,136,4|0,0:0|0:0,0:0:0:0:
378,218,56673,1,0,0:0:0:0:
378,218,56789,2,0,L|385:285,1,68,8|0,0:0|0:0,0:0:0:0:
441,156,57019,2,0,L|512:173,1,68,0|0,0:0|0:0,0:0:0:0:
363,67,57250,5,4,0:0:0:0:
363,67,57366,2,0,L|356:134,1,68,2|0,0:0|0:0,0:0:0:0:
276,220,57596,1,2,0:0:0:0:
276,220,57712,2,0,L|270:153,1,68,8|0,0:0|0:0,0:0:0:0:
297,7,57942,1,2,0:0:0:0:
342,280,58173,2,0,P|275:310|200:267,1,136,4|0,0:0|0:0,0:0:0:0:
132,185,58519,1,0,0:0:0:0:
132,185,58635,2,0,L|138:252,1,68,10|0,0:0|0:0,0:0:0:0:
90,379,58866,2,0,L|146:341,1,68,2|0,0:0|0:0,0:0:0:0:
231,154,59096,6,0,L|218:292,1,136,6|0,0:0|0:0,0:0:0:0:
311,382,59442,1,2,0:2:0:0:
311,382,59558,2,0,L|305:315,1,68,8|0,0:0|0:0,0:0:0:0:
352,186,59789,2,0,L|297:225,1,68,2|0,0:2|0:0,0:0:0:0:
169,326,60019,2,0,L|314:312,1,136,4|0,0:0|0:0,0:0:0:0:
224,172,60366,1,2,0:2:0:0:
224,172,60481,2,0,L|230:239,1,68,8|0,0:0|0:0,0:0:0:0:
88,333,60712,2,0,L|94:266,1,68,2|0,0:2|0:0,0:0:0:0:
218,91,60942,6,0,P|288:123|299:200,1,136,4|0,0:0|0:0,0:0:0:0:
265,281,61289,1,2,0:2:0:0:
265,281,61404,2,0,L|336:265,1,68,8|0,0:0|0:0,0:0:0:0:
408,137,61635,2,0,L|393:203,1,68,4|0,0:0|0:0,0:0:0:0:
365,343,61866,1,8,1:3:0:0:
390,321,61981,1,0,1:0:0:0:
423,314,62096,2,0,L|507:329,1,68,4|0,2:3|0:0,0:0:0:0:
360,240,62327,1,8,0:0:0:0:
380,194,62442,1,4,0:0:0:0:
423,168,62558,1,4,0:0:0:0:
467,143,62673,1,4,0:0:0:0:
484,96,62789,6,0,P|433:53|326:103,1,152.999995330811,4|0,1:2|0:0,0:0:0:0:
254,156,63135,1,2,0:2:0:0:
254,156,63250,2,0,L|329:140,1,76.4999976654053,10|0,0:0|0:0,0:0:0:0:
431,227,63481,2,0,L|357:211,1,76.4999976654053,0|0,0:0|0:0,0:0:0:0:
188,300,63712,2,0,P|262:319|321:274,1,152.999995330811,4|0,0:3|0:0,0:0:0:0:
254,156,64058,1,2,0:2:0:0:
254,156,64173,2,0,L|245:231,1,76.4999976654053,8|0,0:0|0:0,0:0:0:0:
93,214,64404,2,0,L|169:223,1,76.4999976654053,2|0,0:2|0:0,0:0:0:0:
228,83,64635,6,0,P|281:83|331:166,1,152.999995330811,4|0,0:0|0:0,0:0:0:0:
268,307,64981,1,2,0:2:0:0:
268,307,65096,2,0,L|343:298,1,76.4999976654053,10|0,0:3|0:0,0:0:0:0:
406,168,65327,2,0,L|397:243,1,76.4999976654053,0|0,0:0|0:0,0:0:0:0:
279,384,65558,1,6,0:0:0:0:
254,156,65789,1,0,0:0:0:0:
417,317,66019,1,8,0:0:0:0:
445,102,66250,1,2,0:2:0:0:
268,307,66481,5,2,1:2:0:0:
268,307,66596,2,0,L|179:297,1,76.4999976654053,2|0,0:2|0:0,0:0:0:0:
107,208,66827,2,0,L|116:285,1,76.4999976654053,2|0,0:2|1:0,0:0:0:0:
259,225,67058,2,0,L|183:217,1,76.4999976654053,2|0,0:2|0:0,0:0:0:0:
241,72,67289,1,2,0:2:0:0:
241,72,67404,2,0,L|250:149,1,76.4999976654053,2|0,1:2|0:0,0:0:0:0:
316,63,67635,2,0,L|392:54,1,76.4999976654053,0|0,0:0|0:0,0:0:0:0:
259,225,67866,1,8,3:0:0:0:
98,132,68096,1,2,1:2:0:0:
39,293,68327,6,0,L|220:271,1,152.999995330811,6|0,0:0|0:0,0:0:0:0:
237,142,68673,1,2,0:2:0:0:
237,142,68789,2,0,P|203:159|182:190,1,76.4999976654053,8|0,0:0|0:0,0:0:0:0:
280,308,69019,2,0,P|314:291|336:260,1,76.4999976654053,2|0,0:2|0:0,0:0:0:0:
316,108,69250,6,0,L|325:183,1,76.4999976654053,4|0,1:2|0:0,0:0:0:0:
259,225,69481,1,2,0:0:0:0:
398,68,69712,2,0,L|398:144,1,76.4999976654053,4|0,1:2|0:0,0:0:0:0:
244,55,69942,1,2,0:0:0:0:
483,36,70173,6,0,L|464:207,1,152.999995330811,4|0,1:0|0:0,0:0:0:0:
493,290,70519,1,2,0:2:0:0:
493,290,70635,2,0,B|452:266|452:266|336:276,1,152.999995330811,8|0,0:0|0:0,0:0:0:0:
260,368,70981,1,0,0:0:0:0:
260,368,71096,2,0,L|155:356,1,76.4999976654053,4|0,0:0|0:0,0:0:0:0:
120,221,71327,2,0,L|129:298,1,76.4999976654053,2|0,0:2|0:0,0:0:0:0:
43,377,71558,2,0,L|52:301,1,76.4999976654053,10|0,0:0|0:0,0:0:0:0:
206,154,71789,2,0,L|197:230,1,76.4999976654053,2|0,0:2|0:0,0:0:0:0:
183,359,72019,6,0,P|225:299|322:322,1,152.999995330811,4|0,0:0|0:0,0:0:0:0:
397,252,72366,1,0,0:2:0:0:
397,252,72481,2,0,P|376:283|373:321,1,76.4999976654053,8|0,0:0|0:0,0:0:0:0:
260,368,72712,1,2,0:0:0:0:
306,154,72942,2,0,L|314:230,1,76.4999976654053,6|0,0:0|0:0,0:0:0:0:
158,210,73173,2,0,L|235:219,1,76.4999976654053,2|0,0:0|0:0,0:0:0:0:
214,65,73404,2,0,L|222:141,1,76.4999976654053,8|0,0:0|0:0,0:0:0:0:
66,121,73635,2,0,L|142:129,1,76.4999976654053,2|0,0:0|0:0,0:0:0:0:
297,76,73866,6,0,P|348:88|380:177,1,152.999995330811,4|0,0:0|0:0,0:0:0:0:
324,305,74212,1,2,0:0:0:0:
324,305,74327,2,0,L|399:296,1,76.4999976654053,10|0,0:0|0:0,0:0:0:0:
445,226,74558,2,0,L|414:416,1,152.999995330811,4|4,0:2|0:0,0:0:0:0:
293,208,75019,2,0,L|368:216,1,76.4999976654053,4|0,0:2|0:0,0:0:0:0:
485,157,75250,2,0,P|449:146|411:153,1,76.4999976654053,8|0,0:0|0:0,0:0:0:0:
404,294,75481,2,0,P|440:305|477:298,1,76.4999976654053,2|0,0:2|0:0,0:0:0:0:
338,137,75712,5,2,0:2:0:0:
254,345,75942,1,2,0:2:0:0:
445,226,76173,1,2,0:2:0:0:
220,210,76404,1,2,0:2:0:0:
393,355,76635,2,0,P|465:339|512:259,1,152.999995330811,2|0,0:2|0:0,0:0:0:0:
434,150,76981,1,2,0:2:0:0:
434,150,77096,2,0,L|445:226,1,76.4999976654053,8|0,0:0|0:0,0:0:0:0:
358,284,77327,2,0,L|369:209,1,76.4999976654053,2|0,0:2|0:0,0:0:0:0:
423,63,77558,6,0,P|493:85|518:137,1,127.500004863739,4|0,0:0|0:0,0:0:0:0:
330,198,78019,2,0,P|384:147|440:152,1,127.500004863739,8|0,0:0|0:0,0:0:0:0:
399,345,78481,2,0,P|382:272|414:226,1,127.500004863739,4|0,0:0|0:0,0:0:0:0:
317,370,78942,2,0,P|256:388|195:371,1,127.500004863739,8|0,0:0|0:0,0:0:0:0:
161,186,79404,6,0,B|173:230|173:230|150:309,1,127.500004863739,4|0,1:2|0:0,0:0:0:0:
212,81,79866,2,0,L|254:235,1,127.500004863739,8|0,1:3|0:0,0:0:0:0:
292,4,80327,2,0,B|280:48|280:48|303:126,1,127.500004863739,4|0,1:3|0:0,0:0:0:0:
479,77,80789,2,0,P|431:37|370:47,1,127.500004863739,8|0,1:3|0:0,0:0:0:0:
318,251,81250,6,0,B|354:226|354:226|446:230,1,136,4|0,1:3|0:0,0:0:0:0:
325,115,81712,2,0,L|316:288,1,136,8|0,1:3|0:0,0:0:0:0:
115,165,82173,2,0,P|181:143|243:177,1,144.500002756119,4|0,1:3|0:0,0:0:0:0:
453,104,82635,2,0,P|386:81|325:115,1,144.500002756119,8|0,1:3|0:0,0:0:0:0:
192,278,83096,6,0,P|192:313|216:352,1,76.4999976654053,0|0,1:0|0:0,0:0:0:0:
320,278,83327,2,0,P|319:313|295:352,1,76.4999976654053,0|0,1:0|0:0,0:0:0:0:
177,243,83558,6,0,P|189:276|225:304,1,76.4999976654053,0|0,1:0|0:0,0:0:0:0:
335,243,83789,2,0,P|322:276|286:304,1,76.4999976654053,0|0,1:0|0:0,0:0:0:0:
152,215,84019,6,0,P|175:241|218:256,1,76.4999976654053,0|0,1:0|0:0,0:0:0:0:
360,215,84250,2,0,P|336:241|293:256,1,76.4999976654053,0|0,1:0|0:0,0:0:0:0:
118,197,84481,6,0,P|149:214|194:213,1,76.4999976654053,0|0,1:0|0:0,0:0:0:0:
394,197,84712,2,0,P|362:214|317:213,1,76.4999976654053,0|0,1:0|0:0,0:0:0:0:
78,165,84942,5,2,0:0:0:0:
117,131,85057,1,2,0:0:0:0:
166,119,85172,1,0,0:0:0:0:
216,131,85288,1,2,0:0:0:0:
256,164,85403,1,2,0:0:0:0:
294,196,85519,1,0,0:0:0:0:
344,209,85635,1,2,0:0:0:0:
394,197,85750,1,2,0:0:0:0:
434,164,85865,1,2,0:0:0:0:
168,236,86096,5,0,0:0:0:0:
131,248,86212,1,0,0:0:0:0:
94,260,86327,2,0,P|32:230|132:185,1,229.499992996216,4|0,0:0|0:0,0:0:0:0:
141,327,86789,6,0,B|184:352|184:352|330:336,1,152.999995330811,4|0,1:2|0:0,0:0:0:0:
219,117,87250,2,0,B|194:160|194:160|210:306,1,152.999995330811,8|0,0:0|0:0,0:0:0:0:
130,86,87712,1,4,0:0:0:0:
294,293,87942,2,0,P|366:313|431:261,2,152.999995330811,2|8|0,0:2|0:0|0:0,0:0:0:0:
201,24,88635,5,4,0:0:0:0:
351,227,88866,1,0,0:0:0:0:
451,0,89096,2,0,P|380:24|337:85,1,152.999995330811,8|0,0:0|0:0,0:0:0:0:
401,359,89558,2,0,P|399:284|351:227,1,152.999995330811,4|2,0:0|0:2,0:0:0:0:
237,123,89904,1,0,0:0:0:0:
237,123,90019,2,0,P|266:146|303:155,1,76.4999976654053,8|0,0:0|0:0,0:0:0:0:
445,123,90250,2,0,P|415:146|379:155,1,76.4999976654053,2|0,0:2|0:0,0:0:0:0:
253,22,90481,6,0,P|255:97|303:154,1,152.999995330811,4|0,0:0|0:0,0:0:0:0:
404,273,90827,1,2,0:2:0:0:
404,273,90942,2,0,P|338:237|264:251,1,152.999995330811,8|0,0:0|0:0,0:0:0:0:
170,361,91289,1,2,0:2:0:0:
170,361,91404,2,0,B|94:355|94:355|51:339|40:299,1,152.999995330811,6|0,0:0|0:0,0:0:0:0:
62,149,91750,1,2,0:2:0:0:
62,149,91866,2,0,L|56:226,1,76.4999976654053,8|0,0:0|0:0,0:0:0:0:
116,279,92096,2,0,L|193:286,1,76.4999976654053,2|0,0:0|0:0,0:0:0:0:
326,135,92327,6,0,L|249:128,1,76.4999976654053,6|0,1:3|0:0,0:0:0:0:
220,208,92558,2,0,L|297:215,1,76.4999976654053,2|0,1:2|0:0,0:0:0:0:
324,95,92789,6,0,L|236:135,1,80.7499978437424,8|0,1:3|0:0,0:0:0:0:
222,249,93019,2,0,L|295:215,1,80.7499978437424,2|0,0:2|0:0,0:0:0:0:
299,59,93250,6,0,L|232:153,1,85,4|0,1:3|0:0,0:0:0:0:
247,285,93481,2,0,L|295:215,1,85,2|0,0:2|0:0,0:0:0:0:
258,39,93712,6,0,L|244:182,1,89.2499972763062,8|0,0:3|0:0,0:0:0:0:
287,303,93942,2,0,L|295:214,1,89.2499972763062,2|0,0:2|0:0,0:0:0:0:
398,38,94173,6,0,P|327:12|257:39,1,152.999995330811,4|0,0:0|0:0,0:0:0:0:
7,88,94635,2,0,P|77:114|147:87,1,152.999995330811,8|0,0:0|0:0,0:0:0:0:
257,5,94981,1,2,0:0:0:0:
257,5,95096,2,0,L|238:80,1,76.4999976654053,4|0,0:0|0:0,0:0:0:0:
145,171,95327,2,0,L|220:152,1,76.4999976654053,2|0,0:2|0:0,0:0:0:0:
367,171,95558,2,0,L|292:152,1,76.4999976654053,8|0,0:0|0:0,0:0:0:0:
218,295,95789,2,0,L|295:295,1,76.4999976654053,2|0,0:2|0:0,0:0:0:0:
255,85,96019,5,4,0:0:0:0:
89,347,96250,1,2,0:2:0:0:
423,346,96481,2,0,P|464:285|441:213,1,152.999995330811,8|0,0:0|0:0,0:0:0:0:
369,126,96827,1,2,0:0:0:0:
369,126,96942,2,0,B|352:174|352:174|380:273,1,152.999995330811,4|0,0:0|0:0,0:0:0:0:
293,341,97289,1,2,0:0:0:0:
292,340,97404,2,0,B|309:292|309:292|281:193,1,152.999995330811,8|0,0:0|0:0,0:0:0:0:
191,146,97750,1,0,0:0:0:0:
191,146,97866,6,0,L|236:306,1,152.999995330811,4|0,0:0|0:0,0:0:0:0:
169,366,98212,1,2,0:0:0:0:
169,366,98327,2,0,L|211:219,1,152.999995330811,8|0,0:0|0:0,0:0:0:0:
117,131,98673,1,2,0:0:0:0:
117,131,98789,2,0,P|139:200|210:219,1,152.999995330811,8|0,0:0|0:0,0:0:0:0:
248,56,99135,1,2,0:2:0:0:
248,56,99250,2,0,L|173:67,1,76.4999976654053,8|0,0:0|0:0,0:0:0:0:
42,142,99481,2,0,L|117:131,1,76.4999976654053,10|0,0:0|0:0,0:0:0:0:
323,89,99712,6,0,L|171:66,1,152.999995330811,6|0,0:3|0:0,0:0:0:0:
190,166,100058,1,2,0:0:0:0:
190,166,100173,2,0,L|265:155,1,76.4999976654053,8|0,0:0|0:0,0:0:0:0:
351,249,100404,2,0,L|276:238,1,76.4999976654053,2|0,0:0|0:0,0:0:0:0:
199,271,100635,2,0,L|350:248,1,152.999995330811,8|0,0:0|0:0,0:0:0:0:
390,175,100981,6,2,B|338:164|338:164|292:187|292:187|267:233|267:233|275:285|275:285|311:323|311:323|362:332|362:332|408:308|408:308|433:263|433:263|426:211|426:211|390:175,1,488.750009322167,2|4,0:0|0:0,0:0:0:0:
76,13,116327,6,0,P|134:45|152:116,1,136,4|0,1:0|0:0,0:0:0:0:
230,151,116673,1,2,0:0:0:0:
230,151,116789,2,0,P|214:181|213:214,1,68,8|0,0:0|0:0,0:0:0:0:
132,250,117019,2,0,P|149:277|178:296,1,68,0|0,0:0|0:0,0:0:0:0:
168,384,117250,1,4,0:0:0:0:
168,384,117366,2,0,P|199:382|265:294,1,136,0|2,0:0|0:0,0:0:0:0:
283,153,117712,2,0,L|275:220,1,68,8|0,0:0|0:0,0:0:0:0:
370,142,117942,1,0,0:0:0:0:
411,137,118057,1,0,0:0:0:0:
452,132,118173,6,0,P|398:167|389:240,1,136,4|0,0:0|0:0,0:0:0:0:
309,276,118519,1,2,0:0:0:0:
309,276,118635,2,0,L|317:343,1,68,8|0,0:0|0:0,0:0:0:0:
221,259,118866,2,0,L|229:326,1,68,0|0,0:0|0:0,0:0:0:0:
279,191,119096,1,4,0:0:0:0:
178,15,119327,1,2,0:2:0:0:
380,15,119558,1,2,0:2:0:0:
192,175,119789,2,0,L|115:195,1,68,2|0,0:2|0:0,0:0:0:0:
249,106,120019,6,0,P|305:141|371:131,2,136,4|0|8,0:0|0:0|0:0,0:0:0:0:
444,76,120712,1,2,0:0:0:0:
372,259,120942,2,0,B|282:266|282:266|241:223,1,136,4|0,0:0|0:0,0:0:0:0:
192,175,121289,1,2,0:0:0:0:
192,175,121404,2,0,P|173:205|167:239,1,68,8|0,0:0|0:0,0:0:0:0:
142,349,121635,2,0,P|127:319|102:297,1,68,2|0,0:0|0:0,0:0:0:0:
62,182,121866,6,0,P|128:196|191:175,1,136,4|0,0:0|0:0,0:0:0:0:
290,72,122212,1,0,0:0:0:0:
290,72,122327,2,0,L|270:206,1,136,8|0,0:0|0:0,0:0:0:0:
93,6,122789,5,0,1:0:0:0:
102,297,123019,2,0,B|150:339|227:304|227:304|262:305|262:305|292:288|327:288|356:305|356:305|390:277|451:302,1,340,4|0,1:2|0:0,0:0:0:0:
309,378,123712,6,0,L|311:172,1,165.750000632286,4|0,1:2|0:0,0:0:0:0:
306,91,124058,1,0,0:0:0:0:
306,91,124173,2,0,P|290:121|261:137,1,68,8|0,0:0|0:0,0:0:0:0:
116,132,124404,2,0,P|145:149|179:150,1,68,0|0,0:0|0:0,0:0:0:0:
284,11,124635,2,0,P|292:77|261:137,1,136,4|0,0:0|0:0,0:0:0:0:
163,228,124981,1,0,0:0:0:0:
163,228,125096,2,0,L|231:219,1,68,8|0,0:0|0:0,0:0:0:0:
386,228,125327,2,0,L|318:218,1,68,0|0,0:0|0:0,0:0:0:0:
163,313,125558,5,4,0:0:0:0:
163,313,125673,2,0,L|230:322,1,68,2|0,0:0|0:0,0:0:0:0:
89,270,125904,1,2,0:0:0:0:
89,269,126019,2,0,P|77:301|80:335,1,68,8|0,0:0|0:0,0:0:0:0:
90,182,126250,2,0,L|80:114,1,68,2|0,0:0|0:0,0:0:0:0:
14,226,126481,2,0,L|200:228,1,148.750001418591,4|0,0:0|0:0,0:0:0:0:
269,167,126827,1,0,0:0:0:0:
269,167,126943,2,0,P|265:200|245:227,1,68,10|0,0:0|0:0,0:0:0:0:
163,313,127173,2,0,P|193:299|227:302,1,68,2|0,0:0|0:0,0:0:0:0:
326,323,127404,6,0,P|269:289|245:227,1,136,6|0,0:0|0:0,0:0:0:0:
203,101,127750,1,2,0:2:0:0:
203,101,127866,2,0,L|185:166,1,68,8|0,0:0|0:0,0:0:0:0:
99,262,128096,2,0,L|164:244,1,68,2|0,0:2|0:0,0:0:0:0:
316,202,128327,2,0,L|159:159,1,136,4|0,0:0|0:0,0:0:0:0:
271,54,128673,1,2,0:2:0:0:
271,54,128789,2,0,L|288:119,1,68,8|0,0:0|0:0,0:0:0:0:
250,219,129019,2,0,L|315:202,1,68,2|0,0:2|0:0,0:0:0:0:
378,99,129250,6,0,P|324:136|315:201,1,136,4|0,0:0|0:0,0:0:0:0:
371,325,129596,1,2,0:2:0:0:
371,325,129712,2,0,P|381:293|379:259,1,68,8|0,0:0|0:0,0:0:0:0:
246,245,129942,2,0,P|269:269|301:282,1,68,4|0,0:0|0:0,0:0:0:0:
404,138,130173,5,8,1:3:0:0:
364,136,130289,1,0,1:0:0:0:
324,135,130404,2,0,P|313:167|315:201,1,68,4|0,2:3|0:0,0:0:0:0:
455,210,130635,5,8,0:0:0:0:
456,156,130750,1,4,0:0:0:0:
404,138,130866,1,4,0:0:0:0:
370,181,130981,1,4,0:0:0:0:
403,226,131096,6,0,P|428:134|362:79,1,157.249999400139,4|0,1:2|0:0,0:0:0:0:
271,183,131442,1,2,0:2:0:0:
271,183,131558,2,0,P|289:218|322:240,1,78.6249997000694,10|0,0:0|0:0,0:0:0:0:
187,162,131789,2,0,P|185:201|202:236,1,78.6249997000694,0|0,0:0|0:0,0:0:0:0:
123,102,132019,2,0,P|99:177|113:253,1,157.249999400139,4|0,0:3|0:0,0:0:0:0:
70,337,132366,1,2,0:2:0:0:
70,337,132481,2,0,L|148:324,1,78.6249997000694,8|0,0:0|0:0,0:0:0:0:
269,271,132712,2,0,L|192:258,1,78.6249997000694,2|0,0:2|0:0,0:0:0:0:
304,362,132942,6,0,P|360:309|437:306,1,157.249999400139,4|0,0:0|0:0,0:0:0:0:
487,211,133289,1,2,0:2:0:0:
487,211,133404,2,0,B|454:230|454:230|414:222,1,78.6249997000694,10|0,0:3|0:0,0:0:0:0:
374,119,133635,2,0,B|398:148|398:148|438:154,1,78.6249997000694,0|0,0:0|0:0,0:0:0:0:
512,71,133866,2,0,B|479:88|479:88|436:82|436:82|413:42|350:47,1,157.249999400139,6|0,0:0|0:0,0:0:0:0:
186,296,134327,2,0,L|263:282,1,78.6249997000694,8|0,0:0|0:0,0:0:0:0:
352,190,134558,2,0,L|275:204,1,78.6249997000694,2|0,0:2|0:0,0:0:0:0:
108,309,134789,5,2,1:2:0:0:
108,309,134904,2,0,P|126:350|165:373,1,78.6249997000694,2|0,0:2|0:0,0:0:0:0:
267,298,135135,2,0,P|257:336|230:365,1,78.6249997000694,2|0,0:2|0:0,0:0:0:0:
180,217,135366,2,0,L|186:296,1,78.6249997000694,2|0,0:2|0:0,0:0:0:0:
330,250,135596,1,2,0:2:0:0:
330,250,135712,2,0,P|300:226|262:219,1,78.6249997000694,2|0,1:2|0:0,0:0:0:0:
340,327,135942,2,0,L|418:321,1,78.6249997000694,0|0,0:0|0:0,0:0:0:0:
366,175,136173,1,8,3:0:0:0:
186,296,136404,1,2,1:2:0:0:
313,106,136635,6,0,P|388:90|444:141,1,157.249999400139,6|0,0:0|0:0,0:0:0:0:
432,228,136981,1,2,0:2:0:0:
432,228,137096,2,0,L|507:206,1,78.6249997000694,8|0,0:0|0:0,0:0:0:0:
464,44,137327,1,2,0:2:0:0:
287,182,137558,6,0,P|300:219|330:245,1,78.6249997000694,4|0,1:2|0:0,0:0:0:0:
443,140,137789,1,2,0:0:0:0:
242,119,138019,2,0,P|216:148|209:186,1,78.6249997000694,4|0,1:2|0:0,0:0:0:0:
432,228,138250,1,2,0:0:0:0:
274,47,138481,6,0,B|227:32|192:59|192:59|162:51|162:51|94:59,1,157.249999400139,4|0,1:0|0:0,0:0:0:0:
44,68,138827,1,2,0:2:0:0:
44,68,138942,2,0,P|58:106|107:134,1,78.6249997000694,8|0,0:0|0:0,0:0:0:0:
58,201,139173,2,0,P|97:207|146:179,1,78.6249997000694,0|0,0:0|0:0,0:0:0:0:
268,148,139404,2,0,L|190:140,1,78.6249997000694,4|0,0:0|0:0,0:0:0:0:
274,47,139635,2,0,L|352:38,1,78.6249997000694,2|0,0:2|0:0,0:0:0:0:
340,252,139866,2,0,L|261:243,1,78.6249997000694,10|0,0:0|0:0,0:0:0:0:
345,150,140097,2,0,L|423:141,1,78.6249997000694,2|0,0:2|0:0,0:0:0:0:
411,355,140327,6,0,L|248:336,1,157.249999400139,4|0,0:0|0:0,0:0:0:0:
167,244,140673,1,0,0:2:0:0:
167,244,140789,2,0,L|176:323,1,78.6249997000694,8|0,0:0|0:0,0:0:0:0:
25,374,141019,2,0,L|100:348,1,78.6249997000694,2|0,0:0|0:0,0:0:0:0:
158,164,141250,2,0,P|121:178|95:207,1,78.6249997000694,6|0,0:0|0:0,0:0:0:0:
241,270,141481,2,0,P|245:231|230:196,1,78.6249997000694,2|0,0:0|0:0,0:0:0:0:
176,67,141712,2,0,P|160:102|164:141,1,78.6249997000694,8|0,0:0|0:0,0:0:0:0:
310,79,141942,2,0,P|284:49|247:36,1,78.6249997000694,2|0,0:0|0:0,0:0:0:0:
167,244,142173,6,0,B|242:269|242:269|336:232,1,157.249999400139,4|0,0:0|0:0,0:0:0:0:
237,112,142519,1,2,0:0:0:0:
237,112,142635,2,0,L|239:191,1,78.6249997000694,10|0,0:0|0:0,0:0:0:0:
244,349,142866,1,4,0:2:0:0:
244,349,143327,1,4,0:2:0:0:
343,78,143558,1,8,0:0:0:0:
158,164,143789,1,2,0:2:0:0:
428,263,144019,6,0,L|414:328,1,50.9999984436036,2|0,0:2|0:0,0:0:0:0:
287,283,144250,2,0,L|344:285,1,57.3750002188683,2|0,0:2|0:0,0:0:0:0:
376,149,144481,2,0,L|361:211,1,63.7500024318696,2|0,0:2|0:0,0:0:0:0:
218,180,144712,2,0,L|288:183,1,70.1250006687641,2|0,0:2|0:0,0:0:0:0:
322,34,144942,6,0,L|284:198,1,152.999995330811,2|0,0:2|0:0,0:0:0:0:
193,261,145289,1,2,0:2:0:0:
193,261,145404,2,0,L|270:258,1,76.4999976654053,8|0,0:0|0:0,0:0:0:0:
193,98,145635,1,2,0:2:0:0:
111,267,145866,6,0,P|149:332|251:321,1,152.999995330811,4|0,0:0|0:0,0:0:0:0:
302,188,146327,2,0,P|264:253|162:242,1,152.999995330811,8|0,0:0|0:0,0:0:0:0:
111,109,146789,2,0,P|149:174|251:163,1,152.999995330811,4|0,0:0|0:0,0:0:0:0:
302,30,147250,2,0,P|264:95|162:84,1,152.999995330811,8|0,0:0|0:0,0:0:0:0:
1,19,147712,6,0,P|81:33|111:109,1,170,4|0,1:2|0:0,0:0:0:0:
92,192,148058,1,2,0:2:0:0:
92,192,148173,2,0,P|135:191|171:170,1,85,10|0,0:0|0:0,0:0:0:0:
276,78,148404,2,0,P|255:114|256:157,1,85,0|0,0:0|0:0,0:0:0:0:
402,194,148635,2,0,P|422:157|345:49,1,170,4|0,0:3|0:0,0:0:0:0:
321,213,148981,1,2,0:2:0:0:
321,213,149096,2,0,L|335:327,1,85,8|0,0:0|0:0,0:0:0:0:
242,170,149327,2,0,L|228:284,1,85,2|0,0:2|0:0,0:0:0:0:
141,126,149558,6,0,L|164:313,1,170,4|0,0:0|0:0,0:0:0:0:
90,369,149904,1,2,0:2:0:0:
90,369,150019,2,0,P|86:293|162:295,1,170,10|0,0:3|0:0,0:0:0:0:
243,323,150366,1,0,0:0:0:0:
243,323,150481,2,0,B|293:333|293:333|365:318|365:318|416:329,1,170,6|0,0:0|0:0,0:0:0:0:
411,242,150827,1,0,0:0:0:0:
411,242,150942,2,0,B|368:232|368:232|321:242,1,85,8|0,0:0|0:0,0:0:0:0:
252,153,151173,2,0,B|294:162|294:162|341:153,1,85,2|0,0:2|0:0,0:0:0:0:
227,70,151404,5,2,1:2:0:0:
227,70,151519,2,0,P|191:91|170:128,1,85,2|0,0:2|0:0,0:0:0:0:
74,166,151750,2,0,P|110:186|131:223,1,85,2|0,0:2|1:0,0:0:0:0:
58,333,151981,2,0,L|49:249,1,85,2|0,0:2|0:0,0:0:0:0:
142,323,152212,1,2,0:2:0:0:
142,323,152327,2,0,L|321:302,2,170,2|0|8,1:2|0:0|3:0,0:0:0:0:
253,153,153019,1,2,1:2:0:0:
367,371,153250,6,0,P|391:336|331:218,1,170,6|0,0:0|0:0,0:0:0:0:
383,79,153596,1,2,0:2:0:0:
383,79,153712,2,0,P|380:120|402:157,1,85,8|0,0:0|0:0,0:0:0:0:
452,30,153942,1,2,0:2:0:0:
253,153,154173,6,0,L|169:148,1,85,4|0,1:2|0:0,0:0:0:0:
294,78,154404,1,2,0:0:0:0:
375,225,154635,2,0,L|460:220,1,85,4|0,1:2|0:0,0:0:0:0:
383,79,154866,1,2,0:0:0:0:
246,292,155096,6,0,L|47:279,1,170,4|0,1:0|0:0,0:0:0:0:
43,148,155442,1,2,0:2:0:0:
43,148,155558,2,0,P|66:183|105:200,1,85,8|0,0:0|0:0,0:0:0:0:
235,123,155789,2,0,P|221:162|189:189,1,85,0|0,0:0|0:0,0:0:0:0:
72,53,156019,2,0,P|55:134|105:200,1,170,4|2,0:0|0:2,0:0:0:0:
203,280,156366,1,0,0:0:0:0:
203,280,156481,2,0,B|161:270|161:270|122:287,1,85,10|0,0:0|0:0,0:0:0:0:
12,376,156712,2,0,B|53:385|53:385|92:368,1,85,2|0,0:2|0:0,0:0:0:0:
104,199,156942,6,0,L|93:376,1,170,4|0,0:0|0:0,0:0:0:0:
179,359,157289,1,0,0:2:0:0:
179,359,157404,2,0,B|220:368|220:368|259:351,1,85,8|0,0:0|0:0,0:0:0:0:
227,201,157635,1,2,0:0:0:0:
12,376,157866,1,6,0:0:0:0:
203,280,158096,1,2,0:0:0:0:
60,39,158327,1,8,0:0:0:0:
104,199,158558,1,2,0:0:0:0:
408,199,158789,6,0,L|505:199,1,85,4|0,0:0|0:0,0:0:0:0:
452,39,159019,1,0,0:0:0:0:
452,39,159135,2,0,L|452:124,1,85,2|10,0:0|0:0,0:0:0:0:
452,345,159481,1,4,0:2:0:0:
452,345,159942,5,4,0:2:0:0:
319,116,160173,1,8,0:0:0:0:
187,345,160404,1,2,0:2:0:0:
53,116,160635,6,0,P|90:94|132:93,1,85,2|0,0:2|0:0,0:0:0:0:
115,179,160866,2,0,P|151:200|193:201,1,85,2|0,0:2|0:0,0:0:0:0:
214,76,161096,2,0,P|250:54|292:53,1,85,2|0,0:2|0:0,0:0:0:0:
275,219,161327,2,0,P|311:240|353:241,1,85,2|0,0:2|0:0,0:0:0:0:
374,35,161558,6,0,P|410:13|537:72,1,170,2|0,0:2|0:0,0:0:0:0:
443,197,161904,1,2,0:2:0:0:
443,197,162019,2,0,L|443:112,1,85,8|0,0:0|0:0,0:0:0:0:
374,35,162250,1,2,0:2:0:0:
374,349,162481,6,0,P|410:370|537:312,1,170,4|0,0:0|0:0,0:0:0:0:
458,117,162942,2,0,P|484:196|444:268,1,170,8|0,0:0|0:0,0:0:0:0:
181,267,163404,2,0,P|217:288|344:230,1,170,4|0,0:0|0:0,0:0:0:0:
265,35,163865,2,0,P|291:113|250:185,1,170,8|0,0:0|0:0,0:0:0:0:
41,90,164327,6,0,L|194:105,1,152.999995330811,6|0,1:2|0:0,0:0:0:0:
106,208,164673,1,0,0:0:0:0:
106,208,164789,2,0,L|114:132,1,76.4999976654053,10|0,0:0|0:0,0:0:0:0:
201,28,165019,2,0,L|193:104,1,76.4999976654053,2|0,0:0|0:0,0:0:0:0:
32,238,165250,2,0,P|106:226|175:258,1,152.999995330811,4|2,0:3|0:0,0:0:0:0:
225,314,165596,1,0,0:0:0:0:
225,314,165712,2,0,P|262:325|300:319,1,76.4999976654053,10|0,0:0|0:0,0:0:0:0:
269,238,165942,2,0,P|287:271|318:293,1,76.4999976654053,2|0,0:0|0:0,0:0:0:0:
372,150,166173,6,0,P|332:214|348:287,1,152.999995330811,4|0,0:3|0:0,0:0:0:0:
417,369,166519,1,0,0:0:0:0:
417,369,166635,2,0,L|341:363,1,76.4999976654053,8|0,0:0|0:0,0:0:0:0:
435,232,166866,2,0,L|511:225,1,76.4999976654053,2|0,0:0|0:0,0:0:0:0:
503,376,167096,1,4,0:3:0:0:
450,153,167327,1,2,0:0:0:0:
212,285,167558,1,10,0:0:0:0:
435,232,167789,1,2,0:0:0:0:
170,221,168019,6,0,P|138:303|213:363,1,152.999995330811,4|0,0:3|0:0,0:0:0:0:
286,276,168366,1,2,0:2:0:0:
286,276,168481,2,0,P|242:216|169:222,1,152.999995330811,8|0,0:3|0:0,0:0:0:0:
81,200,168827,1,2,0:2:0:0:
80,200,168942,2,0,P|150:190|180:114,1,152.999995330811,4|0,0:3|0:0,0:0:0:0:
137,9,169289,1,2,0:2:0:0:
137,9,169404,2,0,B|90:17|80:65|80:65|106:128,1,152.999995330811,8|0,0:3|0:0,0:0:0:0:
205,49,169750,1,2,0:2:0:0:
205,49,169866,6,0,B|283:23|283:65|356:40,1,152.999995330811,4|0,0:0|0:0,0:0:0:0:
452,16,170212,1,0,0:0:0:0:
452,16,170327,2,0,L|417:110,1,76.4999976654053,8|0,0:0|0:0,0:0:0:0:
290,147,170558,2,0,L|365:135,1,76.4999976654053,2|0,0:0|0:0,0:0:0:0:
484,221,170789,2,0,L|436:162,1,76.4999976654053,4|0,0:0|0:0,0:0:0:0:
343,47,171019,1,2,1:3:0:0:
371,224,171250,1,2,1:3:0:0:
511,112,171481,1,2,0:2:0:0:
290,147,171712,6,0,B|257:119|257:119|148:119,1,152.999995330811,4|2,1:1|0:2,0:0:0:0:
160,207,172058,1,0,0:0:0:0:
160,207,172173,2,0,B|180:189|180:189|249:189,1,76.4999976654053,8|0,0:0|0:0,0:0:0:0:
278,278,172404,2,0,B|257:260|257:260|188:260,1,76.4999976654053,0|0,0:0|0:0,0:0:0:0:
90,359,172635,2,0,B|122:331|122:331|231:331,1,152.999995330811,4|2,0:0|0:0,0:0:0:0:
431,119,173096,2,0,B|398:148|398:148|289:148,1,152.999995330811,10|2,0:0|0:0,0:0:0:0:
211,51,173442,1,0,0:0:0:0:
211,51,173558,6,0,P|171:47|140:63,1,76.4999976654053,4|0,0:0|0:0,0:0:0:0:
159,176,173789,2,0,P|163:137|147:106,1,76.4999976654053,2|0,0:2|0:0,0:0:0:0:
86,0,174019,2,0,P|81:40|97:71,1,76.4999976654053,8|0,0:0|0:0,0:0:0:0:
34,125,174250,2,0,P|73:130|104:114,1,76.4999976654053,2|0,0:0|0:0,0:0:0:0:
211,51,174481,2,0,B|259:61|259:61|310:46|310:46|360:55,1,152.999995330811,4|0,0:0|0:0,0:0:0:0:
316,199,174827,1,2,0:0:0:0:
316,199,174942,2,0,L|313:123,1,76.4999976654053,8|0,0:0|0:0,0:0:0:0:
391,213,175173,2,0,L|466:227,1,76.4999976654053,0|0,0:0|0:0,0:0:0:0:
237,159,175404,6,0,P|169:186|147:257,1,152.999995330811,8|0,0:0|0:0,0:0:0:0:
99,343,175750,1,0,0:0:0:0:
99,343,175866,2,0,L|174:329,1,76.4999976654053,8|0,0:0|0:0,0:0:0:0:
233,248,176096,2,0,L|411:281,1,152.999995330811,4|0,0:0|0:0,0:0:0:0:
213,90,176558,2,0,L|90:112,1,76.4999976654053,4|0,0:0|0:0,0:0:0:0:
61,117,176789,2,0,P|63:79|84:48,1,76.4999976654053,8|0,0:0|0:0,0:0:0:0:
151,177,177019,2,0,P|149:215|130:248,1,76.4999976654053,2|0,0:0|0:0,0:0:0:0:
1,206,177250,6,0,L|159:176,1,152.999995330811,4|0,0:0|0:0,0:0:0:0:
225,221,177596,1,2,0:2:0:0:
225,221,177712,2,0,L|74:192,1,152.999995330811,8|0,0:0|0:0,0:0:0:0:
26,132,178058,1,0,0:0:0:0:
26,132,178173,2,0,L|176:160,1,152.999995330811,4|0,0:0|0:0,0:0:0:0:
250,117,178519,1,0,0:0:0:0:
250,117,178635,2,0,L|99:145,1,152.999995330811,8|0,0:0|0:0,0:0:0:0:
29,52,178981,1,0,0:0:0:0:
29,52,179096,6,0,L|137:72,1,76.4999976654053,0|0,1:0|0:0,0:0:0:0:
175,160,179327,2,0,L|99:145,1,76.4999976654053
64,20,179558,6,0,L|147:91,1,76.4999976654053,0|0,0:0|0:0,0:0:0:0:
141,192,179789,2,0,L|57:120,1,76.4999976654053,0|0,0:0|0:0,0:0:0:0:
110,9,180019,6,0,L|146:112,1,76.4999976654053,0|0,0:0|0:0,0:0:0:0:
95,203,180250,2,0,L|58:99,1,76.4999976654053,0|0,0:0|0:0,0:0:0:0:
155,22,180481,5,4,1:2:0:0:
187,55,180596,1,0,0:0:0:0:
198,99,180712,1,2,0:0:0:0:
341,19,180942,6,0,P|396:1|452:19,1,118.999996368408,4|0,0:0|0:0,0:0:0:0:
478,93,181289,1,2,0:0:0:0:
478,93,181404,2,0,L|390:99,1,59.4999981842042,2|0,0:0|0:0,0:0:0:0:
317,157,181635,1,2,0:0:0:0:
317,157,181750,2,0,L|377:162,1,59.4999981842042,2|0,0:0|0:0,0:0:0:0:
478,222,181981,1,0,0:0:0:0:
478,222,182096,2,0,L|418:226,1,59.4999981842042,0|0,0:0|0:0,0:0:0:0:
366,284,182327,1,2,0:0:0:0:
340,268,182442,1,2,0:0:0:0:
311,265,182558,2,0,L|251:269,1,59.4999981842042,2|0,0:0|0:0,0:0:0:0:
144,287,182789,6,0,P|201:298|252:269,1,118.999996368408,6|0,1:2|0:0,0:0:0:0:
187,163,183135,1,2,0:0:0:0:
187,163,183250,2,0,P|182:192|188:222,1,59.4999981842042,2|0,0:0|0:0,0:0:0:0:
112,138,183481,1,2,0:0:0:0:
112,138,183596,2,0,P|93:161|83:188,1,59.4999981842042,2|0,0:0|0:0,0:0:0:0:
59,78,183827,1,2,0:0:0:0:
59,78,183942,2,0,P|31:88|8:107,1,59.4999981842042,2|0,0:0|0:0,0:0:0:0:
137,62,184173,1,2,0:0:0:0:
175,75,184289,1,2,0:0:0:0:
212,87,184404,2,0,P|242:85|268:72,1,59.4999981842042,2|0,0:0|0:0,0:0:0:0:
228,166,184635,6,0,P|279:193|368:162,1,118.999996368408,0|0,1:0|0:0,0:0:0:0:
431,118,184981,1,2,0:0:0:0:
431,118,185096,2,0,L|415:176,1,59.4999981842042,2|0,0:0|0:0,0:0:0:0:
329,267,185327,2,0,L|386:252,1,59.4999981842042,2|0,0:0|0:0,0:0:0:0:
509,281,185558,1,2,0:0:0:0:
509,281,185673,2,0,L|467:238,1,59.4999981842042,2|0,0:0|0:0,0:0:0:0:
409,327,185904,1,2,0:0:0:0:
409,327,186019,2,0,P|467:322|509:280,1,118.999996368408,2|0,0:0|0:0,0:0:0:0:
394,208,186366,1,2,0:0:0:0:
394,208,186481,6,0,L|409:326,1,118.999996368408,2|0,1:2|0:0,0:0:0:0:
314,238,186827,1,2,0:0:0:0:
314,238,186942,2,0,L|304:312,1,59.4999981842042,2|0,0:0|0:0,0:0:0:0:
230,146,187173,1,2,0:3:0:0:
230,146,187288,2,0,L|220:71,1,59.4999981842042,2|0,0:3|0:0,0:0:0:0:
226,234,187519,1,2,0:3:0:0:
226,234,187635,2,0,L|151:224,1,59.4999981842042,2|0,0:0|0:0,0:0:0:0:
318,150,187865,1,2,1:2:0:0:
318,150,187981,2,0,L|377:142,1,59.4999981842042,2|0,1:2|0:0,0:0:0:0:
303,31,188212,1,0,0:0:0:0:
303,31,188328,6,0,L|319:161,1,118.999996368408,2|0,1:2|0:0,0:0:0:0:
226,234,188673,1,2,0:0:0:0:
226,234,188789,2,0,L|304:223,1,59.4999981842042,0|0,1:0|0:0,0:0:0:0:
436,165,189019,2,0,L|317:149,1,118.999996368408,2|0,0:0|1:0,0:0:0:0:
364,250,189366,1,2,0:0:0:0:
364,250,189481,2,0,L|442:239,1,59.4999981842042,0|0,0:0|0:0,0:0:0:0:
493,151,189712,2,0,L|470:205,1,59.4999981842042,2|0,1:2|0:0,0:0:0:0:
512,312,189942,2,0,L|475:264,1,59.4999981842042,2|0,0:0|0:0,0:0:0:0:
368,123,190173,6,0,L|404:170,1,59.4999981842042,0|0,1:2|0:0,0:0:0:0:
309,227,190404,1,2,0:0:0:0:
309,227,190519,2,0,L|363:249,1,59.4999981842042,2|0,0:0|1:0,0:0:0:0:
278,343,190750,1,2,0:0:0:0:
278,343,190866,2,0,L|336:335,1,59.4999981842042,2|0,0:0|0:0,0:0:0:0:
236,270,191096,2,0,L|178:262,1,59.4999981842042,2|0,1:2|0:0,0:0:0:0:
125,327,191327,2,0,L|67:335,1,59.4999981842042,2|0,0:0|0:0,0:0:0:0:
92,191,191558,2,0,L|100:249,1,59.4999981842042,0|0,1:0|0:0,0:0:0:0:
201,341,191789,1,2,0:0:0:0:
250,152,192019,6,0,L|309:145,2,59.4999981842042,2|0|0,0:0|0:0|0:0,0:0:0:0:
379,253,192366,2,0,L|393:135,1,118.999996368408,2|0,0:0|0:0,0:0:0:0:
333,10,192712,2,0,L|340:70,2,59.4999981842042,2|0|0,0:0|0:0|0:0,0:0:0:0:
482,67,193058,2,0,L|423:61,1,59.4999981842042,2|0,0:0|0:0,0:0:0:0:
333,142,193289,1,2,0:0:0:0:
333,142,193404,2,0,L|392:135,1,59.4999981842042,2|0,1:2|0:0,0:0:0:0:
302,214,193635,2,0,L|243:208,1,59.4999981842042,2|0,1:2|0:0,0:0:0:0:
95,295,193866,5,8,0:3:0:0:
125,291,193981,1,8,0:3:0:0:
154,288,194096,1,0,0:0:0:0:
184,285,194212,1,8,0:3:0:0:
213,281,194327,2,0,L|272:287,1,59.4999981842042,4|0,0:3|0:0,0:0:0:0:
227,162,194558,2,0,L|213:280,1,118.999996368408,6|0,0:2|0:0,0:0:0:0:
84,218,194904,2,0,L|143:212,1,59.4999981842042,4|2,0:1|0:0,0:0:0:0:
