osu file format v14

[General]
AudioFilename: audio.mp3
AudioLeadIn: 0
PreviewTime: 62673
Countdown: 0
SampleSet: None
StackLeniency: 0.7
Mode: 0
LetterboxInBreaks: 0
WidescreenStoryboard: 0

[Editor]
Bookmarks: 63366
DistanceSpacing: 1.6
BeatDivisor: 4
GridSize: 4
TimelineZoom: 1.8

[Metadata]
Title:Candy Luv
TitleUnicode:Candy Luv
Artist:IAHN
ArtistUnicode:IAHN
Creator:Monstrata
Version:Insane
Source:
Tags:rizen love a_q_p_w osu monthly beatmap mapping contest 12 twelve
BeatmapID:1046489
BeatmapSetID:491033

[Difficulty]
HPDrainRate:5
CircleSize:4
OverallDifficulty:7
ApproachRate:8.4
SliderMultiplier:2.4
SliderTickRate:2

[Events]
//Background and Video events
0,0,"Konachan.com - 201213 sample.jpg",0,0
//Break Periods
2,101757,115637
//Storyboard Layer 0 (Background)
//Storyboard Layer 1 (Fail)
//Storyboard Layer 2 (Pass)
//Storyboard Layer 3 (Foreground)
//Storyboard Sound Samples

[TimingPoints]
1866,461.538461538462,4,2,0,75,1,0
1866,-166.666666666667,4,2,0,75,0,0
2558,-166.666666666667,4,2,0,60,0,0
3712,-166.666666666667,4,2,0,75,0,0
4404,-166.666666666667,4,2,0,60,0,0
5558,-166.666666666667,4,2,0,75,0,0
6250,-166.666666666667,4,2,0,60,0,0
7404,-166.666666666667,4,2,0,55,0,0
7866,-166.666666666667,4,2,0,60,0,0
9250,-142.857142857143,4,2,0,50,0,0
12942,-133.333333333333,4,2,0,55,0,0
13866,-133.333333333333,4,2,0,30,0,0
14096,-133.333333333333,4,2,0,40,0,0
14327,-133.333333333333,4,2,0,50,0,0
14558,-133.333333333333,4,2,0,60,0,0
14789,-125,4,3,0,50,0,0
16635,-111.111111111111,4,3,0,60,0,0
30019,-111.111111111111,4,3,0,58,0,0
30481,-111.111111111111,4,3,0,56,0,0
30827,-111.111111111111,4,3,0,54,0,0
31404,-142.857142857143,4,3,0,50,0,0
31866,-142.857142857143,4,3,0,55,0,0
32096,-142.857142857143,4,3,0,65,0,0
32327,-142.857142857143,4,3,0,70,0,0
33019,-142.857142857143,4,3,0,35,0,0
33250,-142.857142857143,4,2,0,65,0,0
39712,-142.857142857143,4,2,0,75,0,0
40635,-142.857142857143,4,2,0,65,0,0
48019,-125,4,3,0,70,0,0
54712,-142.857142857143,4,2,0,50,0,0
55404,-125,4,3,0,70,0,0
62442,-125,4,3,0,50,0,0
62789,-111.111111111111,4,3,0,75,0,1
66481,-111.111111111111,4,3,0,90,0,1
67866,-111.111111111111,4,3,0,75,0,1
77558,-133.333333333333,4,3,0,50,0,0
81250,-133.333333333333,4,3,0,60,0,0
82173,-133.333333333333,4,2,0,60,0,0
83096,-111.111111111111,4,3,0,70,0,0
83558,-111.111111111111,4,3,0,80,0,0
84019,-111.111111111111,4,3,0,90,0,0
84481,-111.111111111111,4,3,0,100,0,0
84942,-133.333333333333,4,3,0,100,0,0
86327,-111.111111111111,4,3,0,35,0,0
86789,-111.111111111111,4,3,0,70,0,0
100981,-86.9565217391304,4,1,0,35,0,0
101096,-86.9565217391304,4,1,0,30,0,0
101212,-86.9565217391304,4,1,0,25,0,0
101327,-86.9565217391304,4,1,0,20,0,0
101442,-86.9565217391304,4,1,0,15,0,0
101558,-86.9565217391304,4,1,0,50,0,0
116327,-125,4,3,0,70,0,0
131096,-108.108108108108,4,3,0,75,0,1
134789,-108.108108108108,4,3,0,90,0,1
136173,-108.108108108108,4,3,0,75,0,1
144019,-108.108108108108,4,2,0,100,0,1
144942,-108.108108108108,4,3,0,75,0,1
145866,-108.108108108108,4,3,0,75,0,0
147712,-100,4,3,0,80,0,1
164327,-111.111111111111,4,3,0,60,0,0
179096,-111.111111111111,4,3,0,40,0,0
179558,-111.111111111111,4,3,0,55,0,0
180019,-111.111111111111,4,3,0,70,0,0
180481,-111.111111111111,4,3,0,85,0,0
180942,-142.857142857143,4,2,0,60,0,0
188327,-142.857142857143,4,2,0,70,0,0

[Colours]
Combo1 : 89,255,255
Combo2 : 255,162,255
Combo3 : 30,142,255
Combo4 : 251,13,125

[HitObjects]
30,72,1866,6,0,L|41:174,1,71.9999978027344,4|0,3:2|0:0,0:0:0:0:
175,160,2327,1,2,0:0:0:0:
113,101,2558,2,0,L|120:29,1,71.9999978027344,0|0,3:0|0:0,0:0:0:0:
258,13,3019,1,0,0:0:0:0:
196,72,3250,2,0,L|207:174,1,71.9999978027344,0|2,0:0|0:0,0:0:0:0:
295,251,3712,6,0,P|293:215|276:183,1,71.9999978027344,4|0,0:0|0:0,0:0:0:0:
258,13,4173,1,2,0:0:0:0:
274,95,4404,2,0,P|305:111|341:112,1,71.9999978027344,0|0,3:0|0:0,0:0:0:0:
498,181,4865,1,0,0:0:0:0:
419,154,5096,2,0,P|388:172|369:203,1,71.9999978027344,0|2,0:0|0:0,0:0:0:0:
217,251,5558,6,0,P|188:279|132:293,1,71.9999978027344,4|0,3:2|0:0,0:0:0:0:
293,169,6019,1,2,0:0:0:0:
295,251,6250,2,0,P|324:279|380:293,1,71.9999978027344,0|0,3:0|0:0,0:0:0:0:
219,169,6712,1,0,0:0:0:0:
256,320,6942,2,0,L|256:368,2,35.9999989013672,0|0|2,0:0|0:0|0:0,0:0:0:0:
256,104,7404,6,0,L|256:32,1,71.9999978027344,4|0,1:2|0:0,0:0:0:0:
212,234,7866,1,2,0:0:0:0:
325,153,8096,2,0,L|393:130,1,71.9999978027344,0|0,3:0|0:0,0:0:0:0:
186,152,8558,1,0,0:0:0:0:
299,233,8789,2,0,P|334:235|368:224,1,71.9999978027344,0|2,1:0|0:0,0:0:0:0:
350,71,9250,6,0,P|314:67|267:91,1,83.9999974365235,2|0,0:0|0:0,0:0:0:0:
150,179,9712,2,0,P|191:182|228:163,1,83.9999974365235,8|0,0:0|0:0,0:0:0:0:
171,11,10173,2,0,L|175:95,1,83.9999974365235,0|0,0:0|0:0,0:0:0:0:
299,233,10635,1,8,0:0:0:0:
271,86,10866,1,0,0:0:0:0:
238,291,11096,6,0,P|272:313|317:316,1,83.9999974365235,2|0,0:0|0:0,0:0:0:0:
375,207,11558,2,0,P|341:229|296:232,1,83.9999974365235,8|0,0:0|0:0,0:0:0:0:
238,123,12019,2,0,P|273:145|314:148,1,83.9999974365235,0|0,0:0|0:0,0:0:0:0:
206,43,12481,1,10,0:0:0:0:
168,189,12712,1,2,0:0:0:0:
308,57,12942,6,0,L|413:68,1,90.0000034332277,0|0,0:0|0:0,0:0:0:0:
486,75,13404,1,8,0:0:0:0:
382,221,13635,2,0,L|338:123,1,90.0000034332277,0|2,0:0|0:0,0:0:0:0:
308,57,14096,1,2,0:0:0:0:
167,120,14327,1,2,0:0:0:0:
189,122,14442,1,0,0:0:0:0:
211,124,14557,1,2,0:0:0:0:
234,127,14673,1,0,0:0:0:0:
256,129,14789,6,0,L|288:202,1,48,8|0,0:3|0:0,0:0:0:0:
320,269,15019,2,0,L|247:237,1,48,4|0,0:0|0:0,0:0:0:0:
167,120,15250,2,0,L|179:198,1,48,4|2,0:0|0:0,0:0:0:0:
192,271,15480,2,0,L|129:221,1,48,8|0,0:0|0:0,0:0:0:0:
83,88,15712,5,4,0:0:0:0:
80,111,15827,1,0,0:0:0:0:
77,135,15942,1,4,0:0:0:0:
75,159,16058,1,4,0:0:0:0:
72,183,16173,2,0,B|98:253|47:253|73:329,1,144,4|0,0:1|0:0,0:0:0:0:
136,361,16635,6,0,L|258:351,1,107.999996704102,6|0,0:0|0:0,0:0:0:0:
288,291,16981,1,0,0:0:0:0:
288,291,17096,2,0,L|410:301,1,107.999996704102,10|2,0:0|0:0,0:0:0:0:
360,83,17558,1,4,0:3:0:0:
349,203,17788,1,2,0:0:0:0:
470,213,18019,1,10,0:0:0:0:
480,93,18250,1,2,0:0:0:0:
296,136,18481,6,0,P|242:131|187:81,1,107.999996704102,4|0,0:3|0:0,0:0:0:0:
109,40,18827,1,0,0:0:0:0:
109,40,18942,2,0,L|132:165,1,107.999996704102,8|2,0:0|0:0,0:0:0:0:
271,241,19404,1,4,0:3:0:0:
246,123,19634,1,2,0:0:0:0:
158,340,19866,2,0,L|283:316,1,107.999996704102,10|2,0:0|0:0,0:0:0:0:
317,169,20327,5,4,0:3:0:0:
199,194,20557,1,0,0:0:0:0:
356,245,20789,2,0,P|398:192|392:130,1,107.999996704102,8|0,0:3|0:0,0:0:0:0:
310,61,21250,2,0,L|318:193,1,107.999996704102,4|0,0:3|0:0,0:0:0:0:
225,311,21712,1,8,0:3:0:0:
199,194,21942,1,0,0:0:0:0:
329,351,22173,6,0,B|383:363|383:363|433:346,1,107.999996704102,4|0,0:0|0:0,0:0:0:0:
427,272,22519,1,0,0:0:0:0:
427,272,22635,2,0,B|376:288|376:288|322:276,1,107.999996704102,8|2,0:0|0:0,0:0:0:0:
365,87,23096,1,4,0:0:0:0:
373,214,23327,6,0,L|369:160,1,53.9999983520508,2|0,1:3|0:0,0:0:0:0:
259,157,23558,2,0,L|303:127,1,53.9999983520508,2|0,1:3|0:0,0:0:0:0:
251,29,23789,2,0,L|299:53,1,53.9999983520508,2|0,0:2|0:0,0:0:0:0:
293,234,24019,6,0,P|333:287|390:297,1,107.999996704102,4|2,1:1|0:2,0:0:0:0:
445,262,24366,1,0,0:0:0:0:
445,262,24481,2,0,B|451:316|451:316|423:367,1,107.999996704102,8|0,0:0|0:0,0:0:0:0:
373,214,24942,1,4,0:0:0:0:
493,190,25173,1,2,0:0:0:0:
301,166,25404,1,10,0:0:0:0:
421,142,25635,1,2,0:0:0:0:
325,286,25866,6,0,P|275:265|223:273,1,107.999996704102,4|2,0:0|0:2,0:0:0:0:
121,265,26212,1,0,0:0:0:0:
121,265,26327,2,0,P|163:232|183:183,1,107.999996704102,8|2,0:0|0:0,0:0:0:0:
28,6,26789,1,4,0:0:0:0:
87,174,27019,1,0,0:0:0:0:
202,38,27250,2,0,L|71:86,1,107.999996704102,8|0,0:0|0:0,0:0:0:0:
19,302,27712,6,0,L|120:264,1,107.999996704102,8|0,0:0|0:0,0:0:0:0:
87,174,28173,1,8,0:0:0:0:
153,355,28404,1,4,0:0:0:0:
153,355,28866,5,4,0:0:0:0:
205,169,29096,1,8,0:0:0:0:
53,288,29327,1,2,0:0:0:0:
245,281,29558,6,0,L|375:275,1,107.999996704102,4|0,0:0|0:0,0:0:0:0:
399,216,29904,1,2,0:2:0:0:
399,216,30019,2,0,L|492:219,1,53.9999983520508,8|0,0:0|0:0,0:0:0:0:
437,141,30250,2,0,L|486:61,1,53.9999983520508,0|0,0:0|0:0,0:0:0:0:
390,69,30481,2,0,P|350:35|297:27,1,107.999996704102,4|0,0:0|0:0,0:0:0:0:
121,69,30942,2,0,P|161:35|214:27,1,107.999996704102,8|0,0:0|0:0,0:0:0:0:
256,192,31404,5,0,1:0:0:0:
256,213,31519,1,0,0:0:0:0:
256,234,31634,1,0,1:0:0:0:
256,255,31750,1,0,1:0:0:0:
256,276,31865,1,0,1:0:0:0:
145,311,32096,5,0,1:0:0:0:
159,296,32211,1,0,1:0:0:0:
174,281,32327,2,0,L|162:210,1,41.9999987182618,0|0,1:0|0:0,0:0:0:0:
85,223,32558,2,0,L|97:152,1,41.9999987182618,0|0,1:0|0:0,0:0:0:0:
204,128,32789,2,0,L|133:140,1,41.9999987182618,4|0,1:2|0:0,0:0:0:0:
54,76,33019,2,0,L|125:88,1,41.9999987182618,2|2,0:0|0:0,0:0:0:0:
222,52,33250,6,0,P|276:96|261:179,1,125.999996154785,4|0,0:2|0:0,0:0:0:0:
252,228,33712,2,0,L|334:214,1,83.9999974365235,2|0,3:0|0:0,0:0:0:0:
370,146,34058,1,2,0:3:0:0:
370,146,34173,2,0,P|410:202|374:278,1,125.999996154785,2|0,3:0|0:0,0:0:0:0:
353,323,34635,2,0,L|436:330,1,83.9999974365235,2|0,3:0|0:0,0:0:0:0:
483,261,34981,1,2,0:3:0:0:
483,261,35096,6,0,L|399:253,1,83.9999974365235,2|0,0:0|0:0,0:0:0:0:
341,191,35442,1,2,0:3:0:0:
341,191,35558,2,0,L|283:196,1,41.9999987182618,2|0,3:0|0:0,0:0:0:0:
243,132,35789,2,0,L|185:126,1,41.9999987182618,2|0,0:3|0:0,0:0:0:0:
143,188,36019,1,2,3:0:0:0:
245,48,36250,1,2,0:0:0:0:
241,246,36481,2,0,L|238:346,1,83.9999974365235,2|0,0:0|0:0,0:0:0:0:
323,292,36827,1,2,0:0:0:0:
323,292,36942,6,0,L|417:294,1,83.9999974365235,2|0,3:0|0:0,0:0:0:0:
369,210,37289,1,2,0:3:0:0:
369,210,37404,2,0,L|370:159,1,41.9999987182618,2|0,3:0|0:0,0:0:0:0:
290,96,37635,2,0,P|300:121|301:146,1,41.9999987182618,2|0,0:0|0:0,0:0:0:0:
284,250,37866,2,0,L|298:201,1,41.9999987182618,2|0,3:0|0:0,0:0:0:0:
381,54,38096,2,0,L|366:102,1,41.9999987182618,6|0,0:0|0:0,0:0:0:0:
448,190,38327,1,2,3:0:0:0:
448,190,38442,2,0,L|497:178,1,41.9999987182618,2|0,0:0|0:0,0:0:0:0:
425,273,38673,1,0,0:0:0:0:
425,273,38789,6,0,L|506:253,1,83.9999974365235,2|0,3:3|0:0,0:0:0:0:
448,190,39135,2,0,L|366:209,1,83.9999974365235,2|0,0:3|0:0,0:0:0:0:
471,107,39481,1,2,0:3:0:0:
425,273,39712,2,0,L|445:354,1,83.9999974365235,2|0,0:0|0:0,0:0:0:0:
358,152,40173,2,0,L|338:233,1,83.9999974365235,2|0,0:0|0:0,0:0:0:0:
250,31,40635,6,0,L|265:94,1,41.9999987182618,2|0,3:0|0:0,0:0:0:0:
201,132,40866,1,2,0:3:0:0:
201,132,40981,2,0,L|191:172,1,41.9999987182618,2|0,0:3|0:0,0:0:0:0:
130,232,41212,1,2,0:3:0:0:
130,232,41327,2,0,L|141:273,1,41.9999987182618,2|0,0:3|0:0,0:0:0:0:
162,354,41558,2,0,P|201:332|216:240,1,125.999996154785,0|0,3:0|0:0,0:0:0:0:
309,208,42019,2,0,L|292:327,1,83.9999974365235,2|2,0:0|0:0,0:0:0:0:
338,364,42366,1,2,0:0:0:0:
338,364,42481,6,0,L|457:381,1,83.9999974365235,2|0,3:0|0:0,0:0:0:0:
480,316,42827,1,2,0:3:0:0:
480,316,42942,2,0,P|498:338|506:369,1,41.9999987182618,2|0,0:3|0:0,0:0:0:0:
471,239,43173,2,0,P|491:240|511:247,1,41.9999987182618,2|0,0:3|0:0,0:0:0:0:
409,191,43404,2,0,P|443:166|484:162,1,83.9999974365235,2|0,3:3|0:0,0:0:0:0:
302,84,43866,2,0,P|327:117|331:159,1,83.9999974365235,2|0,0:0|0:0,0:0:0:0:
343,244,44212,1,0,0:0:0:0:
343,244,44327,6,0,L|232:229,1,83.9999974365235,2|0,0:0|0:0,0:0:0:0:
175,222,44673,1,2,0:0:0:0:
175,222,44789,2,8,L|217:325,1,83.9999974365235,2|2,3:0|0:0,0:0:0:0:
226,155,45250,1,2,3:0:0:0:
124,289,45481,1,2,0:0:0:0:
292,311,45712,1,2,3:0:0:0:
292,311,45827,2,0,L|334:316,1,41.9999987182618,2|0,0:0|0:0,0:0:0:0:
383,248,46058,1,0,0:0:0:0:
383,248,46173,6,0,L|467:236,1,83.9999974365235,10|0,3:2|0:0,0:0:0:0:
488,68,46519,2,0,L|477:153,1,83.9999974365235,8|0,3:2|0:0,0:0:0:0:
351,168,46866,2,0,L|393:163,1,41.9999987182618,10|0,3:2|0:0,0:0:0:0:
373,0,47096,2,0,L|362:85,1,83.9999974365235,0|0,1:0|0:0,0:0:0:0:
329,335,47558,2,0,L|340:250,1,83.9999974365235,4|0,1:3|0:0,0:0:0:0:
172,144,48019,6,0,L|267:156,1,96,4|0,1:0|0:0,0:0:0:0:
271,65,48366,1,2,0:0:0:0:
271,65,48481,2,0,L|175:52,1,96,8|0,0:0|0:0,0:0:0:0:
94,96,48827,1,0,0:0:0:0:
94,96,48942,2,0,P|79:149|97:197,1,96,4|0,0:0|0:0,0:0:0:0:
53,336,49404,2,0,P|97:320|143:332,1,96,8|0,0:0|0:0,0:0:0:0:
212,296,49750,1,0,0:0:0:0:
212,296,49866,6,0,P|258:307|302:292,1,96,4|0,0:0|0:0,0:0:0:0:
341,65,50327,1,8,0:0:0:0:
255,219,50558,1,0,0:0:0:0:
431,216,50789,1,4,0:0:0:0:
256,118,51019,6,0,L|298:142,1,48,2|0,0:2|0:0,0:0:0:0:
342,264,51250,2,0,L|342:217,1,48,2|0,0:2|0:0,0:0:0:0:
425,116,51481,2,0,L|384:141,1,48,2|0,0:2|0:0,0:0:0:0:
296,334,51712,6,0,P|342:346|387:332,1,96,4|0,0:0|0:0,0:0:0:0:
255,219,52173,1,8,0:0:0:0:
180,375,52404,1,2,0:0:0:0:
83,233,52635,2,0,P|37:220|-7:234,1,96,4|0,0:0|0:0,0:0:0:0:
173,276,53096,1,8,0:0:0:0:
75,133,53327,1,2,0:0:0:0:
91,333,53558,6,0,B|122:369|122:369|199:382,1,96,4|0,0:0|0:0,0:0:0:0:
255,219,54019,2,0,B|224:183|224:183|147:170,1,96,8|0,0:0|0:0,0:0:0:0:
263,319,54481,1,0,1:0:0:0:
214,100,54712,2,0,P|290:55|295:146,1,209.999993591309,4|0,1:2|0:0,0:0:0:0:
255,219,55404,6,0,B|377:218,1,96,4|0,1:2|0:0,0:0:0:0:
508,285,55866,2,0,B|412:285,1,96,8|0,0:0|0:0,0:0:0:0:
245,198,56327,2,0,B|367:197,1,96,4|0,0:0|0:0,0:0:0:0:
498,264,56789,2,0,B|402:264,1,96,8|0,0:0|0:0,0:0:0:0:
235,177,57250,6,0,P|282:183|329:176,1,96,4|0,0:0|0:0,0:0:0:0:
407,110,57596,1,2,0:0:0:0:
407,110,57712,2,0,B|400:206,1,96,8|2,0:0|0:0,0:0:0:0:
290,47,58173,1,4,0:0:0:0:
481,30,58404,1,0,0:0:0:0:
481,30,58519,1,0,0:0:0:0:
481,30,58635,2,0,B|476:82,1,48,10|0,0:0|0:0,0:0:0:0:
407,110,58866,2,0,B|411:158,1,48,2|0,0:0|0:0,0:0:0:0:
511,246,59096,6,0,B|482:231|482:231|418:237,1,96,6|0,0:0|0:0,0:0:0:0:
360,295,59442,1,2,0:2:0:0:
360,295,59558,2,0,B|296:301,1,48,8|0,0:0|0:0,0:0:0:0:
243,383,59789,2,0,B|291:379,1,48,2|0,0:2|0:0,0:0:0:0:
407,309,60019,6,0,B|295:298,1,96,4|0,0:0|0:0,0:0:0:0:
229,238,60366,1,2,0:2:0:0:
229,238,60481,2,0,B|234:286,1,48,8|0,0:0|0:0,0:0:0:0:
155,357,60712,2,0,B|160:310,1,48,2|0,0:2|0:0,0:0:0:0:
243,190,60942,6,0,B|233:288,1,96,4|0,0:0|0:0,0:0:0:0:
278,354,61289,1,2,0:2:0:0:
278,354,61404,2,0,B|325:358,1,48,8|0,0:0|0:0,0:0:0:0:
416,289,61635,2,0,B|368:293,1,48,4|0,0:0|0:0,0:0:0:0:
472,359,61866,5,8,1:3:0:0:
472,359,61981,1,0,1:0:0:0:
472,359,62096,1,4,2:3:0:0:
422,195,62327,1,8,0:0:0:0:
422,171,62442,1,4,0:0:0:0:
428,147,62557,1,4,0:0:0:0:
439,126,62673,1,4,0:0:0:0:
454,108,62789,6,0,B|419:123|419:123|325:113,1,107.999996704102,4|0,1:2|0:0,0:0:0:0:
317,202,63135,1,2,0:2:0:0:
317,202,63250,2,0,B|352:187|352:187|421:194,1,107.999996704102,10|0,0:0|0:0,0:0:0:0:
263,266,63712,2,0,P|235:206|246:159,1,107.999996704102,4|0,0:3|0:0,0:0:0:0:
165,80,64058,1,2,0:2:0:0:
165,80,64173,2,0,L|173:159,1,53.9999983520508,8|0,0:0|0:0,0:0:0:0:
91,174,64404,2,0,L|152:224,1,53.9999983520508,2|0,0:2|0:0,0:0:0:0:
51,297,64635,6,0,L|158:286,1,107.999996704102,4|0,0:0|0:0,0:0:0:0:
230,366,64981,1,2,0:2:0:0:
230,366,65096,2,0,L|337:376,1,107.999996704102,10|0,0:3|0:0,0:0:0:0:
301,182,65558,2,0,L|291:290,1,107.999996704102,6|0,0:0|0:0,0:0:0:0:
380,302,65904,1,0,0:0:0:0:
380,302,66019,2,0,P|405:309|432:306,1,53.9999983520508,8|0,0:0|0:0,0:0:0:0:
454,197,66250,2,0,P|437:217|413:230,1,53.9999983520508,2|0,0:2|0:0,0:0:0:0:
349,117,66481,5,2,1:2:0:0:
349,117,66596,2,0,P|361:140|382:157,1,53.9999983520508,2|0,0:2|0:0,0:0:0:0:
429,83,66827,2,0,P|442:61|446:34,1,53.9999983520508,2|0,0:2|1:0,0:0:0:0:
360,30,67058,2,0,P|333:29|308:39,1,53.9999983520508,2|0,0:2|0:0,0:0:0:0:
223,20,67289,1,2,0:2:0:0:
223,20,67404,2,0,L|243:147,1,107.999996704102,2|0,1:2|0:0,0:0:0:0:
337,236,67866,1,8,3:0:0:0:
349,117,68096,1,2,1:2:0:0:
227,245,68327,6,0,B|173:257|173:257|104:231,1,107.999996704102,6|0,0:0|0:0,0:0:0:0:
128,164,68673,1,2,0:2:0:0:
128,164,68789,2,0,B|177:182|177:182|231:170,1,107.999996704102,8|2,0:0|0:2,0:0:0:0:
223,20,69250,1,4,1:2:0:0:
83,102,69481,1,2,0:0:0:0:
265,248,69712,1,4,1:2:0:0:
183,108,69943,1,2,0:0:0:0:
225,336,70173,6,0,P|288:344|335:316,1,107.999996704102,4|0,1:0|0:0,0:0:0:0:
361,245,70519,1,2,0:2:0:0:
361,245,70635,2,0,P|409:266|462:256,1,107.999996704102,8|0,0:0|0:0,0:0:0:0:
284,96,71096,2,0,P|231:86|182:107,1,107.999996704102,4|2,0:0|0:2,0:0:0:0:
361,245,71558,1,10,0:0:0:0:
380,93,71789,1,2,0:2:0:0:
265,248,72019,6,0,B|228:258|228:258|126:243,1,107.999996704102,4|0,0:0|0:0,0:0:0:0:
117,168,72366,1,0,0:2:0:0:
117,168,72481,2,0,L|249:187,1,107.999996704102,8|2,0:0|0:0,0:0:0:0:
380,93,72942,2,0,P|401:73|433:59,1,53.9999983520508,6|0,0:0|0:0,0:0:0:0:
445,137,73173,2,0,P|470:150|493:176,1,53.9999983520508,2|0,0:0|0:0,0:0:0:0:
424,212,73404,2,0,P|418:240|401:270,1,53.9999983520508,8|0,0:0|0:0,0:0:0:0:
346,214,73635,2,0,P|317:217|283:210,1,53.9999983520508,2|0,0:0|0:0,0:0:0:0:
319,141,73866,6,0,P|305:112|345:23,1,107.999996704102,4|0,0:0|0:0,0:0:0:0:
214,24,74212,1,2,0:0:0:0:
214,24,74327,2,0,L|232:113,1,53.9999983520508,10|0,0:0|0:0,0:0:0:0:
263,266,74558,1,4,0:2:0:0:
263,266,75019,1,4,0:2:0:0:
424,119,75250,2,0,L|288:146,1,107.999996704102,8|2,0:0|0:2,0:0:0:0:
390,322,75712,5,2,0:2:0:0:
445,195,75942,1,2,0:2:0:0:
263,266,76173,1,2,0:2:0:0:
318,140,76404,1,2,0:2:0:0:
390,322,76635,2,0,L|495:300,1,107.999996704102,2|0,0:2|0:0,0:0:0:0:
448,178,76981,1,2,0:2:0:0:
448,178,77096,2,0,L|433:250,1,53.9999983520508,8|0,0:0|0:0,0:0:0:0:
355,129,77327,2,0,L|369:201,1,53.9999983520508,2|0,0:2|0:0,0:0:0:0:
282,79,77558,6,0,L|264:169,1,90.0000034332277,4|0,0:0|0:0,0:0:0:0:
100,199,78019,2,0,L|189:217,1,90.0000034332277,8|0,0:0|0:0,0:0:0:0:
220,380,78481,2,0,L|237:291,1,90.0000034332277,4|0,0:0|0:0,0:0:0:0:
400,260,78942,2,0,L|311:242,1,90.0000034332277,8|0,0:0|0:0,0:0:0:0:
282,79,79404,6,0,P|295:121|347:158,1,90.0000034332277,4|0,1:2|0:0,0:0:0:0:
415,1,79866,2,0,P|402:44|369:74,1,90.0000034332277,8|0,1:3|0:0,0:0:0:0:
250,83,80327,6,0,P|273:120|333:142,1,90.0000034332277,4|0,1:3|0:0,0:0:0:0:
447,5,80789,2,0,P|423:42|363:64,1,90.0000034332277,8|0,1:3|0:0,0:0:0:0:
220,95,81250,6,0,P|252:125|315:130,1,90.0000034332277,4|0,1:3|0:0,0:0:0:0:
477,17,81712,2,0,P|444:47|381:52,1,90.0000034332277,8|0,1:3|0:0,0:0:0:0:
194,114,82173,6,0,P|233:134|295:123,1,90.0000034332277,4|0,1:3|0:0,0:0:0:0:
503,36,82635,2,0,P|463:56|401:45,1,90.0000034332277,8|0,1:3|0:0,0:0:0:0:
170,136,83096,6,0,L|237:136,1,53.9999983520508,0|0,1:0|0:0,0:0:0:0:
254,218,83327,2,0,L|200:218,1,53.9999983520508,0|0,1:0|0:0,0:0:0:0:
172,122,83558,6,0,L|236:139,1,53.9999983520508,0|0,1:0|0:0,0:0:0:0:
252,232,83789,2,0,L|187:214,1,53.9999983520508,0|0,1:0|0:0,0:0:0:0:
177,109,84019,6,0,L|235:142,1,53.9999983520508,0|0,1:0|0:0,0:0:0:0:
247,245,84250,2,0,L|188:211,1,53.9999983520508,0|0,1:0|0:0,0:0:0:0:
186,98,84481,6,0,L|233:145,1,53.9999983520508,0|0,1:0|0:0,0:0:0:0:
239,257,84712,2,0,L|191:209,1,53.9999983520508,0|0,1:0|0:0,0:0:0:0:
197,87,84942,5,2,0:0:0:0:
210,79,85058,1,2,0:0:0:0:
224,74,85173,1,0,0:0:0:0:
239,73,85289,1,2,0:0:0:0:
253,76,85404,1,2,0:0:0:0:
265,82,85519,1,0,0:0:0:0:
275,90,85635,1,2,0:0:0:0:
282,101,85750,1,2,0:0:0:0:
287,113,85866,1,2,0:0:0:0:
388,228,86096,5,0,0:0:0:0:
388,228,86212,1,0,0:0:0:0:
388,228,86327,2,0,P|472:239|513:177,1,161.999995056153,4|0,0:0|0:0,0:0:0:0:
426,63,86789,6,0,L|438:171,1,107.999996704102,4|0,1:2|0:0,0:0:0:0:
299,327,87250,2,0,L|310:219,1,107.999996704102,8|0,0:0|0:0,0:0:0:0:
232,41,87712,1,4,0:0:0:0:
119,238,87942,2,0,L|226:226,1,107.999996704102,2|8,0:2|0:0,0:0:0:0:
55,150,88404,1,0,0:0:0:0:
182,325,88635,5,4,0:0:0:0:
163,138,88866,1,0,0:0:0:0:
74,337,89096,2,0,L|181:325,1,107.999996704102,8|0,0:0|0:0,0:0:0:0:
271,126,89558,1,4,0:0:0:0:
119,238,89789,2,0,L|65:244,1,53.9999983520508,2|0,0:2|0:0,0:0:0:0:
163,138,90019,2,0,L|184:88,1,53.9999983520508,8|0,0:0|0:0,0:0:0:0:
227,226,90250,2,0,L|258:269,1,53.9999983520508,2|0,0:2|0:0,0:0:0:0:
379,113,90481,6,0,L|487:101,1,107.999996704102,4|0,0:0|0:0,0:0:0:0:
416,348,90942,2,0,L|307:335,1,107.999996704102,8|0,0:0|0:0,0:0:0:0:
119,238,91404,2,0,L|227:225,1,107.999996704102,6|0,0:0|0:0,0:0:0:0:
312,218,91750,1,2,0:2:0:0:
312,218,91866,2,0,P|310:253|248:308,1,107.999996704102,8|2,0:0|0:0,0:0:0:0:
40,316,92327,6,0,L|49:389,1,53.9999983520508,6|0,1:3|0:0,0:0:0:0:
139,269,92558,2,0,L|123:340,1,53.9999983520508,2|0,1:2|0:0,0:0:0:0:
31,237,92789,2,0,L|40:310,1,53.9999983520508,8|0,1:3|0:0,0:0:0:0:
154,191,93019,2,0,L|138:262,1,53.9999983520508,2|0,0:2|0:0,0:0:0:0:
22,158,93250,2,0,L|31:231,1,53.9999983520508,4|0,1:3|0:0,0:0:0:0:
170,113,93481,2,0,L|154:184,1,53.9999983520508,2|0,0:2|0:0,0:0:0:0:
13,79,93712,2,0,L|22:152,1,53.9999983520508,8|0,0:3|0:0,0:0:0:0:
186,35,93942,2,0,L|170:106,1,53.9999983520508,2|0,0:2|0:0,0:0:0:0:
4,0,94173,6,0,P|37:40|94:53,1,107.999996704102,4|0,0:0|0:0,0:0:0:0:
367,68,94635,2,0,P|334:29|277:16,1,107.999996704102,8|0,0:0|0:0,0:0:0:0:
290,106,94981,1,2,0:0:0:0:
290,106,95096,2,0,L|301:191,1,53.9999983520508,4|0,0:0|0:0,0:0:0:0:
308,245,95327,2,0,L|376:192,1,53.9999983520508,2|0,0:2|0:0,0:0:0:0:
419,159,95558,2,0,L|339:126,1,53.9999983520508,8|0,0:0|0:0,0:0:0:0:
237,213,95789,1,2,0:2:0:0:
378,272,96019,6,0,L|463:273,1,53.9999983520508,4|0,0:0|0:0,0:0:0:0:
311,374,96250,2,0,L|312:289,1,53.9999983520508,2|0,0:2|0:0,0:0:0:0:
380,164,96481,2,0,L|376:320,1,107.999996704102,8|0,0:0|0:0,0:0:0:0:
201,137,96942,2,0,L|203:29,1,107.999996704102,4|0,0:0|0:0,0:0:0:0:
59,253,97404,2,0,L|57:361,1,107.999996704102,8|0,0:0|0:0,0:0:0:0:
142,347,97750,1,0,0:0:0:0:
142,347,97866,6,0,P|180:349|235:259,1,107.999996704102,4|0,0:0|0:0,0:0:0:0:
165,166,98327,2,0,L|163:274,1,107.999996704102,8|0,0:0|0:0,0:0:0:0:
97,134,98789,2,0,P|134:96|187:94,1,107.999996704102,8|0,0:0|0:0,0:0:0:0:
248,155,99135,1,2,0:2:0:0:
248,155,99250,2,0,L|325:160,1,53.9999983520508,8|0,0:0|0:0,0:0:0:0:
369,71,99481,2,0,L|315:74,1,53.9999983520508,10|0,0:0|0:0,0:0:0:0:
216,185,99712,6,0,L|323:191,1,107.999996704102,6|0,0:3|0:0,0:0:0:0:
410,198,100058,1,2,0:0:0:0:
409,197,100173,2,0,P|404:225|387:252,1,53.9999983520508,8|0,0:0|0:0,0:0:0:0:
427,323,100404,2,0,P|401:332|374:332,1,53.9999983520508,2|0,0:0|0:0,0:0:0:0:
300,377,100635,2,0,P|288:329|318:266,1,107.999996704102,8|0,0:0|0:0,0:0:0:0:
323,191,100981,6,2,B|304:184|304:184|280:192|280:192|256:184|256:184|232:192|232:192|208:184|208:184|184:192|184:192|160:184|160:184|136:192|136:192|112:184|112:184|88:192|88:192|64:184|64:184|40:192|40:192|16:184|16:184|-4:192,1,345.000006580353,2|4,0:0|0:0,0:0:0:0:
109,185,116327,6,0,P|109:233|133:274,1,96,4|0,1:0|0:0,0:0:0:0:
210,278,116673,1,2,0:0:0:0:
210,278,116789,2,0,B|256:267|256:267|303:278,1,96,8|0,0:0|0:0,0:0:0:0:
378,274,117135,1,0,0:0:0:0:
378,274,117250,2,0,P|402:233|402:185,1,96,4|0,0:0|0:0,0:0:0:0:
256,92,117712,2,0,L|256:220,1,96,8|0,0:0|0:0,0:0:0:0:
182,212,118058,1,0,0:0:0:0:
182,212,118173,6,0,P|210:250|256:265,1,96,4|0,0:0|0:0,0:0:0:0:
402,185,118635,1,8,0:0:0:0:
256,188,118866,1,0,0:0:0:0:
332,314,119096,1,4,0:0:0:0:
328,144,119327,6,0,L|327:58,1,48,2|0,0:2|0:0,0:0:0:0:
256,272,119558,2,0,L|181:316,1,48,2|0,0:2|0:0,0:0:0:0:
402,271,119789,2,0,L|477:313,1,48,2|0,0:2|0:0,0:0:0:0:
256,188,120019,6,0,B|208:176|208:176|162:187,1,96,4|0,0:0|0:0,0:0:0:0:
0,206,120481,2,0,B|48:218|48:218|94:207,1,96,8|2,0:0|0:0,0:0:0:0:
257,114,120942,2,0,B|209:102|209:102|163:113,1,96,4|0,0:0|0:0,0:0:0:0:
95,74,121289,1,2,0:0:0:0:
95,74,121404,2,0,P|111:118|104:165,1,96,8|2,0:0|0:0,0:0:0:0:
4,321,121866,6,0,L|115:307,1,96,4|0,0:0|0:0,0:0:0:0:
271,321,122327,2,0,L|175:308,1,96,8|0,0:0|0:0,0:0:0:0:
257,114,122789,1,0,1:0:0:0:
350,331,123019,2,0,P|428:327|353:252,1,240,4|0,1:2|0:0,0:0:0:0:
262,236,123712,6,0,L|358:249,1,96,4|0,1:2|0:0,0:0:0:0:
459,156,124173,2,0,L|363:168,1,96,8|0,0:0|0:0,0:0:0:0:
185,228,124635,2,0,P|196:280|261:313,1,96,4|0,0:0|0:0,0:0:0:0:
351,238,125096,2,0,P|307:222|262:236,1,96,8|0,0:0|0:0,0:0:0:0:
96,227,125558,6,0,P|146:243|207:203,1,96,4|0,0:0|0:0,0:0:0:0:
232,169,125904,1,2,0:0:0:0:
232,169,126019,2,0,P|181:152|120:192,1,96,8|2,0:0|0:0,0:0:0:0:
210,342,126481,2,0,L|330:342,1,96,4|0,0:0|0:0,0:0:0:0:
343,274,126827,1,0,0:0:0:0:
343,274,126942,2,0,P|367:292|385:340,1,48,10|0,0:0|0:0,0:0:0:0:
441,360,127173,2,0,P|443:336|453:315,1,48,2|0,0:0|0:0,0:0:0:0:
472,236,127404,6,0,P|425:237|385:210,1,96,6|0,0:0|0:0,0:3:0:0:
300,157,127750,1,2,0:2:0:0:
300,157,127866,2,0,L|314:233,1,48,8|0,0:0|0:0,0:0:0:0:
250,289,128096,2,0,L|242:242,1,48,2|0,0:2|0:0,0:0:0:0:
287,78,128327,6,0,P|344:89|373:128,1,96,4|0,0:0|0:0,0:0:0:0:
430,197,128673,1,2,0:2:0:0:
430,197,128789,2,0,L|383:191,1,48,8|0,0:0|0:0,0:0:0:0:
451,74,129019,2,0,L|444:121,1,48,2|0,0:2|0:0,0:0:0:0:
420,275,129250,6,0,P|474:262|506:213,1,96,4|0,0:0|0:0,0:0:0:0:
361,227,129596,1,2,0:2:0:0:
361,227,129712,2,0,P|347:255|346:294,1,48,8|0,0:0|0:0,0:0:0:0:
410,373,129942,2,0,P|398:353|381:337,1,48,4|0,0:0|0:0,0:0:0:0:
258,342,130173,5,8,1:3:0:0:
245,347,130289,1,0,1:0:0:0:
232,352,130404,1,4,2:3:0:0:
110,273,130635,1,8,0:0:0:0:
133,275,130750,1,4,0:0:0:0:
157,270,130865,1,4,0:0:0:0:
178,260,130981,1,4,0:0:0:0:
196,243,131096,6,0,B|223:212|223:212|312:199,1,110.999999576569,4|0,1:2|0:0,0:0:0:0:
313,100,131442,1,2,0:2:0:0:
313,100,131558,2,0,B|286:131|286:131|197:144,1,110.999999576569,10|0,0:0|0:0,0:0:0:0:
86,226,132019,2,0,L|195:242,1,110.999999576569,4|0,0:3|0:0,0:0:0:0:
245,302,132366,1,2,0:2:0:0:
245,302,132481,2,0,P|274:284|357:285,1,110.999999576569,8|2,0:0|0:2,0:0:0:0:
506,201,132942,6,0,P|476:218|393:217,1,110.999999576569,4|0,0:0|0:0,0:0:0:0:
333,150,133289,1,2,0:2:0:0:
333,150,133404,2,0,L|313:280,1,110.999999576569,10|0,0:3|0:0,0:0:0:0:
155,369,133866,2,0,L|171:259,1,110.999999576569,6|0,0:0|0:0,0:0:0:0:
245,302,134212,1,0,0:0:0:0:
245,302,134327,2,0,L|324:352,1,55.4999997882843,8|0,0:0|0:0,0:0:0:0:
349,283,134558,2,0,L|428:233,1,55.4999997882843,2|0,0:2|0:0,0:0:0:0:
453,302,134789,5,2,1:2:0:0:
453,302,134904,2,0,L|532:352,1,55.4999997882843,2|0,0:2|0:0,0:0:0:0:
472,227,135135,2,0,L|528:227,1,55.4999997882843,2|0,0:2|0:0,0:0:0:0:
453,152,135366,2,0,L|532:102,1,55.4999997882843,2|0,0:2|0:0,0:0:0:0:
383,117,135596,1,2,0:2:0:0:
383,116,135712,2,0,P|335:143|281:137,2,110.999999576569,2|0|8,1:2|0:0|3:0,0:0:0:0:
219,90,136404,1,2,1:2:0:0:
277,245,136635,6,0,B|330:262|330:262|386:246,1,110.999999576569,6|0,0:0|0:0,0:0:0:0:
383,328,136981,1,2,0:2:0:0:
383,328,137096,2,0,B|329:343|329:343|276:326,1,110.999999576569,8|2,0:0|0:2,0:0:0:0:
331,150,137558,2,0,L|330:261,1,110.999999576569,4|2,1:2|0:0,0:0:0:0:
242,148,138019,1,4,1:2:0:0:
419,151,138250,1,2,0:0:0:0:
244,59,138481,6,0,P|175:90|154:151,1,110.999999576569,4|0,1:0|0:0,0:0:0:0:
103,173,138827,1,2,0:2:0:0:
103,173,138942,2,0,P|147:234|134:297,1,110.999999576569,8|0,0:0|0:0,0:0:0:0:
242,148,139404,1,4,0:0:0:0:
60,251,139635,6,0,L|0:245,1,55.4999997882843,2|0,0:2|0:0,0:0:0:0:
67,130,139866,2,0,L|102:172,1,55.4999997882843,10|0,0:0|0:0,0:0:0:0:
165,57,140096,2,0,L|110:52,1,55.4999997882843,2|0,0:2|0:0,0:0:0:0:
242,148,140327,6,0,L|382:133,1,110.999999576569,4|0,0:0|0:0,0:0:0:0:
451,75,140673,1,0,0:2:0:0:
451,75,140789,2,8,L|411:198,1,110.999999576569,8|2,0:0|0:0,0:0:0:0:
258,350,141250,6,0,L|235:299,1,55.4999997882843,6|0,0:0|0:0,0:0:0:0:
184,200,141480,2,0,L|234:222,1,55.4999997882843,2|0,0:0|0:0,0:0:0:0:
345,360,141711,2,0,L|336:305,1,55.4999997882843,8|0,0:0|0:0,0:0:0:0:
313,197,141942,2,0,L|355:231,1,55.4999997882843,2|0,0:0|0:0,0:0:0:0:
428,384,142173,6,0,P|429:329|464:288,1,110.999999576569,4|0,0:0|0:0,0:0:0:0:
512,189,142519,1,2,0:0:0:0:
512,189,142635,2,0,L|440:221,1,55.4999997882843,10|0,0:0|0:0,0:0:0:0:
502,359,142866,1,4,0:2:0:0:
502,359,143327,1,4,0:2:0:0:
390,243,143558,1,8,0:0:0:0:
234,281,143789,1,2,0:2:0:0:
123,164,144019,6,0,L|136:98,1,55.4999997882843,2|0,0:2|0:0,0:0:0:0:
217,197,144250,2,0,L|204:131,1,55.4999997882843,2|0,0:2|0:0,0:0:0:0:
106,248,144481,2,0,L|119:182,1,55.4999997882843,2|0,0:2|0:0,0:0:0:0:
234,281,144712,2,0,L|221:215,1,55.4999997882843,2|0,0:2|0:0,0:0:0:0:
89,332,144942,6,0,P|41:305|20:255,1,110.999999576569,2|0,0:2|0:0,0:0:0:0:
34,129,145289,1,2,0:2:0:0:
34,129,145404,2,0,L|44:183,1,55.4999997882843,8|0,0:0|0:0,0:0:0:0:
106,248,145635,2,0,L|119:182,1,55.4999997882843,2|0,0:2|0:0,0:0:0:0:
178,129,145866,6,0,L|206:273,1,110.999999576569,4|0,0:0|0:0,0:0:0:0:
370,261,146327,2,0,L|262:283,1,110.999999576569,8|0,0:0|0:0,0:0:0:0:
260,53,146789,2,0,P|254:137|290:192,1,110.999999576569,4|0,0:0|0:0,0:0:0:0:
431,214,147250,2,0,P|347:220|292:184,1,110.999999576569,8|0,0:0|0:0,0:0:0:0:
370,22,147712,6,0,P|423:45|450:97,1,120,4|0,1:2|0:0,0:0:0:0:
506,160,148058,1,2,0:2:0:0:
506,160,148173,2,0,B|477:197|477:197|500:305,1,120,10|0,0:0|0:0,0:0:0:0:
359,373,148635,2,0,L|213:367,1,120,4|0,0:3|0:0,0:0:0:0:
143,303,148981,1,2,0:2:0:0:
143,303,149096,2,0,P|173:303|201:293,1,60,8|0,0:0|0:0,0:0:0:0:
252,233,149327,2,0,P|280:242|310:242,1,60,2|0,0:2|0:0,0:0:0:0:
363,185,149558,6,0,P|388:237|368:292,1,120,4|0,0:0|0:0,0:0:0:0:
425,361,149904,1,2,0:2:0:0:
425,361,150019,2,0,P|399:308|419:253,1,120,10|0,0:3|0:0,0:0:0:0:
363,185,150366,1,0,0:0:0:0:
363,185,150481,2,0,B|419:206|419:206|479:184,1,120,6|0,0:0|0:0,0:0:0:0:
330,44,150942,2,0,L|348:118,1,60,8|0,0:0|0:0,0:0:0:0:
304,199,151173,2,0,L|378:181,1,60,2|0,0:2|0:0,0:0:0:0:
422,115,151404,5,2,1:2:0:0:
422,115,151519,2,0,L|496:133,1,60,2|0,0:2|0:0,0:0:0:0:
440,206,151750,2,0,L|516:204,1,60,2|0,0:2|1:0,0:0:0:0:
422,297,151981,2,0,L|496:279,1,60,2|0,0:2|0:0,0:0:0:0:
354,238,152212,1,2,0:2:0:0:
354,238,152327,2,0,P|337:272|382:378,1,120,2|0,1:2|0:0,0:0:0:0:
440,206,152789,1,8,3:0:0:0:
268,270,153019,1,2,1:2:0:0:
362,118,153250,6,0,L|354:238,1,120,6|0,0:0|0:0,0:0:0:0:
268,270,153596,1,2,0:2:0:0:
268,270,153712,2,0,L|262:186,1,60,8|0,0:0|0:0,0:0:0:0:
190,165,153942,2,0,L|184:248,1,60,2|0,0:2|0:0,0:0:0:0:
176,302,154173,5,4,1:2:0:0:
256,126,154404,1,2,0:0:0:0:
336,302,154635,1,4,1:2:0:0:
256,126,154866,1,2,0:0:0:0:
256,341,155096,6,0,P|299:381|357:385,1,120,4|0,1:0|0:0,0:0:0:0:
418,324,155442,1,2,0:2:0:0:
418,324,155558,2,0,P|416:275|351:217,1,120,8|0,0:0|0:0,0:0:0:0:
176,302,156019,2,0,B|132:316|132:316|35:294,1,120,4|2,0:0|0:2,0:0:0:0:
190,165,156481,1,10,0:0:0:0:
256,341,156712,1,2,0:2:0:0:
322,165,156942,6,0,B|366:151|366:151|463:173,1,120,4|0,0:0|0:0,0:0:0:0:
440,252,157289,1,0,0:2:0:0:
440,252,157404,2,0,B|368:235|368:235|324:249,1,120,8|2,0:0|0:0,0:0:0:0:
434,82,157866,6,0,L|492:95,1,60,6|0,0:0|0:0,0:0:0:0:
496,180,158096,2,0,L|438:167,1,60,2|0,0:0|0:0,0:0:0:0:
324,249,158327,2,0,L|382:262,1,60,8|0,0:0|0:0,0:0:0:0:
386,347,158557,2,0,L|327:333,1,60,2|0,0:0|0:0,0:0:0:0:
378,177,158789,6,0,P|322:158|267:179,1,120,4|0,0:0|0:0,0:0:0:0:
184,160,159135,1,2,0:0:0:0:
184,160,159250,2,0,L|196:261,1,60,10|0,0:0|0:0,0:0:0:0:
206,360,159481,1,4,0:2:0:0:
206,360,159942,2,0,P|261:378|317:358,1,120,4|8,0:2|0:0,0:0:0:0:
378,177,160404,1,2,0:2:0:0:
261,289,160635,6,0,L|202:275,1,60,2|0,0:2|0:0,0:0:0:0:
233,140,160866,2,0,L|220:199,1,60,2|0,0:2|0:0,0:0:0:0:
111,315,161096,2,0,L|124:256,1,60,2|0,0:2|0:0,0:0:0:0:
84,167,161327,2,0,L|142:180,1,60,2|0,0:2|0:0,0:0:0:0:
206,360,161558,2,0,P|261:378|317:358,1,120,2|0,0:2|0:0,0:0:0:0:
369,298,161904,1,2,0:2:0:0:
369,298,162019,2,0,B|427:278|427:321|486:298,1,120,8|2,0:0|0:2,0:0:0:0:
486,86,162481,6,0,P|413:69|336:155,1,180,4|0,0:0|0:0,0:0:0:0:
264,150,162942,2,0,P|337:133|414:219,1,180,8|0,0:0|0:0,0:0:0:0:
486,214,163404,2,0,P|413:197|336:283,1,180,4|0,0:0|0:0,0:0:0:0:
317,356,163866,1,8,0:0:0:0:
431,293,164096,1,0,0:0:0:0:
246,289,164327,6,0,L|124:286,1,107.999996704102,6|0,1:2|0:0,0:0:0:0:
93,212,164673,1,0,0:0:0:0:
93,212,164789,2,0,L|200:214,1,107.999996704102,10|2,0:0|0:0,0:0:0:0:
343,79,165250,1,4,0:3:0:0:
202,77,165481,1,2,0:0:0:0:
341,217,165712,2,0,L|448:219,1,107.999996704102,10|2,0:0|0:0,0:0:0:0:
512,0,166173,6,0,L|404:2,1,107.999996704102,4|0,0:3|0:0,0:0:0:0:
343,79,166519,1,0,0:0:0:0:
343,79,166635,2,0,L|450:76,1,107.999996704102,8|2,0:0|0:0,0:0:0:0:
341,217,167096,1,4,0:3:0:0:
222,146,167327,1,2,0:0:0:0:
270,336,167558,2,0,P|318:358|371:354,1,107.999996704102,10|2,0:0|0:0,0:0:0:0:
246,241,168019,6,0,L|109:277,1,107.999996704102,4|0,0:3|0:0,0:0:0:0:
61,286,168366,1,2,0:2:0:0:
61,286,168481,2,0,L|98:149,1,107.999996704102,8|0,0:3|0:0,0:0:0:0:
275,137,168942,2,0,L|246:241,1,107.999996704102,4|0,0:3|0:0,0:0:0:0:
229,320,169289,1,2,0:2:0:0:
229,320,169404,2,0,L|333:292,1,107.999996704102,8|0,0:3|0:0,0:0:0:0:
410,266,169751,1,2,0:2:0:0:
410,266,169866,6,0,L|334:189,1,107.999996704102,4|0,0:0|0:0,0:0:0:0:
153,243,170327,2,0,L|229:320,1,107.999996704102,8|2,0:0|0:0,0:0:0:0:
181,138,170789,1,4,0:0:0:0:
48,271,171019,2,0,L|-25:290,1,53.9999983520508,2|0,1:3|0:0,0:0:0:0:
71,192,171250,2,0,L|91:118,1,53.9999983520508,2|0,1:3|0:0,0:0:0:0:
106,327,171481,2,0,L|159:380,1,53.9999983520508,2|0,0:2|0:0,0:0:0:0:
258,214,171712,6,0,P|308:197|358:215,1,107.999996704102,4|2,1:1|0:2,0:0:0:0:
389,289,172058,1,0,0:0:0:0:
389,289,172173,2,0,B|441:300|441:300|509:256,1,107.999996704102,8|0,0:0|0:0,0:0:0:0:
378,133,172635,1,4,0:0:0:0:
309,280,172866,2,0,B|257:291|257:291|189:247,2,107.999996704102,2|10|2,0:0|0:0|0:0,0:0:0:0:
211,154,173558,6,0,L|211:292,1,107.999996704102,4|2,0:0|0:2,0:0:0:0:
128,265,173904,1,0,0:0:0:0:
128,265,174019,2,0,P|148:315|203:343,1,107.999996704102,8|2,0:0|0:0,0:0:0:0:
407,260,174481,2,0,P|354:252|302:286,1,107.999996704102,4|0,0:0|0:0,0:0:0:0:
370,332,174827,1,2,0:0:0:0:
370,332,174942,2,0,P|422:339|474:305,1,107.999996704102,8|0,0:0|0:0,0:0:0:0:
384,154,175404,6,0,L|407:260,1,107.999996704102,8|0,0:0|0:0,0:0:0:0:
331,290,175750,1,0,0:0:0:0:
331,290,175866,2,0,L|319:342,1,53.9999983520508,8|0,0:0|0:0,0:0:0:0:
257,259,176096,2,0,P|211:234|158:241,1,107.999996704102,4|0,0:0|0:0,0:0:0:0:
158,241,176558,1,4,0:0:0:0:
384,154,176789,2,0,L|489:176,1,107.999996704102,8|2,0:0|0:0,0:0:0:0:
333,89,177250,6,0,P|304:132|308:185,1,107.999996704102,4|0,0:0|0:0,0:0:0:0:
232,213,177596,1,2,0:2:0:0:
232,213,177712,2,0,P|261:256|257:309,1,107.999996704102,8|0,0:0|0:0,0:0:0:0:
132,343,178058,1,0,0:0:0:0:
132,343,178173,2,0,P|102:299|106:246,1,107.999996704102,4|0,0:0|0:0,0:0:0:0:
190,170,178519,1,0,0:0:0:0:
190,170,178635,2,0,L|181:278,1,107.999996704102,8|0,0:0|0:0,0:0:0:0:
235,338,178981,1,0,0:0:0:0:
235,338,179096,6,0,L|304:344,1,53.9999983520508,0|0,1:0|0:0,0:0:0:0:
355,236,179327,2,0,L|351:290,1,53.9999983520508,0|0,0:0|0:0,0:0:0:0:
221,319,179558,6,0,L|290:325,1,53.9999983520508,0|0,0:0|0:0,0:0:0:0:
341,217,179789,2,0,L|336:270,1,53.9999983520508,0|0,0:0|0:0,0:0:0:0:
206,299,180019,6,0,L|275:305,1,53.9999983520508,0|0,0:0|0:0,0:0:0:0:
326,197,180250,2,0,L|321:250,1,53.9999983520508,0|0,0:0|0:0,0:0:0:0:
191,279,180481,6,0,L|260:285,1,53.9999983520508,4|0,1:2|0:0,0:0:0:0:
311,177,180712,2,0,L|306:230,1,53.9999983520508,2|0,0:0|0:0,0:0:0:0:
176,259,180942,6,0,L|81:250,1,83.9999974365235,4|0,0:0|0:0,0:0:0:0:
66,174,181289,2,0,L|149:181,1,83.9999974365235,2|0,0:0|0:0,0:0:0:0:
203,122,181635,2,0,P|239:101|280:102,1,83.9999974365235,2|0,0:0|0:0,0:0:0:0:
311,177,181981,2,0,P|347:197|388:196,1,83.9999974365235,0|0,0:0|0:0,0:0:0:0:
458,156,182327,1,2,0:0:0:0:
458,156,182442,1,2,0:0:0:0:
458,156,182558,1,2,0:0:0:0:
474,314,182789,6,0,L|379:307,1,83.9999974365235,6|0,1:2|0:0,0:0:0:0:
324,354,183135,2,0,L|229:347,1,83.9999974365235,2|0,0:0|0:0,0:0:0:0:
151,288,183481,2,0,L|163:372,1,83.9999974365235,2|0,0:0|0:0,0:0:0:0:
69,332,183827,2,0,L|81:249,1,83.9999974365235,2|0,0:0|0:0,0:0:0:0:
149,207,184173,1,2,0:0:0:0:
149,207,184289,1,2,0:0:0:0:
149,207,184404,1,2,0:0:0:0:
330,284,184635,6,0,B|372:290|372:290|420:262,1,83.9999974365235,0|0,1:0|0:0,0:0:0:0:
393,192,184981,2,0,B|357:212|357:212|315:206,1,83.9999974365235,2|0,0:0|0:0,0:0:0:0:
343,135,185327,1,2,0:0:0:0:
182,100,185558,2,0,B|140:94|140:94|92:122,1,83.9999974365235,2|0,0:0|0:0,0:0:0:0:
119,192,185904,2,0,B|154:171|154:171|196:177,1,83.9999974365235,2|0,0:0|0:0,0:0:0:0:
169,249,186250,1,0,0:0:0:0:
335,355,186481,6,0,L|440:338,1,83.9999974365235,2|0,1:2|0:0,0:0:0:0:
434,263,186827,2,0,L|351:277,1,83.9999974365235,2|0,0:0|0:0,0:0:0:0:
309,208,187173,2,0,L|413:190,1,83.9999974365235,2|0,0:3|0:0,0:0:0:0:
407,115,187519,2,0,L|324:129,1,83.9999974365235,2|0,0:3|0:0,0:0:0:0:
286,57,187866,1,2,1:2:0:0:
286,57,187981,2,0,L|237:48,1,41.9999987182618,2|0,0:2|0:0,0:0:0:0:
169,78,188212,1,0,0:0:0:0:
169,78,188327,6,0,L|75:62,1,83.9999974365235,2|0,1:2|0:0,0:0:0:0:
101,142,188673,2,0,L|183:156,1,83.9999974365235,2|0,0:0|0:0,0:0:0:0:
142,226,189019,2,0,L|59:211,1,83.9999974365235,2|0,0:0|0:0,0:0:0:0:
75,290,189365,2,0,L|157:304,1,83.9999974365235,2|0,0:0|0:0,0:0:0:0:
114,372,189712,1,2,1:2:0:0:
59,211,189942,1,2,0:0:0:0:
223,239,190173,6,0,P|265:244|303:227,1,83.9999974365235,0|2,1:2|0:0,0:0:0:0:
358,169,190519,2,0,P|316:173|278:156,1,83.9999974365235,2|2,0:0|0:0,0:0:0:0:
223,98,190866,2,0,P|264:102|302:85,1,83.9999974365235,2|2,0:0|0:2,0:0:0:0:
357,27,191212,2,0,P|315:31|277:14,1,83.9999974365235,0|0,0:0|0:0,0:0:0:0:
432,0,191558,1,0,1:0:0:0:
374,149,191789,1,2,0:0:0:0:
223,98,192019,6,0,P|199:96|179:100,1,41.9999987182618,2|0,1:2|0:0,0:0:0:0:
109,134,192250,2,0,P|133:132|153:136,1,41.9999987182618,2|0,0:0|0:0,0:0:0:0:
254,175,192481,2,0,P|230:173|210:177,1,41.9999987182618,0|0,1:0|0:0,0:0:0:0:
140,211,192712,2,0,P|164:209|184:213,1,41.9999987182618,2|0,0:0|0:0,0:0:0:0:
285,252,192942,2,0,P|261:250|241:254,1,41.9999987182618,0|0,1:0|0:0,0:0:0:0:
171,288,193173,2,0,P|195:286|215:290,1,41.9999987182618,2|0,0:0|0:0,0:0:0:0:
316,329,193404,2,0,P|292:327|272:331,1,41.9999987182618,2|0,1:2|0:0,0:0:0:0:
202,365,193635,2,0,P|226:363|246:367,1,41.9999987182618,0|0,1:2|0:0,0:0:0:0:
389,365,193866,5,8,0:3:0:0:
409,368,193981,1,8,0:3:0:0:
430,367,194096,1,0,0:0:0:0:
450,361,194212,1,8,0:3:0:0:
468,351,194327,2,0,L|460:281,1,41.9999987182618,4|0,0:3|0:0,0:0:0:0:
450,230,194558,2,0,P|401:252|347:233,1,83.9999974365235,6|0,0:2|0:0,0:0:0:0:
391,129,194904,2,0,L|396:171,1,41.9999987182618,4|2,0:1|0:0,0:0:0:0:
