osu file format v14

[General]
AudioFilename: audio.mp3
AudioLeadIn: 0
PreviewTime: 161886
Countdown: 1
SampleSet: Soft
StackLeniency: 0.4
Mode: 0
LetterboxInBreaks: 0
WidescreenStoryboard: 0

[Editor]
Bookmarks: 13902,14225,24547,34870,45193,55515,65838,76160,86483,96805,107128,117451,127773,138096,148418,162612,172934,183257,190643,200966,213062
DistanceSpacing: 1
BeatDivisor: 4
GridSize: 8
TimelineZoom: 4.399998

[Metadata]
Title:Six Trillion Years and Overnight Story
TitleUnicode:六兆年と一夜物語
Artist:IA
ArtistUnicode:IA
Creator:lit120
Version:Existence
Source:
Tags:Roku Chounen to Ichiya Monogatari kemu vocaloid vocaloid3 -Hakurei-
BeatmapID:1947645
BeatmapSetID:932866

[Difficulty]
HPDrainRate:6
CircleSize:4.5
OverallDifficulty:9
ApproachRate:9.5
SliderMultiplier:1.8
SliderTickRate:1

[Events]
//Background and Video events
0,0,"ia.jpg",0,0
//Break Periods
//Storyboard Layer 0 (Background)
//Storyboard Layer 1 (Fail)
//Storyboard Layer 2 (Pass)
//Storyboard Layer 3 (Foreground)
//Storyboard Sound Samples

[TimingPoints]
12935,322.58064516129,4,2,1,60,1,0
18902,-74.0740740740741,4,2,1,60,0,0
19386,-83.3333333333333,4,2,1,60,0,0
22451,-71.4285714285714,4,2,1,60,0,0
22934,-62.5,4,2,1,60,0,0
23418,-55.5555555555556,4,2,1,60,0,0
24547,-133.333333333333,4,2,1,60,0,0
34870,-100,4,2,1,60,0,0
45193,-133.333333333333,4,2,1,60,0,0
52289,-100,4,2,1,60,0,0
54225,-50,4,2,1,60,0,0
54547,-66.6666666666667,4,2,1,5,0,0
54870,-125,4,2,1,60,0,0
55112,-125,4,2,1,5,0,0
55193,-100,4,2,1,60,0,0
55434,-100,4,2,1,5,0,0
55515,-83.3333333333333,4,2,1,60,0,1
65515,-50,4,2,1,60,0,1
65757,-50,4,2,1,5,0,1
65838,-166.666666666667,4,2,1,60,0,0
66160,-83.3333333333333,4,2,1,60,0,1
69709,-125,4,2,1,60,0,1
69951,-125,4,2,1,5,0,1
70031,-100,4,2,1,60,0,1
70273,-100,4,2,1,5,0,1
70354,-83.3333333333333,4,2,1,60,0,1
70676,-71.4285714285714,4,2,1,60,0,1
70999,-83.3333333333333,4,2,1,60,0,1
76160,-83.3333333333333,4,2,1,60,0,0
84870,-62.5,4,2,1,60,0,0
85354,-55.5555555555556,4,2,1,60,0,0
86483,-133.333333333333,4,2,1,60,0,0
96805,-100,4,2,1,60,0,0
107128,-133.333333333333,4,2,1,60,0,0
111402,-133.333333333333,4,2,1,60,0,0
114225,-100,4,2,1,60,0,0
116483,-66.6666666666667,4,2,1,60,0,0
116805,-100,4,2,1,60,0,0
117451,-83.3333333333333,4,2,1,60,0,1
127773,-133.333333333333,4,2,1,60,0,0
128096,-83.3333333333333,4,2,1,60,0,1
138096,-83.3333333333333,4,2,1,60,0,0
140676,-200,4,2,1,60,0,0
141967,-83.3333333333333,4,2,1,60,0,0
148418,-100,4,2,1,60,0,0
153580,-133.333333333333,4,2,1,60,0,0
156160,-100,4,2,1,60,0,0
162612,-133.333333333333,4,2,1,60,0,0
167773,-83.3333333333333,4,2,1,60,0,1
172934,-133.333333333333,4,2,1,60,0,0
173257,-83.3333333333333,4,2,1,60,0,1
183902,342.857142857143,4,2,1,60,1,1
184586,387.096774193548,4,2,1,60,1,1
184779,392.156862745098,4,2,1,60,1,1
184975,419.58041958042,4,2,1,60,1,1
185184,428.571428571429,4,2,1,60,1,1
185398,444.444444444444,4,2,1,60,1,1
185620,500,4,2,1,60,1,1
185870,545.454545454546,4,2,1,60,1,1
186142,319.148936170213,4,2,1,60,1,0
187418,322.58064516129,4,2,1,60,1,0
188063,322.58064516129,4,2,1,60,1,1
188063,-83.3333333333333,4,2,1,60,0,1
190643,-83.3333333333333,4,2,1,60,0,0

[Colours]
Combo1 : 111,130,138
Combo2 : 208,138,149
Combo3 : 72,106,140
Combo4 : 234,194,104

[HitObjects]
111,126,13902,5,0,0:0:0:0:
109,148,13983,1,0,0:0:0:0:
108,170,14064,1,0,0:0:0:0:
107,193,14144,1,0,0:0:0:0:
106,215,14225,5,0,0:0:0:0:
256,28,14386,1,0,0:0:0:0:
401,126,14547,2,0,L|406:231,1,90
237,239,14870,1,0,0:0:0:0:
236,217,14950,1,0,0:0:0:0:
235,194,15031,1,0,0:0:0:0:
234,172,15112,1,0,0:0:0:0:
233,150,15193,1,0,0:0:0:0:
332,311,15354,1,0,0:0:0:0:
72,250,15515,5,0,0:0:0:0:
328,222,15676,1,0,0:0:0:0:
241,328,15838,2,0,L|237:239,1,90
153,53,16160,1,0,0:0:0:0:
154,75,16241,1,0,0:0:0:0:
155,98,16322,1,0,0:0:0:0:
156,120,16402,1,0,0:0:0:0:
158,143,16483,1,0,0:0:0:0:
254,64,16644,1,0,0:0:0:0:
332,311,16805,5,0,0:0:0:0:
79,255,16967,1,0,0:0:0:0:
221,208,17128,2,0,P|265:205|310:209,1,90
156,98,17451,1,0,0:0:0:0:
133,100,17531,1,0,0:0:0:0:
111,101,17612,1,0,0:0:0:0:
88,100,17693,1,0,0:0:0:0:
66,97,17773,1,0,0:0:0:0:
267,33,17935,1,0,0:0:0:0:
267,33,18015,1,0,0:0:0:0:
267,33,18096,6,0,L|268:77,1,45
111,101,18257,2,0,L|109:145,1,45
311,209,18418,1,0,0:0:0:0:
344,207,18499,1,0,0:0:0:0:
378,206,18580,1,0,0:0:0:0:
412,205,18660,1,0,0:0:0:0:
446,205,18741,2,0,L|490:203,1,45
268,77,18902,5,0,0:0:0:0:
217,109,18983,1,0,0:0:0:0:
183,159,19064,1,0,0:0:0:0:
175,219,19144,1,0,0:0:0:0:
193,277,19225,1,0,0:0:0:0:
233,321,19305,1,0,0:0:0:0:
289,344,19386,6,0,P|343:344|397:339,1,107.999996704102
175,219,19709,2,0,P|121:219|67:224,1,107.999996704102
268,78,20031,1,0,0:0:0:0:
294,78,20112,1,0,0:0:0:0:
321,77,20193,1,0,0:0:0:0:
348,75,20273,1,0,0:0:0:0:
375,72,20354,1,0,0:0:0:0:
490,203,20515,1,0,0:0:0:0:
268,78,20676,6,0,P|268:131|273:185,1,107.999996704102
473,305,20999,2,0,P|426:279|377:257,1,107.999996704102
174,368,21322,1,0,0:0:0:0:
197,354,21402,1,0,0:0:0:0:
220,340,21483,1,0,0:0:0:0:
242,325,21564,1,0,0:0:0:0:
263,308,21644,5,0,0:0:0:0:
224,272,21725,1,0,0:0:0:0:
172,260,21805,1,0,0:0:0:0:
121,274,21886,1,0,0:0:0:0:
82,311,21967,6,0,L|68:250,1,53.9999983520508
28,71,22128,2,0,L|41:131,1,53.9999983520508
55,191,22289,1,0,0:0:0:0:
219,59,22451,6,0,L|203:125,1,62.9999980773926
159,323,22612,2,0,L|175:256,1,62.9999980773926
189,191,22773,1,0,0:0:0:0:
355,339,22934,6,0,L|338:266,1,72
290,48,23095,2,0,L|306:120,1,72
323,193,23257,1,0,0:0:0:0:
493,32,23418,6,0,L|474:112,1,80.9999975280763
422,354,23579,2,0,L|440:274,1,80.9999975280763
457,193,23741,1,0,0:0:0:0:
456,193,24547,6,0,P|436:125|377:96,1,135.000005149842
304,131,25031,1,0,0:0:0:0:
173,231,25193,2,0,P|236:247|294:215,1,135.000005149842
304,131,25676,1,0,0:0:0:0:
373,182,25838,6,0,L|374:249,1,67.5000025749208
381,372,26160,1,0,0:0:0:0:
439,308,26322,1,0,0:0:0:0:
317,314,26483,2,0,L|249:314,1,67.5000025749208
127,320,26805,1,0,0:0:0:0:
191,379,26967,1,0,0:0:0:0:
185,256,27128,6,0,L|186:121,1,135.000005149842
250,60,27612,1,0,0:0:0:0:
311,123,27773,2,0,P|362:125|391:118,1,67.5000025749208
250,60,28096,1,0,0:0:0:0:
287,208,28257,1,0,0:0:0:0:
435,171,28418,6,0,P|486:169|515:176,1,67.5000025749208
311,123,28741,2,0,P|362:125|391:118,1,67.5000025749208
220,206,29064,2,0,P|253:203|287:208,1,67.5000025749208
96,84,29386,2,0,P|129:87|162:82,1,67.5000025749208
4,240,29709,6,0,P|70:240|127:275,1,135.000005149842
189,337,30193,1,0,0:0:0:0:
36,365,30354,2,0,P|69:307|128:276,1,135.000005149842
213,254,30838,1,0,0:0:0:0:
343,364,30999,6,0,L|503:360,1,135.000005149842
511,279,31483,1,0,0:0:0:0:
375,216,31644,2,0,P|371:249|377:283,1,67.5000025749208
475,180,31967,2,0,P|479:146|473:113,1,67.5000025749208
338,50,32289,6,0,P|334:83|340:117,1,67.5000025749208
242,219,32612,1,0,0:0:0:0:
203,84,32773,1,0,0:0:0:0:
242,219,32934,2,0,P|246:185|240:152,1,67.5000025749208
105,89,33257,1,0,0:0:0:0:
204,52,33418,1,0,0:0:0:0:
141,188,33580,6,0,L|145:352,1,135.000005149842
208,383,34064,1,0,0:0:0:0:
334,317,34225,2,0,P|301:313|268:319,1,67.5000025749208
141,188,34547,2,0,P|174:192|207:186,1,67.5000025749208
338,58,34870,6,0,L|341:244,1,180
268,319,35354,1,0,0:0:0:0:
141,188,35515,2,0,P|53:194|0:263,1,180
104,289,35999,1,0,0:0:0:0:
141,79,36160,5,0,0:0:0:0:
54,194,36322,1,0,0:0:0:0:
280,175,36483,2,0,P|324:170|369:176,1,90
193,290,36805,2,0,P|148:294|104:289,1,90
309,377,37128,1,0,0:0:0:0:
149,212,37289,1,0,0:0:0:0:
370,87,37451,6,0,P|444:131|447:217,1,180
378,297,37934,1,0,0:0:0:0:
190,183,38096,2,0,P|279:170|369:176,1,180
456,338,38580,1,0,0:0:0:0:
192,273,38741,6,0,P|186:228|191:184,1,90
274,25,39064,1,0,0:0:0:0:
369,176,39225,1,0,0:0:0:0:
153,63,39386,1,0,0:0:0:0:
153,63,39467,1,0,0:0:0:0:
153,63,39547,1,0,0:0:0:0:
283,269,39709,1,0,0:0:0:0:
397,53,39870,1,0,0:0:0:0:
397,53,39951,1,0,0:0:0:0:
397,53,40031,6,0,P|470:101|490:208,1,180
421,289,40515,1,0,0:0:0:0:
279,127,40676,1,0,0:0:0:0:
207,349,40838,1,0,0:0:0:0:
369,176,40999,1,0,0:0:0:0:
138,123,41160,1,0,0:0:0:0:
138,123,41241,1,0,0:0:0:0:
137,123,41322,6,0,P|127:212|136:301,1,180
237,215,41805,1,0,0:0:0:0:
138,123,41967,2,0,P|93:117|48:123,1,90
136,302,42289,2,0,P|180:307|225:301,1,90
494,192,42612,6,0,P|406:174|317:181,1,180
182,45,43096,2,0,P|269:62|359:55,1,180
405,281,43580,1,0,0:0:0:0:
317,181,43741,2,0,P|272:176|227:182,1,90
92,379,44064,5,0,0:0:0:0:
215,319,44225,1,0,0:0:0:0:
103,241,44386,1,0,0:0:0:0:
410,187,44547,5,0,0:0:0:0:
56,307,44709,1,0,0:0:0:0:
227,14,44870,1,0,0:0:0:0:
227,56,44951,1,0,0:0:0:0:
227,98,45031,1,0,0:0:0:0:
227,140,45112,1,0,0:0:0:0:
227,182,45193,6,0,L|227:317,1,135.000005149842
264,120,45676,2,0,L|380:52,1,135.000005149842
191,119,46160,1,0,0:0:0:0:
191,120,47128,6,0,L|132:86,1,67.5000025749208
74,52,47451,2,0,L|133:86,1,67.5000025749208
227,182,47773,6,0,P|301:191|393:175,1,135.000005149842
191,245,48257,2,0,P|117:236|25:252,1,135.000005149842
228,308,48741,1,0,0:0:0:0:
228,308,49547,5,0,0:0:0:0:
228,308,49628,1,0,0:0:0:0:
228,308,49709,2,0,L|286:341,2,45.0000017166138
191,245,50031,2,0,L|190:200,2,45.0000017166138
155,309,50354,5,0,0:0:0:0:
264,244,50676,1,0,0:0:0:0:
235,121,50999,1,0,0:0:0:0:
110,110,51321,1,0,0:0:0:0:
60,226,51644,1,0,0:0:0:0:
60,226,52128,5,0,0:0:0:0:
60,226,52208,1,0,0:0:0:0:
60,226,52289,1,0,0:0:0:0:
306,41,52451,1,0,0:0:0:0:
307,82,52531,1,0,0:0:0:0:
308,123,52612,1,0,0:0:0:0:
308,163,52693,1,0,0:0:0:0:
309,204,52773,1,0,0:0:0:0:
310,245,52854,1,0,0:0:0:0:
311,286,52934,6,0,L|308:399,1,90
118,182,53257,1,0,0:0:0:0:
382,244,53418,1,0,0:0:0:0:
45,313,53580,1,0,0:0:0:0:
455,375,53741,1,0,0:0:0:0:
81,247,53902,1,0,0:0:0:0:
459,116,54064,1,0,0:0:0:0:
42,54,54225,6,0,B|104:17|167:54|167:54|229:90|292:54|292:54|229:17|167:54,1,360
199,40,54870,6,0,L|302:71,1,108
386,116,55193,6,0,L|256:154,1,135
155,210,55515,6,0,L|310:256,1,161.999995056153
361,272,55838,1,0,0:0:0:0:
302,71,55999,1,0,0:0:0:0:
209,310,56160,1,0,0:0:0:0:
452,206,56322,1,0,0:0:0:0:
452,206,56402,1,0,0:0:0:0:
452,206,56483,1,0,0:0:0:0:
157,94,56644,1,0,0:0:0:0:
304,367,56805,5,0,0:0:0:0:
55,264,56967,1,0,0:0:0:0:
55,264,57047,1,0,0:0:0:0:
55,264,57128,1,0,0:0:0:0:
268,99,57289,1,0,0:0:0:0:
210,243,57451,2,0,L|152:387,1,107.999996704102
113,120,57773,1,0,0:0:0:0:
365,222,57934,1,0,0:0:0:0:
42,175,58096,6,0,P|27:98|95:32,1,161.999995056153
131,32,58418,1,0,0:0:0:0:
210,243,58580,1,0,0:0:0:0:
354,70,58741,1,0,0:0:0:0:
113,120,58902,1,0,0:0:0:0:
113,120,58983,1,0,0:0:0:0:
113,120,59064,1,0,0:0:0:0:
365,222,59225,1,0,0:0:0:0:
86,339,59386,6,0,P|73:287|79:234,1,107.999996704102
116,194,59628,1,0,0:0:0:0:
116,194,59709,1,0,0:0:0:0:
306,367,59870,1,0,0:0:0:0:
361,116,60031,2,0,L|357:8,1,107.999996704102
266,228,60354,1,0,0:0:0:0:
46,136,60515,1,0,0:0:0:0:
46,136,60596,1,0,0:0:0:0:
46,136,60676,6,0,P|117:103|187:138,1,161.999995056153
209,189,60999,1,0,0:0:0:0:
86,339,61160,1,0,0:0:0:0:
46,136,61322,2,0,L|49:28,1,107.999996704102
361,116,61644,5,0,0:0:0:0:
116,194,61805,1,0,0:0:0:0:
376,206,61967,1,0,0:0:0:0:
46,136,62128,1,0,0:0:0:0:
346,26,62289,1,0,0:0:0:0:
31,226,62451,1,0,0:0:0:0:
391,296,62612,2,0,P|444:302|496:289,1,107.999996704102
116,194,62934,1,0,0:0:0:0:
431,58,63096,1,0,0:0:0:0:
101,284,63257,5,0,0:0:0:0:
139,50,63418,2,0,L|131:104,1,53.9999983520508
171,342,63580,5,0,0:0:0:0:
209,108,63741,2,0,L|200:161,1,53.9999983520508
256,310,63902,5,0,0:0:0:0:
294,76,64063,2,0,L|285:129,1,53.9999983520508
326,368,64225,5,0,0:0:0:0:
364,134,64386,2,0,L|355:187,1,53.9999983520508
411,336,64547,5,0,0:0:0:0:
116,194,64709,1,0,0:0:0:0:
449,102,64870,1,0,0:0:0:0:
55,83,65031,1,0,0:0:0:0:
430,219,65193,1,0,0:0:0:0:
430,219,65515,6,0,B|486:129|410:57|410:57|377:87|360:148,1,270
323,233,65838,6,0,L|327:280,3,26.9999991760254
257,147,66160,5,0,0:0:0:0:
185,319,66322,1,0,0:0:0:0:
430,219,66483,1,0,0:0:0:0:
135,197,66644,1,0,0:0:0:0:
135,197,66725,1,0,0:0:0:0:
135,197,66805,1,0,0:0:0:0:
389,319,66967,1,0,0:0:0:0:
55,301,67128,5,0,0:0:0:0:
323,233,67289,1,0,0:0:0:0:
323,233,67370,1,0,0:0:0:0:
323,233,67451,1,0,0:0:0:0:
131,35,67612,1,0,0:0:0:0:
125,273,67773,2,0,L|129:380,1,107.999996704102
247,157,68096,1,0,0:0:0:0:
9,151,68257,1,0,0:0:0:0:
323,233,68418,6,0,P|399:233|507:202,1,161.999995056153
511,166,68741,1,0,0:0:0:0:
323,81,68902,1,0,0:0:0:0:
426,354,69064,1,0,0:0:0:0:
238,269,69225,1,0,0:0:0:0:
238,269,69305,1,0,0:0:0:0:
238,269,69386,1,0,0:0:0:0:
511,166,69547,1,0,0:0:0:0:
511,166,69628,1,0,0:0:0:0:
511,166,69709,6,0,L|466:264,1,108
452,297,70031,6,0,L|396:173,1,135
377,132,70354,6,0,L|332:230,1,107.999996704102
310,279,70595,1,0,0:0:0:0:
288,329,70676,5,0,0:0:0:0:
262,271,70757,1,0,0:0:0:0:
236,214,70838,1,0,0:0:0:0:
210,156,70918,1,0,0:0:0:0:
184,99,70999,6,0,P|115:92|26:124,1,161.999995056153
0,169,71322,1,0,0:0:0:0:
153,293,71483,1,0,0:0:0:0:
309,4,71644,2,0,L|310:112,1,107.999996704102
202,378,71967,5,0,0:0:0:0:
133,99,72128,1,0,0:0:0:0:
408,178,72289,1,0,0:0:0:0:
67,265,72451,1,0,0:0:0:0:
474,343,72612,1,0,0:0:0:0:
101,183,72773,1,0,0:0:0:0:
374,96,72934,2,0,P|427:90|479:103,1,107.999996704102
101,183,73257,1,0,0:0:0:0:
440,261,73418,1,0,0:0:0:0:
33,347,73580,5,0,0:0:0:0:
271,222,73741,2,0,P|275:248|269:274,1,53.9999983520508
13,195,73902,5,0,0:0:0:0:
268,274,74064,2,0,P|253:296|231:310,1,53.9999983520508
106,73,74225,5,0,0:0:0:0:
231,310,74386,2,0,P|204:313|177:308,1,53.9999983520508
258,53,74547,5,0,0:0:0:0:
178,309,74709,2,0,P|156:292|141:269,1,53.9999983520508
379,146,74870,5,0,0:0:0:0:
106,73,75031,1,0,0:0:0:0:
398,297,75193,1,0,0:0:0:0:
258,53,75354,1,0,0:0:0:0:
33,347,75515,1,0,0:0:0:0:
33,347,75838,5,0,0:0:0:0:
32,320,75918,1,0,0:0:0:0:
31,293,75999,1,0,0:0:0:0:
30,266,76080,1,0,0:0:0:0:
29,239,76160,6,0,L|25:131,1,107.999996704102
255,265,76483,2,0,L|258:158,1,107.999996704102
33,347,76805,1,0,0:0:0:0:
32,320,76886,1,0,0:0:0:0:
31,293,76967,1,0,0:0:0:0:
30,266,77047,1,0,0:0:0:0:
29,239,77128,1,0,0:0:0:0:
252,372,77289,1,0,0:0:0:0:
258,158,77451,6,0,L|261:51,1,107.999996704102
137,235,77773,2,0,L|140:342,1,107.999996704102
362,268,78096,1,0,0:0:0:0:
362,241,78176,1,0,0:0:0:0:
363,214,78257,1,0,0:0:0:0:
364,187,78338,1,0,0:0:0:0:
365,160,78418,1,0,0:0:0:0:
256,362,78580,1,0,0:0:0:0:
146,160,78741,6,0,P|139:97|162:24,1,107.999996704102
256,254,79064,2,0,L|256:362,1,107.999996704102
365,160,79386,1,0,0:0:0:0:
371,133,79467,1,0,0:0:0:0:
373,106,79547,1,0,0:0:0:0:
370,80,79628,1,0,0:0:0:0:
364,53,79709,1,0,0:0:0:0:
256,254,79870,1,0,0:0:0:0:
148,53,80031,5,0,0:0:0:0:
119,301,80193,1,0,0:0:0:0:
365,160,80354,1,0,0:0:0:0:
338,154,80435,1,0,0:0:0:0:
311,152,80515,1,0,0:0:0:0:
285,155,80596,1,0,0:0:0:0:
257,161,80676,2,0,P|204:170|151:163,1,107.999996704102
364,53,80999,1,0,0:0:0:0:
353,292,81160,1,0,0:0:0:0:
353,292,81241,1,0,0:0:0:0:
354,292,81322,6,0,P|301:301|247:294,1,107.999996704102
45,165,81644,2,0,P|98:156|152:163,1,107.999996704102
364,53,81967,1,0,0:0:0:0:
337,59,82047,1,0,0:0:0:0:
310,61,82128,1,0,0:0:0:0:
284,60,82209,1,0,0:0:0:0:
257,55,82289,1,0,0:0:0:0:
154,269,82451,1,0,0:0:0:0:
471,158,82612,6,0,L|475:265,1,107.999996704102
261,162,82934,2,0,L|257:55,1,107.999996704102
154,269,83257,1,0,0:0:0:0:
155,295,83338,1,0,0:0:0:0:
156,322,83418,1,0,0:0:0:0:
157,349,83499,1,0,0:0:0:0:
158,376,83580,5,0,0:0:0:0:
106,365,83660,1,0,0:0:0:0:
65,330,83741,1,0,0:0:0:0:
47,280,83821,1,0,0:0:0:0:
55,227,83902,6,0,L|116:208,1,53.9999983520508
155,295,84064,2,0,L|216:276,1,53.9999983520508
255,363,84225,1,0,0:0:0:0:
457,157,84386,6,0,L|396:176,1,53.9999983520508
357,89,84548,2,0,L|296:108,1,53.9999983520508
257,21,84709,1,0,0:0:0:0:
102,139,84870,6,0,P|101:175|106:210,1,72
409,244,85031,2,0,P|410:208|405:173,1,72
256,192,85193,1,0,0:0:0:0:
159,375,85354,6,0,P|153:335|155:295,1,80.9999975280763
352,8,85515,2,0,P|358:48|357:89,1,80.9999975280763
256,192,85676,1,0,0:0:0:0:
