osu file format v14

[General]
AudioFilename: IA SEE THE LIGHTS feat. IA ASYMMD-PV.mp3
AudioLeadIn: 0
PreviewTime: -1
Countdown: 0
SampleSet: Normal
StackLeniency: 1
Mode: 0
LetterboxInBreaks: 1
WidescreenStoryboard: 1

[Editor]
DistanceSpacing: 1
BeatDivisor: 8
GridSize: 4
TimelineZoom: 0.8000001

[Metadata]
Title:See The Lights
TitleUnicode:See The Lights
Artist:IA
ArtistUnicode:IA
Creator:deanio97
Version:HELL!!!
Source:
Tags:
BeatmapID:575899
BeatmapSetID:235644

[Difficulty]
HPDrainRate:6
CircleSize:4
OverallDifficulty:7
ApproachRate:9
SliderMultiplier:1.99999990463257
SliderTickRate:2

[Events]
//Background and Video events
Video,0,"VIDEO.avi"
0,0,"ia___see_the_lights_by_sparx1999-d726tuo.jpg",0,0
//Break Periods
//Storyboard Layer 0 (Background)
//Storyboard Layer 1 (Fail)
//Storyboard Layer 2 (Pass)
//Storyboard Layer 3 (Foreground)
//Storyboard Sound Samples

[TimingPoints]
423,344.867226117945,4,1,0,100,1,0
50042,-200,4,1,0,100,0,0
55214,-100,4,1,0,100,0,0
60944,-133.333333333333,4,1,0,100,0,0
66461,-66.6666666666667,4,1,0,100,0,0

[Colours]
Combo1 : 255,0,0
Combo2 : 0,0,0
Combo3 : 140,140,255
Combo4 : 255,0,128
Combo5 : 216,176,255
Combo6 : 255,176,138

[HitObjects]
410,324,22503,5,4,3:3:0:0:
100,233,23020,2,0,L|196:182,1,99.9999952316285,0|0,3:0|3:0,3:0:0:0:
284,108,23365,1,0,3:3:0:0:
344,284,23537,1,0,3:3:0:0:
196,184,23710,1,0,3:3:0:0:
380,184,23882,1,0,3:3:0:0:
224,288,24227,1,0,3:3:0:0:
160,204,25778,6,0,P|224:164|268:164,1,99.9999952316285,0|0,3:0|3:0,3:0:0:0:
235,244,26123,1,0,3:3:0:0:
216,324,26296,2,0,P|280:308|304:280,1,99.9999952316285,0|0,3:0|3:0,3:0:0:0:
404,197,26640,1,0,3:3:0:0:
334,56,26985,1,0,3:3:0:0:
160,62,27331,1,0,3:3:0:0:
141,212,27675,1,0,3:3:0:0:
271,233,28020,2,0,P|191:340|98:318,1,199.999990463257,0|0,3:0|3:0,3:0:0:0:
391,316,28709,1,0,3:3:0:0:
141,214,29054,2,0,P|193:94|398:193,1,399.999980926514,0|0,3:0|3:0,3:0:0:0:
292,345,30088,5,0,3:3:0:0:
259,39,30433,1,0,3:3:0:0:
163,209,30778,2,0,B|256:249|368:206,1,199.999990463257,0|0,3:0|3:0,3:0:0:0:
57,329,31467,1,0,3:3:0:0:
458,56,31812,1,0,3:3:0:0:
382,325,33536,21,0,3:3:0:0:
381,84,34053,1,0,3:3:0:0:
103,192,34226,2,0,L|215:228,1,99.9999952316285,0|0,3:0|3:0,3:0:0:0:
111,272,34570,2,0,L|207:216,1,99.9999952316285,0|0,3:0|3:0,3:0:0:0:
187,321,34915,2,0,L|199:205,1,99.9999952316285,0|0,3:0|3:0,3:0:0:0:
278,338,35260,1,0,3:3:0:0:
54,192,36811,22,0,L|136:124,1,99.9999952316285,0|0,3:0|3:0,3:0:0:0:
355,321,37156,1,0,3:3:0:0:
260,82,37329,1,0,3:3:0:0:
183,318,37502,1,0,3:3:0:0:
394,164,37674,1,0,3:3:0:0:
152,165,38019,1,0,3:3:0:0:
344,55,38364,1,0,3:3:0:0:
278,222,38709,1,0,3:3:0:0:
451,327,39053,5,0,3:3:0:0:
452,109,39398,1,0,3:3:0:0:
278,320,39743,2,0,B|206:228|273:116|289:104,1,199.999990463257,0|0,3:0|3:0,3:0:0:0:
66,328,41465,5,0,3:3:0:0:
225,269,41810,2,0,B|220:239|212:179|120:155|70:158,1,199.999990463257,0|0,3:0|3:0,3:0:0:0:
328,201,42500,1,0,3:3:0:0:
225,269,42845,2,0,P|383:95|366:319,1,599.999971389771,0|0,3:0|3:0,3:0:0:0:
40,72,44569,5,0,3:3:0:0:
56,245,44741,1,0,3:3:0:0:
177,158,44914,1,0,3:3:0:0:
75,344,45086,2,0,P|226:284|242:134,1,299.999985694885,0|0,3:0|3:0,3:0:0:0:
130,223,47844,5,0,3:0:0:0:
369,60,48015,2,0,L|288:134,1,99.9999952316285,0|0,3:0|3:0,3:0:0:0:
295,127,48360,2,0,L|205:48,1,99.9999952316285,0|0,3:0|3:0,3:0:0:0:
159,128,48705,2,0,L|319:271,1,199.999990463257,0|0,3:0|3:0,3:0:0:0:
461,46,49396,1,0,3:0:0:0:
400,101,50075,6,0,L|132:281,2,312.499985098839,0|0|0,3:0|3:0|3:0,3:3:0:0:
98,297,53362,5,0,3:3:0:0:
123,105,53534,2,0,B|180:60,1,49.9999976158143,0|0,3:0|3:0,3:0:0:0:
381,77,53879,2,0,L|420:119,1,49.9999976158143,0|0,3:0|3:0,3:0:0:0:
106,297,54224,1,0,3:3:0:0:
417,285,54396,1,0,0:0:0:0:
251,64,54569,1,0,3:3:0:0:
258,291,54741,1,0,0:0:0:0:
415,113,54913,1,0,3:3:0:0:
124,284,55602,6,0,P|76:224|72:188,1,99.9999952316285,0|0,3:0|2:0,3:0:0:0:
92,140,55947,1,0,3:3:0:0:
130,87,56119,1,0,3:3:0:0:
184,52,56292,1,0,3:3:0:0:
275,111,56637,1,0,3:3:0:0:
191,150,56982,5,0,3:3:0:0:
290,261,57326,1,0,3:3:0:0:
403,169,57671,1,0,3:3:0:0:
305,67,58016,1,0,3:3:0:0:
290,261,58361,1,0,3:3:0:0:
403,169,58706,1,0,3:3:0:0:
330,56,59051,1,0,3:3:0:0:
181,134,59395,1,0,3:3:0:0:
359,105,59740,1,0,3:3:0:0:
370,286,60085,1,0,3:3:0:0:
212,316,60430,1,0,3:3:0:0:
289,204,60774,1,0,3:3:0:0:
76,52,61119,6,0,L|164:52,1,74.9999952316285,0|0,3:0|3:0,3:3:0:0:
152,132,61464,2,0,L|76:132,1,74.9999952316285,0|0,3:0|3:0,3:3:0:0:
84,204,61808,2,0,L|172:204,1,74.9999952316285,0|0,3:0|3:0,3:3:0:0:
156,276,62153,2,0,L|68:276,1,74.9999952316285,0|0,3:0|3:0,3:3:0:0:
76,196,62498,2,0,L|144:144,1,74.9999952316285,0|0,3:0|3:0,3:3:0:0:
220,104,62843,2,0,L|304:104,1,74.9999952316285,0|0,3:0|3:0,3:3:0:0:
368,184,63188,2,0,L|368:276,1,74.9999952316285,0|0,3:0|3:0,3:3:0:0:
460,268,63533,2,0,L|460:180,1,74.9999952316285,0|0,3:0|3:0,3:3:0:0:
96,128,63877,2,0,L|136:128,23,37.4999976158143,0|0|0|0|0|0|0|0|0|0|0|0|0|0|0|0|0|0|0|0|0|0|0|0,3:0|3:0|3:0|3:0|3:0|3:0|3:0|3:0|3:0|3:0|3:0|3:0|3:0|3:0|3:0|3:0|3:0|3:0|3:0|3:0|3:0|3:0|3:0|3:3,3:3:0:0:
176,128,65947,5,12,3:3:0:0:
180,64,66633,2,0,L|280:200,1,149.999998569489
118,300,66978,1,8,3:3:0:0:
420,52,67151,1,0,3:3:0:0:
421,297,67323,1,0,3:3:0:0:
141,59,67495,1,0,3:3:0:0:
417,173,67668,1,8,3:3:0:0:
270,40,67840,1,0,3:3:0:0:
112,160,68013,2,0,B|196:304|324:324|368:324,1,299.999997138977,0|8,3:0|3:0,3:0:0:0:
357,141,68530,1,0,3:3:0:0:
365,149,68616,1,0,3:3:0:0:
365,149,68702,2,0,L|204:39,2,149.999998569489,0|0|8,3:0|3:0|3:0,3:3:0:0:
212,326,69220,1,0,3:3:0:0:
164,200,69392,6,0,L|312:228,2,149.999998569489,0|0|8,3:0|3:0|3:0,3:3:0:0:
72,173,69909,1,0,3:3:0:0:
180,75,70082,1,0,3:3:0:0:
43,39,70254,1,0,3:3:0:0:
72,173,70427,1,8,3:3:0:0:
379,237,70599,1,0,3:3:0:0:
342,152,70771,2,0,P|462:236|372:327,1,299.999997138977,0|8,3:3|3:3,3:3:0:0:
195,312,71289,5,0,3:3:0:0:
150,279,71375,1,0,3:3:0:0:
118,241,71463,2,0,P|92:195|117:93,2,149.999998569489,0|0|8,3:3|3:3|3:3,3:3:0:0:
395,44,71978,1,0,3:3:0:0:
91,341,72151,2,0,L|208:228,1,149.999998569489,0|0,3:0|3:0,3:0:0:0:
96,48,72496,1,8,3:3:0:0:
439,338,72668,1,0,3:3:0:0:
96,48,72840,5,0,3:3:0:0:
182,193,73013,2,0,P|271:225|317:176,1,149.999998569489,0|8,3:0|3:0,3:0:0:0:
243,63,73358,1,0,3:3:0:0:
392,317,73530,1,0,3:3:0:0:
108,319,73703,1,0,3:3:0:0:
391,69,73875,1,8,3:3:0:0:
69,36,74047,5,0,3:3:0:0:
98,62,74134,1,0,3:3:0:0:
126,93,74220,2,0,L|256:270,2,149.999998569489,0|0|8,3:0|3:0|3:0,3:3:0:0:
425,190,74737,1,0,3:3:0:0:
240,340,74910,1,0,3:3:0:0:
241,46,75082,1,0,3:3:0:0:
80,292,75254,2,0,L|219:214,1,149.999998569489,8|0,3:0|3:0,3:0:0:0:
446,99,75599,1,0,3:3:0:0:
126,93,75772,2,0,L|228:227,1,149.999998569489,0|8,3:0|3:0,3:0:0:0:
312,312,76117,5,0,3:3:0:0:
108,84,76289,1,0,3:3:0:0:
100,292,76461,1,0,3:3:0:0:
255,191,76634,1,8,3:3:0:0:
442,81,76806,5,0,3:3:0:0:
423,90,76892,1,0,3:3:0:0:
392,114,76979,2,0,L|251:199,3,149.999998569489,0|0|8|0,3:0|3:0|3:0|3:0,3:3:0:0:
263,127,77668,1,0,3:3:0:0:
83,296,77841,1,0,3:3:0:0:
175,211,78013,2,0,L|47:66,1,149.999998569489,8|0,3:0|3:0,3:0:0:0:
248,296,78358,1,0,3:3:0:0:
432,104,78530,2,0,L|240:208,1,149.999998569489,0|8,3:0|3:0,3:0:0:0:
46,254,78875,1,0,3:3:0:0:
54,45,79048,1,0,3:3:0:0:
287,248,79220,1,0,3:3:0:0:
292,36,79393,1,8,3:3:0:0:
172,118,79565,5,0,3:3:0:0:
186,155,79651,1,0,3:3:0:0:
180,197,79738,2,0,B|125:282|179:344|179:344,1,149.999998569489
263,270,80082,1,8,3:3:0:0:
64,256,80255,1,0,3:3:0:0:
230,142,80427,2,0,L|352:233,1,149.999998569489,0|0,3:0|3:0,3:0:0:0:
246,30,80772,1,8,3:3:0:0:
144,277,80944,1,0,3:3:0:0:
472,144,81117,2,0,B|324:252,1,149.999998569489,0|0,3:0|3:0,3:0:0:0:
339,78,81462,1,8,3:3:0:0:
364,349,81634,1,0,3:3:0:0:
224,128,81807,5,0,3:3:0:0:
200,148,81979,1,0,3:3:0:0:
180,164,82151,2,0,L|64:276,1,149.999998569489,8|0,3:0|3:0,3:0:0:0:
184,320,82410,1,0,3:3:0:0:
200,304,82496,2,0,L|329:171,1,149.999998569489,0|0,3:0|3:0,3:3:0:0:
169,58,82841,1,8,3:3:0:0:
426,58,83013,1,0,3:3:0:0:
190,156,83185,5,0,3:3:0:0:
191,191,83271,1,0,3:3:0:0:
190,229,83357,1,0,3:3:0:0:
269,92,83530,1,8,3:3:0:0:
278,285,83702,1,0,3:3:0:0:
378,74,83875,1,0,3:3:0:0:
429,307,84047,1,0,3:3:0:0:
267,161,84219,1,8,3:3:0:0:
467,163,84392,1,0,3:3:0:0:
233,305,84564,1,0,3:3:0:0:
213,56,84737,5,0,3:3:0:0:
56,200,84909,2,0,L|124:52,1,149.999998569489,8|0,3:0|3:0,3:0:0:0:
188,68,85254,2,0,L|260:116,1,74.9999992847443,0|0,3:0|3:0,3:0:0:0:
108,40,85426,1,0,3:3:0:0:
408,60,85599,1,8,3:3:0:0:
260,284,85771,1,0,3:3:0:0:
388,216,85944,5,0,3:3:0:0:
260,44,86116,1,0,3:3:0:0:
136,208,86289,1,8,3:3:0:0:
368,116,86461,1,0,3:3:0:0:
164,104,86633,1,0,3:3:0:0:
260,284,86806,1,0,3:3:0:0:
328,72,86978,1,8,3:3:0:0:
192,60,87151,1,0,3:3:0:0:
256,168,87323,1,0,3:3:0:0:
440,240,87496,2,0,L|440:80,1,149.999998569489,0|8,3:0|3:0,3:0:0:0:
308,136,87840,2,0,L|192:216,1,74.9999992847443,0|0,3:0|3:0,3:0:0:0:
100,240,88185,2,0,L|100:172,1,56.2499964237214,0|0,3:0|3:0,3:0:0:0:
104,88,88442,2,0,L|160:88,1,49.9999976158143,0|0,3:0|3:0,3:3:0:0:
464,88,88700,6,0,L|380:88,2,74.9999992847443,0|0|0,3:0|3:0|3:0,3:3:0:0:
176,176,89045,1,8,3:3:0:0:
292,128,89218,1,0,3:3:0:0:
236,300,89390,1,0,3:3:0:0:
360,248,89563,1,0,3:3:0:0:
296,40,89735,1,8,3:3:0:0:
304,160,89907,2,0,L|168:84,1,149.999998569489,0|0,3:0|3:0,3:0:0:0:
156,96,90252,1,0,3:3:0:0:
112,236,90425,1,8,3:3:0:0:
72,96,90597,1,0,3:3:0:0:
304,136,90770,5,0,3:3:0:0:
304,156,90856,1,0,3:3:0:0:
304,172,90942,1,0,3:3:0:0:
112,232,91114,1,8,3:3:0:0:
412,272,91287,1,0,3:3:0:0:
220,88,91459,5,0,3:3:0:0:
224,296,91632,1,0,3:3:0:0:
316,136,91804,1,8,3:3:0:0:
128,252,91977,1,0,3:3:0:0:
144,136,92149,1,0,3:3:0:0:
190,217,92321,2,0,L|326:129,1,149.999998569489,0|8,3:0|3:0,3:0:0:0:
352,108,92666,1,0,3:3:0:0:
364,296,92839,1,0,3:3:0:0:
188,104,93011,1,0,3:3:0:0:
148,276,93184,1,8,3:3:0:0:
72,88,93356,1,0,3:3:0:0:
120,192,93528,6,0,L|208:224,2,74.9999992847443,0|0|0,3:0|3:0|3:0,3:3:0:0:
384,112,93873,1,8,3:3:0:0:
228,144,94046,1,0,3:3:0:0:
172,84,94218,2,0,L|96:40,2,74.9999992847443,0|0|0,3:0|3:0|3:0,3:3:0:0:
196,240,94563,1,8,3:3:0:0:
332,184,94735,1,0,3:3:0:0:
420,224,94908,2,0,L|332:252,2,74.9999992847443,0|0|0,3:0|3:0|3:0,3:3:0:0:
284,264,95253,1,8,3:3:0:0:
456,92,95425,1,0,3:3:0:0:
456,304,95597,1,0,3:3:0:0:
116,44,95770,1,0,3:3:0:0:
348,184,95942,1,8,3:3:0:0:
104,224,96115,1,0,3:3:0:0:
256,192,96287,1,0,3:3:0:0:
328,52,96460,1,0,3:3:0:0:
208,252,96632,2,0,L|268:340,2,74.9999992847443,8|0|0,3:0|3:0|3:0,3:3:0:0:
90,261,96977,5,0,3:3:0:0:
220,184,97149,1,0,3:3:0:0:
154,223,97322,1,8,3:3:0:0:
280,137,97494,1,0,3:3:0:0:
220,184,97667,1,0,3:3:0:0:
337,92,97839,1,0,3:3:0:0:
280,144,98011,1,8,3:3:0:0:
393,46,98184,1,0,3:3:0:0:
288,148,98356,1,0,3:3:0:0:
416,216,98529,1,0,3:3:0:0:
192,56,98701,1,8,3:3:0:0:
436,84,98873,1,0,3:3:0:0:
236,312,99046,1,0,3:3:0:0:
448,272,99218,6,0,L|348:148,1,149.999998569489,0|8,3:0|3:0,3:0:0:0:
312,96,99563,2,0,L|144:96,1,149.999998569489,0|0,3:0|3:0,3:0:0:0:
124,168,99908,2,0,L|36:300,1,149.999998569489,0|8,3:0|3:0,3:0:0:0:
344,284,100253,1,0,3:3:0:0:
152,76,100425,1,0,3:3:0:0:
152,288,100598,1,0,3:3:0:0:
344,80,100770,2,0,P|424:124|420:176,1,149.999998569489,8|0,3:0|3:0,3:0:0:0:
60,60,101109,1,0,3:3:0:0:
248,200,101281,1,0,3:3:0:0:
432,68,101454,1,8,3:3:0:0:
440,312,101626,1,0,3:3:0:0:
116,124,101799,5,0,3:3:0:0:
252,92,101971,1,0,3:3:0:0:
256,204,102144,2,0,L|332:248,2,74.9999992847443,8|0|0,3:0|3:0|3:0,3:3:0:0:
140,228,102488,5,0,3:3:0:0:
132,252,102575,1,0,3:3:0:0:
124,276,102661,1,0,3:3:0:0:
272,312,102833,1,8,3:3:0:0:
320,160,103006,1,0,3:3:0:0:
172,96,103178,1,0,3:3:0:0:
320,160,103351,1,0,3:3:0:0:
268,308,103523,1,8,3:3:0:0:
120,256,103695,1,0,3:3:0:0:
180,96,103868,1,0,3:3:0:0:
444,208,104040,1,0,3:3:0:0:
344,304,104213,1,8,3:3:0:0:
320,160,104385,1,0,3:3:0:0:
180,96,104557,1,0,3:3:0:0:
312,36,104730,1,0,3:3:0:0:
120,248,104902,5,8,3:3:0:0:
456,72,105075,1,0,3:3:0:0:
432,316,105247,1,0,3:3:0:0:
64,128,105420,5,0,3:3:0:0:
252,240,105592,1,8,3:3:0:0:
232,40,105764,2,0,B|476:220,1,299.999997138977,0|0,3:0|3:0,3:0:0:0:
400,280,106282,1,8,3:3:0:0:
320,336,106454,2,0,B|72:152,1,299.999997138977,0|0,3:0|3:0,3:0:0:0:
160,92,106971,1,8,3:3:0:0:
473,218,107144,1,0,3:3:0:0:
172,84,107316,1,0,3:3:0:0:
264,168,107489,1,0,3:3:0:0:
300,216,107661,1,8,3:3:0:0:
332,264,107834,1,0,3:3:0:0:
240,48,108006,5,0,3:3:0:0:
36,296,108178,1,0,3:3:0:0:
280,332,108351,1,8,3:3:0:0:
40,160,108523,2,0,L|372:232,1,299.999997138977,0|0,3:0|3:0,3:0:0:0:
436,184,109040,1,8,3:3:0:0:
360,96,109213,2,0,L|64:40,1,299.999997138977,0|0,3:0|3:0,3:0:0:0:
60,152,109730,1,8,3:3:0:0:
172,244,109903,1,0,3:3:0:0:
224,64,110247,2,0,L|280:136,1,74.9999992847443,0|0,3:0|3:0,3:0:0:0:
400,316,110506,2,0,L|344:240,1,74.9999992847443,0|0,3:0|3:0,3:0:0:0:
184,124,110765,5,0,3:3:0:0:
340,52,110937,1,0,3:3:0:0:
332,196,111110,1,8,3:3:0:0:
120,208,111282,1,0,3:3:0:0:
128,224,111368,1,0,3:3:0:0:
136,240,111454,2,0,L|196:312,2,74.9999992847443,0|0|0,3:0|3:0|3:0,3:3:0:0:
212,44,111799,5,8,3:3:0:0:
280,288,111972,1,0,3:3:0:0:
464,96,112144,2,0,L|348:192,1,149.999998569489,0|0,3:0|3:0,3:0:0:0:
64,316,112489,1,8,3:3:0:0:
180,96,112661,1,0,3:3:0:0:
188,112,112748,1,0,3:3:0:0:
196,128,112834,2,0,L|240:200,2,74.9999992847443,0|0|0,3:0|3:0|3:0,3:3:0:0:
344,96,113179,1,8,3:3:0:0:
176,240,113351,5,0,3:3:0:0:
304,160,113524,1,0,3:3:0:0:
64,332,113696,1,0,3:3:0:0:
184,100,113868,1,8,3:3:0:0:
348,316,114041,1,0,3:3:0:0:
372,272,114127,1,0,3:3:0:0:
376,224,114213,1,0,3:3:0:0:
372,176,114299,1,0,3:3:0:0:
340,144,114386,1,0,3:3:0:0:
120,84,114558,1,8,3:3:0:0:
196,308,114730,5,0,3:3:0:0:
240,148,114903,1,0,3:3:0:0:
348,48,115075,1,0,3:3:0:0:
128,164,115248,1,8,3:3:0:0:
160,280,115420,1,0,3:3:0:0:
180,292,115506,1,0,3:3:0:0:
196,300,115593,2,0,L|280:272,2,74.9999992847443,0|0|0,3:0|3:0|3:0,3:3:0:0:
124,324,115937,1,8,3:3:0:0:
72,264,116110,5,0,3:3:0:0:
300,96,116282,1,0,3:3:0:0:
384,188,116455,1,0,3:3:0:0:
168,128,116627,1,8,3:3:0:0:
300,272,116800,1,0,3:3:0:0:
288,232,116886,1,0,3:3:0:0:
264,188,116972,1,0,3:3:0:0:
236,160,117058,1,0,3:3:0:0:
200,140,117144,1,0,3:3:0:0:
228,76,117317,1,8,3:3:0:0:
128,220,117489,1,0,3:3:0:0:
300,36,117662,6,0,L|396:160,1,149.999998569489,0|0,3:0|3:0,3:0:0:0:
408,208,118007,1,8,3:3:0:0:
264,208,118179,1,0,3:3:0:0:
256,184,118265,1,0,3:3:0:0:
228,164,118351,1,0,3:3:0:0:
200,144,118438,1,0,3:3:0:0:
168,144,118524,1,0,3:3:0:0:
280,48,118696,1,8,3:3:0:0:
160,248,118869,1,0,3:3:0:0:
56,48,119041,6,0,L|196:132,1,149.999998569489,0|0,3:0|3:0,3:0:0:0:
212,144,119386,1,8,3:3:0:0:
352,108,119558,1,0,3:3:0:0:
364,140,119645,1,0,3:3:0:0:
376,168,119731,2,0,L|428:264,2,74.9999992847443,0|0|0,3:0|3:0|3:0,3:3:0:0:
104,260,120076,1,8,3:3:0:0:
48,344,120248,5,0,3:3:0:0:
172,212,120420,1,0,3:3:0:0:
236,156,120593,1,0,3:3:0:0:
184,112,120765,1,8,3:3:0:0:
288,200,120938,1,0,3:3:0:0:
316,216,121024,1,0,3:3:0:0:
336,232,121110,2,0,L|424:296,2,74.9999992847443,0|0|0,3:0|3:0|3:0,3:0:0:0:
340,108,121455,1,8,3:0:0:0:
228,296,121627,5,0,3:0:0:0:
48,80,121800,1,0,3:0:0:0:
76,212,121972,1,0,3:0:0:0:
144,116,122145,1,8,3:0:0:0:
264,36,122317,1,0,3:0:0:0:
312,48,122403,1,0,3:0:0:0:
348,80,122490,1,0,3:0:0:0:
352,128,122576,1,0,3:0:0:0:
324,164,122662,1,0,3:0:0:0:
188,232,122834,1,8,3:0:0:0:
252,188,123007,5,0,3:0:0:0:
128,280,123179,1,0,3:0:0:0:
136,152,123352,1,0,3:0:0:0:
236,296,123524,1,8,3:0:0:0:
456,120,123697,1,0,3:0:0:0:
456,156,123783,1,0,3:0:0:0:
456,180,123869,1,0,3:0:0:0:
456,216,123955,1,0,3:0:0:0:
456,244,124041,1,0,3:0:0:0:
228,148,124214,1,8,3:0:0:0:
340,144,124386,1,0,3:0:0:0:
40,100,124559,6,0,L|136:228,1,149.999998569489,0|0,3:0|3:0,3:0:0:0:
148,244,124903,1,8,3:0:0:0:
192,112,125076,1,0,3:0:0:0:
220,140,125162,1,0,3:0:0:0:
252,176,125248,1,0,3:0:0:0:
252,228,125335,1,0,3:0:0:0:
224,272,125421,1,0,3:0:0:0:
84,212,125593,1,8,3:0:0:0:
288,312,125766,5,0,3:0:0:0:
420,200,125938,2,0,L|248:204,1,149.999998569489,0|0,3:0|3:0,3:0:0:0:
224,204,126283,1,8,3:0:0:0:
88,56,126455,1,0,3:0:0:0:
116,84,126542,1,0,3:0:0:0:
136,108,126628,2,0,L|204:176,2,74.9999992847443,0|0|0,3:0|3:0|3:0,3:0:0:0:
296,48,126973,1,8,3:0:0:0:
104,136,127145,5,0,3:0:0:0:
464,348,127317,2,0,L|352:240,1,149.999998569489,0|0,3:0|3:0,3:0:0:0:
356,243,127662,1,8,3:0:0:0:
148,328,127835,1,0,3:0:0:0:
232,268,127921,1,0,3:0:0:0:
236,220,128007,2,0,L|236:136,2,74.9999992847443,0|0|0,3:0|3:0|3:0,3:0:0:0:
152,276,128352,1,8,3:0:0:0:
88,340,128524,5,0,3:0:0:0:
264,68,128697,1,0,3:0:0:0:
184,180,128869,1,0,3:0:0:0:
332,168,129042,1,8,3:0:0:0:
260,228,129214,1,0,3:0:0:0:
260,228,129300,1,0,3:0:0:0:
260,228,129386,1,0,3:0:0:0:
260,228,129473,1,0,3:0:0:0:
260,228,129559,1,0,3:0:0:0:
176,284,129731,1,8,3:0:0:0:
448,328,129904,5,0,3:0:0:0:
272,176,130076,1,0,3:0:0:0:
356,256,130249,1,0,3:0:0:0:
184,88,130421,1,8,3:0:0:0:
368,60,130593,1,0,3:0:0:0:
372,92,130680,1,0,3:0:0:0:
376,120,130766,1,0,3:0:0:0:
384,152,130852,2,0,L|408:256,1,74.9999992847443,0|0,3:0|3:0,3:0:0:0:
456,332,131111,1,8,3:0:0:0:
316,260,131283,1,0,3:0:0:0:
104,96,131456,2,0,L|220:216,1,149.999998569489,0|0,3:0|3:0,3:0:0:0:
64,212,131800,1,8,3:0:0:0:
300,328,131973,1,0,3:0:0:0:
340,84,132318,2,0,L|292:148,1,74.9999992847443,0|0,3:0|3:0,3:0:0:0:
172,296,132576,2,0,L|216:232,1,74.9999992847443,0|0,3:0|3:0,3:0:0:0:
356,264,132835,37,4,3:0:0:0:
