osu file format v14

[General]
AudioFilename: audio.mp3
AudioLeadIn: 0
PreviewTime: 52253
Countdown: 0
SampleSet: Normal
StackLeniency: 0.7
Mode: 1
LetterboxInBreaks: 0
WidescreenStoryboard: 0

[Editor]
DistanceSpacing: 1.4
BeatDivisor: 4
GridSize: 32
TimelineZoom: 2.099998

[Metadata]
Title:only a small number of reasons keep me on this planet...
TitleUnicode:only a small number of reasons keep me on this planet...
Artist:I.W.
ArtistUnicode:I.W.
Creator:Briesmas
Version:Inner Oni
Source:
Tags:remix electronic japanese comptonhikikomori hatsune miku YY 23.exe arcpotato rap and i lose a couple more everyday vocaloid
BeatmapID:3313153
BeatmapSetID:1622678

[Difficulty]
HPDrainRate:6.5
CircleSize:2
OverallDifficulty:6.5
ApproachRate:0
SliderMultiplier:1.4
SliderTickRate:1

[Events]
//Background and Video events
0,0,"mikudab.png",0,0
//Break Periods
//Storyboard Layer 0 (Background)
//Storyboard Layer 1 (Fail)
//Storyboard Layer 2 (Pass)
//Storyboard Layer 3 (Foreground)
//Storyboard Layer 4 (Overlay)
//Storyboard Sound Samples

[TimingPoints]
139,342.857142857143,4,1,0,70,1,0
139,-133.333333333333,4,1,0,70,0,0
2710,-117.647058823529,4,1,0,80,0,0
3053,-133.333333333333,4,1,0,70,0,0
5110,-125,4,1,0,80,0,0
5796,-133.333333333333,4,1,0,70,0,0
8196,-117.647058823529,4,1,0,80,0,0
8539,-133.333333333333,4,1,0,70,0,0
10767,-125,4,1,0,80,0,0
11281,-133.333333333333,4,1,0,70,0,0
13681,-117.647058823529,4,1,0,80,0,0
14024,-133.333333333333,4,1,0,70,0,0
17796,-117.647058823529,4,1,0,80,0,0
18139,-133.333333333333,4,1,0,70,0,0
19167,-117.647058823529,4,1,0,80,0,0
19510,-133.333333333333,4,1,0,70,0,0
19939,-131.578947368421,4,1,0,70,0,0
20024,-129.87012987013,4,1,0,70,0,0
20196,-126.582278481013,4,1,0,70,0,0
20281,-125,4,1,0,70,0,0
20453,-123.456790123457,4,1,0,70,0,0
20539,-121.951219512195,4,1,0,70,0,0
20624,-120.481927710843,4,1,0,70,0,0
20710,-119.047619047619,4,1,0,70,0,0
20881,-116.279069767442,4,1,0,70,0,0
20967,-114.942528735632,4,1,0,70,0,0
21139,-112.359550561798,4,1,0,70,0,0
21224,-111.111111111111,4,1,0,70,0,0
21310,-109.89010989011,4,1,0,70,0,0
21396,-108.695652173913,4,1,0,70,0,0
21567,-106.382978723404,4,1,0,70,0,0
21653,-105.263157894737,4,1,0,70,0,0
21824,-103.092783505155,4,1,0,70,0,0
21910,-102.040816326531,4,1,0,70,0,0
22081,-100,4,1,0,100,0,0
44710,-90.9090909090909,4,1,0,80,0,0
45053,-117.647058823529,4,1,0,70,0,0
50196,-91.324200913242,4,1,0,80,0,0
50539,-117.647058823529,4,1,0,70,0,0
52253,-100,4,1,0,90,0,0
57739,-100,4,1,0,100,0,0
71624,-90.9090909090909,4,1,0,100,0,0
71967,-111.111111111111,4,1,0,100,0,0
72824,-100,4,1,0,100,0,0
82596,-90.9090909090909,4,1,0,100,0,0
82939,-111.111111111111,4,1,0,100,0,0
83624,-100,4,1,0,100,0,0
87910,-90.9090909090909,4,1,0,100,0,1
109853,-90.9090909090909,4,1,0,100,0,0
111224,-111.111111111111,4,1,0,50,0,0
112596,-133.333333333333,4,1,0,40,0,0
116710,-111.111111111111,4,1,0,50,0,0
118081,-133.333333333333,4,1,0,40,0,0
120824,-100.285714904334,4,1,0,30,0,0
121510,-100.285714904334,4,1,0,25,0,0
122196,-100.285714904334,4,1,0,20,0,0
122881,-100.285714904334,4,1,0,19,0,0
123567,-100.285714904334,4,1,0,18,0,0
124253,-100.285714904334,4,1,0,17,0,0
124939,-100.285714904334,4,1,0,16,0,0
125624,-100.285714904334,4,1,0,15,0,0
126310,-100.285714904334,4,1,0,14,0,0
126996,-100.285714904334,4,1,0,13,0,0
127681,-100.285714904334,4,1,0,12,0,0
128367,-100.285714904334,4,1,0,11,0,0
129053,-100.285714904334,4,1,0,10,0,0
129396,-100.285714904334,4,1,0,9,0,0
129739,-100.285714904334,4,1,0,8,0,0
130081,-100.285714904334,4,1,0,7,0,0
130424,-100.285714904334,4,1,0,6,0,0
130767,-100.285714904334,4,1,0,5,0,0

[HitObjects]
256,192,139,5,8,0:0:0:0:
256,192,310,1,0,0:0:0:0:
256,192,653,1,0,0:0:0:0:
256,192,739,1,8,0:0:0:0:
256,192,824,1,0,0:0:0:0:
256,192,910,1,0,0:0:0:0:
256,192,996,1,8,0:0:0:0:
256,192,1081,1,0,0:0:0:0:
256,192,1167,1,8,0:0:0:0:
256,192,1339,1,8,0:0:0:0:
256,192,1681,1,0,0:0:0:0:
256,192,1767,1,0,0:0:0:0:
256,192,1853,1,8,0:0:0:0:
256,192,2024,1,8,0:0:0:0:
256,192,2110,1,0,0:0:0:0:
256,192,2281,1,8,0:0:0:0:
256,192,2367,1,0,0:0:0:0:
256,192,2453,1,0,0:0:0:0:
256,192,2539,1,8,0:0:0:0:
256,192,2710,1,0,0:0:0:0:
256,192,2881,1,8,0:0:0:0:
256,192,3053,1,0,0:0:0:0:
256,192,3139,1,0,0:0:0:0:
256,192,3224,1,8,0:0:0:0:
256,192,3396,1,8,0:0:0:0:
256,192,3481,1,8,0:0:0:0:
256,192,3567,1,0,0:0:0:0:
256,192,3653,1,8,0:0:0:0:
256,192,3824,1,8,0:0:0:0:
256,192,3996,1,8,0:0:0:0:
256,192,4081,1,0,0:0:0:0:
256,192,4253,1,8,0:0:0:0:
256,192,4424,1,0,0:0:0:0:
256,192,4510,1,8,0:0:0:0:
256,192,4681,1,0,0:0:0:0:
256,192,4767,1,8,0:0:0:0:
256,192,4853,1,0,0:0:0:0:
256,192,4939,1,0,0:0:0:0:
256,192,5110,1,8,0:0:0:0:
256,192,5196,1,8,0:0:0:0:
256,192,5367,1,8,0:0:0:0:
256,192,5453,1,8,0:0:0:0:
256,192,5624,1,8,0:0:0:0:
256,192,5796,1,0,0:0:0:0:
256,192,6139,1,0,0:0:0:0:
256,192,6224,1,8,0:0:0:0:
256,192,6310,1,0,0:0:0:0:
256,192,6396,1,0,0:0:0:0:
256,192,6481,1,8,0:0:0:0:
256,192,6567,1,0,0:0:0:0:
256,192,6653,1,8,0:0:0:0:
256,192,6824,1,8,0:0:0:0:
256,192,7167,1,0,0:0:0:0:
256,192,7253,1,0,0:0:0:0:
256,192,7339,1,8,0:0:0:0:
256,192,7510,1,8,0:0:0:0:
256,192,7596,1,0,0:0:0:0:
256,192,7767,1,8,0:0:0:0:
256,192,7853,1,0,0:0:0:0:
256,192,7939,1,0,0:0:0:0:
256,192,8024,1,8,0:0:0:0:
256,192,8196,1,0,0:0:0:0:
256,192,8367,1,8,0:0:0:0:
256,192,8539,1,0,0:0:0:0:
256,192,8624,1,0,0:0:0:0:
256,192,8710,1,8,0:0:0:0:
256,192,8881,1,8,0:0:0:0:
256,192,8967,1,8,0:0:0:0:
256,192,9053,1,0,0:0:0:0:
256,192,9139,1,8,0:0:0:0:
256,192,9310,1,8,0:0:0:0:
256,192,9481,1,8,0:0:0:0:
256,192,9567,1,0,0:0:0:0:
256,192,9739,1,8,0:0:0:0:
256,192,9910,1,8,0:0:0:0:
256,192,9996,1,0,0:0:0:0:
256,192,10167,1,0,0:0:0:0:
256,192,10253,1,0,0:0:0:0:
256,192,10339,1,8,0:0:0:0:
256,192,10424,1,0,0:0:0:0:
256,192,10510,1,8,0:0:0:0:
256,192,10596,1,0,0:0:0:0:
256,192,10681,1,0,0:0:0:0:
256,192,10767,1,8,0:0:0:0:
256,192,10939,1,8,0:0:0:0:
256,192,11110,1,8,0:0:0:0:
256,192,11281,1,0,0:0:0:0:
256,192,11624,1,0,0:0:0:0:
256,192,11710,1,8,0:0:0:0:
256,192,11796,1,0,0:0:0:0:
256,192,11881,1,0,0:0:0:0:
256,192,11967,1,8,0:0:0:0:
256,192,12053,1,0,0:0:0:0:
256,192,12139,1,8,0:0:0:0:
256,192,12310,1,8,0:0:0:0:
256,192,12653,1,0,0:0:0:0:
256,192,12739,1,0,0:0:0:0:
256,192,12824,1,8,0:0:0:0:
256,192,12996,1,8,0:0:0:0:
256,192,13081,1,0,0:0:0:0:
256,192,13253,1,8,0:0:0:0:
256,192,13339,1,0,0:0:0:0:
256,192,13424,1,0,0:0:0:0:
256,192,13510,1,8,0:0:0:0:
256,192,13681,1,0,0:0:0:0:
256,192,13853,1,8,0:0:0:0:
256,192,14024,1,0,0:0:0:0:
256,192,14110,1,0,0:0:0:0:
256,192,14196,1,8,0:0:0:0:
256,192,14367,1,8,0:0:0:0:
256,192,14453,1,8,0:0:0:0:
256,192,14539,1,0,0:0:0:0:
256,192,14624,1,8,0:0:0:0:
256,192,14796,1,8,0:0:0:0:
256,192,14967,1,8,0:0:0:0:
256,192,15053,1,0,0:0:0:0:
256,192,15224,1,8,0:0:0:0:
256,192,15396,1,0,0:0:0:0:
256,192,15481,1,8,0:0:0:0:
256,192,15653,1,8,0:0:0:0:
256,192,15739,1,8,0:0:0:0:
256,192,15824,1,0,0:0:0:0:
256,192,15910,1,8,0:0:0:0:
256,192,15996,1,0,0:0:0:0:
256,192,16081,1,8,0:0:0:0:
256,192,16167,1,8,0:0:0:0:
256,192,16253,1,0,0:0:0:0:
256,192,16424,1,8,0:0:0:0:
256,192,16596,1,8,0:0:0:0:
256,192,16681,1,8,0:0:0:0:
256,192,16767,1,0,0:0:0:0:
256,192,16939,1,8,0:0:0:0:
256,192,17110,1,8,0:0:0:0:
256,192,17196,1,0,0:0:0:0:
256,192,17367,1,8,0:0:0:0:
256,192,17453,1,0,0:0:0:0:
256,192,17539,1,0,0:0:0:0:
256,192,17624,1,8,0:0:0:0:
256,192,17796,1,8,0:0:0:0:
256,192,17967,1,0,0:0:0:0:
256,192,18139,1,0,0:0:0:0:
256,192,18310,1,8,0:0:0:0:
256,192,18481,1,0,0:0:0:0:
256,192,18567,1,8,0:0:0:0:
256,192,18739,1,8,0:0:0:0:
256,192,18824,1,0,0:0:0:0:
256,192,18910,1,0,0:0:0:0:
256,192,18996,1,8,0:0:0:0:
256,192,19167,1,0,0:0:0:0:
256,192,19339,1,8,0:0:0:0:
256,192,19510,1,8,0:0:0:0:
256,192,19681,1,8,0:0:0:0:
256,192,19853,1,0,0:0:0:0:
256,192,19939,1,8,0:0:0:0:
256,192,20024,1,0,0:0:0:0:
256,192,20196,1,0,0:0:0:0:
256,192,20310,1,8,0:0:0:0:
256,192,20453,1,8,0:0:0:0:
256,192,20539,1,0,0:0:0:0:
256,192,20624,1,0,0:0:0:0:
256,192,20710,1,8,0:0:0:0:
256,192,20881,1,8,0:0:0:0:
256,192,20996,1,0,0:0:0:0:
256,192,21139,1,8,0:0:0:0:
256,192,21224,1,0,0:0:0:0:
256,192,21310,1,0,0:0:0:0:
256,192,21396,1,8,0:0:0:0:
256,192,21567,1,8,0:0:0:0:
256,192,21681,1,8,0:0:0:0:
256,192,21824,1,0,0:0:0:0:
256,192,21910,1,0,0:0:0:0:
256,192,22082,1,8,0:0:0:0:
256,192,22253,1,0,0:0:0:0:
256,192,22424,1,8,0:0:0:0:
256,192,22596,1,0,0:0:0:0:
256,192,22682,1,8,0:0:0:0:
256,192,22767,1,0,0:0:0:0:
256,192,22853,1,8,0:0:0:0:
256,192,22939,1,0,0:0:0:0:
256,192,23110,1,8,0:0:0:0:
256,192,23282,1,8,0:0:0:0:
256,192,23367,1,8,0:0:0:0:
256,192,23453,1,0,0:0:0:0:
256,192,23624,1,0,0:0:0:0:
256,192,23796,1,8,0:0:0:0:
256,192,23967,1,0,0:0:0:0:
256,192,24053,1,8,0:0:0:0:
256,192,24139,1,0,0:0:0:0:
256,192,24224,1,0,0:0:0:0:
256,192,24310,1,8,0:0:0:0:
256,192,24653,1,8,0:0:0:0:
256,192,24824,1,0,0:0:0:0:
256,192,24996,1,0,0:0:0:0:
256,192,25082,1,0,0:0:0:0:
256,192,25167,1,8,0:0:0:0:
256,192,25339,1,0,0:0:0:0:
256,192,25424,1,0,0:0:0:0:
256,192,25510,1,8,0:0:0:0:
256,192,25596,1,8,0:0:0:0:
256,192,25682,1,0,0:0:0:0:
256,192,25853,1,8,0:0:0:0:
256,192,26024,1,8,0:0:0:0:
256,192,26110,1,8,0:0:0:0:
256,192,26196,1,0,0:0:0:0:
256,192,26367,1,0,0:0:0:0:
256,192,26453,1,0,0:0:0:0:
256,192,26539,1,8,0:0:0:0:
256,192,26710,1,8,0:0:0:0:
256,192,26882,1,0,0:0:0:0:
256,192,26967,1,8,0:0:0:0:
256,192,27053,1,0,0:0:0:0:
256,192,27224,1,0,0:0:0:0:
256,192,27310,1,0,0:0:0:0:
256,192,27396,1,0,0:0:0:0:
256,192,27482,1,0,0:0:0:0:
256,192,27567,1,0,0:0:0:0:
256,192,27910,1,8,0:0:0:0:
256,192,28082,1,8,0:0:0:0:
256,192,28167,1,0,0:0:0:0:
256,192,28253,1,8,0:0:0:0:
256,192,28339,1,8,0:0:0:0:
256,192,28424,1,0,0:0:0:0:
256,192,28596,1,0,0:0:0:0:
256,192,28767,1,0,0:0:0:0:
256,192,28939,1,8,0:0:0:0:
256,192,29110,1,0,0:0:0:0:
256,192,29196,1,8,0:0:0:0:
256,192,29282,1,0,0:0:0:0:
256,192,29453,1,8,0:0:0:0:
256,192,29624,1,8,0:0:0:0:
256,192,29710,1,8,0:0:0:0:
256,192,29796,1,8,0:0:0:0:
256,192,29882,1,8,0:0:0:0:
256,192,29967,1,0,0:0:0:0:
256,192,30139,1,0,0:0:0:0:
256,192,30224,1,0,0:0:0:0:
256,192,30310,1,0,0:0:0:0:
256,192,30482,1,0,0:0:0:0:
256,192,30653,1,8,0:0:0:0:
256,192,30824,1,0,0:0:0:0:
256,192,30910,1,8,0:0:0:0:
256,192,30996,1,0,0:0:0:0:
256,192,31082,1,8,0:0:0:0:
256,192,31167,1,0,0:0:0:0:
256,192,31339,1,8,0:0:0:0:
256,192,31510,1,8,0:0:0:0:
256,192,31682,1,0,0:0:0:0:
256,192,31853,1,0,0:0:0:0:
256,192,32024,1,8,0:0:0:0:
256,192,32196,1,8,0:0:0:0:
256,192,32282,1,0,0:0:0:0:
256,192,32367,1,8,0:0:0:0:
256,192,32452,1,8,0:0:0:0:
256,192,32538,1,8,0:0:0:0:
256,192,32624,1,8,0:0:0:0:
256,192,32710,1,0,0:0:0:0:
256,192,32795,1,0,0:0:0:0:
256,192,32881,1,0,0:0:0:0:
256,192,32967,1,0,0:0:0:0:
256,192,33053,1,8,0:0:0:0:
256,192,33224,1,0,0:0:0:0:
256,192,33396,1,8,0:0:0:0:
256,192,33567,1,8,0:0:0:0:
256,192,33653,1,0,0:0:0:0:
256,192,33739,1,8,0:0:0:0:
256,192,33824,1,8,0:0:0:0:
256,192,33910,1,0,0:0:0:0:
256,192,34082,1,0,0:0:0:0:
256,192,34253,1,0,0:0:0:0:
256,192,34424,1,8,0:0:0:0:
256,192,34596,1,0,0:0:0:0:
256,192,34682,1,8,0:0:0:0:
256,192,34767,1,0,0:0:0:0:
256,192,34939,1,8,0:0:0:0:
256,192,35110,1,8,0:0:0:0:
256,192,35196,1,8,0:0:0:0:
256,192,35282,1,8,0:0:0:0:
256,192,35367,1,8,0:0:0:0:
256,192,35453,1,0,0:0:0:0:
256,192,35624,1,0,0:0:0:0:
256,192,35710,1,0,0:0:0:0:
256,192,35796,1,0,0:0:0:0:
256,192,35967,1,0,0:0:0:0:
256,192,36139,1,8,0:0:0:0:
256,192,36310,1,8,0:0:0:0:
256,192,36396,1,8,0:0:0:0:
256,192,36482,1,0,0:0:0:0:
256,192,36567,1,8,0:0:0:0:
256,192,36653,1,0,0:0:0:0:
256,192,36824,1,8,0:0:0:0:
256,192,36996,1,8,0:0:0:0:
256,192,37167,1,0,0:0:0:0:
256,192,37339,1,0,0:0:0:0:
256,192,37510,1,8,0:0:0:0:
256,192,37682,1,0,0:0:0:0:
256,192,37767,1,0,0:0:0:0:
256,192,37853,1,8,0:0:0:0:
256,192,38024,1,0,0:0:0:0:
256,192,38110,1,8,0:0:0:0:
256,192,38196,1,0,0:0:0:0:
256,192,38282,1,0,0:0:0:0:
256,192,38367,1,8,0:0:0:0:
256,192,38539,1,0,0:0:0:0:
256,192,38710,1,0,0:0:0:0:
256,192,38882,1,8,0:0:0:0:
256,192,39053,1,0,0:0:0:0:
256,192,39139,1,0,0:0:0:0:
256,192,39224,1,8,0:0:0:0:
256,192,39396,1,8,0:0:0:0:
256,192,39567,1,0,0:0:0:0:
256,192,39653,1,0,0:0:0:0:
256,192,39739,1,8,0:0:0:0:
256,192,39824,1,8,0:0:0:0:
256,192,39910,1,0,0:0:0:0:
256,192,40082,1,0,0:0:0:0:
256,192,40167,1,0,0:0:0:0:
256,192,40253,1,8,0:0:0:0:
256,192,40424,1,0,0:0:0:0:
256,192,40510,1,8,0:0:0:0:
256,192,40596,1,0,0:0:0:0:
256,192,40682,1,8,0:0:0:0:
256,192,40767,1,0,0:0:0:0:
256,192,40939,1,8,0:0:0:0:
256,192,41110,1,0,0:0:0:0:
256,192,41196,1,8,0:0:0:0:
256,192,41282,1,0,0:0:0:0:
256,192,41453,1,0,0:0:0:0:
256,192,41624,1,8,0:0:0:0:
256,192,41796,1,0,0:0:0:0:
256,192,41882,1,0,0:0:0:0:
256,192,41967,1,8,0:0:0:0:
256,192,42139,1,0,0:0:0:0:
256,192,42224,1,8,0:0:0:0:
256,192,42310,1,0,0:0:0:0:
256,192,42396,1,0,0:0:0:0:
256,192,42482,1,8,0:0:0:0:
256,192,42567,1,8,0:0:0:0:
256,192,42653,1,0,0:0:0:0:
256,192,42824,1,8,0:0:0:0:
256,192,42996,1,0,0:0:0:0:
256,192,43167,1,0,0:0:0:0:
256,192,43253,1,0,0:0:0:0:
256,192,43339,1,8,0:0:0:0:
256,192,43510,1,8,0:0:0:0:
256,192,43682,1,0,0:0:0:0:
256,192,43767,1,0,0:0:0:0:
256,192,43853,1,0,0:0:0:0:
256,192,43939,1,0,0:0:0:0:
256,192,44024,1,0,0:0:0:0:
256,192,44710,2,0,L|352:192,1,77.0000023498536
256,192,45053,1,8,0:0:0:0:
256,192,45396,1,0,0:0:0:0:
256,192,45510,1,8,0:0:0:0:
256,192,45624,1,8,0:0:0:0:
256,192,45739,1,0,0:0:0:0:
256,192,45853,1,0,0:0:0:0:
256,192,45967,1,0,0:0:0:0:
256,192,46081,1,8,0:0:0:0:
256,192,46424,1,8,0:0:0:0:
256,192,46767,1,0,0:0:0:0:
256,192,47453,1,0,0:0:0:0:
256,192,48024,1,0,0:0:0:0:
256,192,48139,1,8,0:0:0:0:
256,192,48253,1,0,0:0:0:0:
256,192,48367,1,0,0:0:0:0:
256,192,48481,1,8,0:0:0:0:
256,192,48596,1,0,0:0:0:0:
256,192,48710,1,8,0:0:0:0:
256,192,48824,1,0,0:0:0:0:
256,192,49167,1,0,0:0:0:0:
256,192,49510,1,8,0:0:0:0:
256,192,50196,2,0,L|352:192,1,76.6499978362656
256,192,50539,1,8,0:0:0:0:
256,192,50881,1,0,0:0:0:0:
256,192,50996,1,8,0:0:0:0:
256,192,51110,1,8,0:0:0:0:
256,192,51224,1,0,0:0:0:0:
256,192,51339,1,0,0:0:0:0:
256,192,51453,1,0,0:0:0:0:
256,192,51567,1,8,0:0:0:0:
256,192,51910,1,0,0:0:0:0:
256,192,52253,1,8,0:0:0:0:
256,192,52339,1,8,0:0:0:0:
256,192,52424,1,8,0:0:0:0:
256,192,52510,1,8,0:0:0:0:
256,192,52596,1,8,0:0:0:0:
256,192,52681,1,8,0:0:0:0:
256,192,52767,1,8,0:0:0:0:
256,192,52853,1,8,0:0:0:0:
256,192,52939,1,8,0:0:0:0:
256,192,53024,1,8,0:0:0:0:
256,192,53110,1,8,0:0:0:0:
256,192,53196,1,8,0:0:0:0:
256,192,53281,1,8,0:0:0:0:
256,192,53367,1,8,0:0:0:0:
256,192,53453,1,8,0:0:0:0:
256,192,53539,1,8,0:0:0:0:
256,192,53624,1,8,0:0:0:0:
256,192,53710,1,8,0:0:0:0:
256,192,53796,1,8,0:0:0:0:
256,192,53881,1,8,0:0:0:0:
256,192,53967,1,8,0:0:0:0:
256,192,54054,1,8,0:0:0:0:
256,192,54140,1,8,0:0:0:0:
256,192,54225,1,8,0:0:0:0:
256,192,54311,1,8,0:0:0:0:
256,192,54396,1,8,0:0:0:0:
256,192,54482,1,8,0:0:0:0:
256,192,54568,1,8,0:0:0:0:
256,192,54653,1,8,0:0:0:0:
256,192,54739,1,8,0:0:0:0:
256,192,54824,1,8,0:0:0:0:
256,192,54910,1,8,0:0:0:0:
256,192,54996,1,0,0:0:0:0:
256,192,55110,1,0,0:0:0:0:
256,192,55224,1,8,0:0:0:0:
256,192,55339,1,0,0:0:0:0:
256,192,55453,1,8,0:0:0:0:
256,192,55567,1,0,0:0:0:0:
256,192,55681,1,8,0:0:0:0:
256,192,55796,1,8,0:0:0:0:
256,192,55910,1,0,0:0:0:0:
256,192,56024,1,8,0:0:0:0:
256,192,56139,1,0,0:0:0:0:
256,192,56253,1,0,0:0:0:0:
256,192,56367,1,8,0:0:0:0:
256,192,56481,1,8,0:0:0:0:
256,192,56596,1,0,0:0:0:0:
256,192,56710,1,8,0:0:0:0:
256,192,56824,1,8,0:0:0:0:
256,192,56939,1,8,0:0:0:0:
256,192,57053,1,0,0:0:0:0:
256,192,57167,1,8,0:0:0:0:
256,192,57281,1,8,0:0:0:0:
256,192,57396,1,0,0:0:0:0:
256,192,57510,1,8,0:0:0:0:
256,192,57624,1,8,0:0:0:0:
256,192,57739,1,0,0:0:0:0:
256,192,57910,1,0,0:0:0:0:
256,192,58081,1,8,0:0:0:0:
256,192,58253,1,0,0:0:0:0:
256,192,58338,1,8,0:0:0:0:
256,192,58424,1,0,0:0:0:0:
256,192,58510,1,8,0:0:0:0:
256,192,58596,1,0,0:0:0:0:
256,192,58767,1,8,0:0:0:0:
256,192,58938,1,8,0:0:0:0:
256,192,59024,1,8,0:0:0:0:
256,192,59110,1,0,0:0:0:0:
256,192,59281,1,0,0:0:0:0:
256,192,59453,1,8,0:0:0:0:
256,192,59624,1,8,0:0:0:0:
256,192,59796,1,0,0:0:0:0:
256,192,59881,1,8,0:0:0:0:
256,192,59967,1,0,0:0:0:0:
256,192,60138,1,0,0:0:0:0:
256,192,60224,1,0,0:0:0:0:
256,192,60310,1,0,0:0:0:0:
256,192,60396,1,0,0:0:0:0:
256,192,60481,1,0,0:0:0:0:
256,192,60653,1,0,0:0:0:0:
256,192,60824,1,8,0:0:0:0:
256,192,60996,1,8,0:0:0:0:
256,192,61167,1,0,0:0:0:0:
256,192,61338,1,0,0:0:0:0:
256,192,61424,1,0,0:0:0:0:
256,192,61510,1,8,0:0:0:0:
256,192,61681,1,8,0:0:0:0:
256,192,61767,1,8,0:0:0:0:
256,192,61853,1,0,0:0:0:0:
256,192,62110,1,0,0:0:0:0:
256,192,62367,1,8,0:0:0:0:
256,192,62424,1,0,0:0:0:0:
256,192,62481,1,0,0:0:0:0:
256,192,62538,1,0,0:0:0:0:
256,192,62796,1,0,0:0:0:0:
256,192,63053,1,8,0:0:0:0:
256,192,63138,1,8,0:0:0:0:
256,192,63224,1,0,0:0:0:0:
256,192,63396,1,0,0:0:0:0:
256,192,63567,1,8,0:0:0:0:
256,192,63738,1,8,0:0:0:0:
256,192,63910,1,0,0:0:0:0:
256,192,64081,1,8,0:0:0:0:
256,192,64167,1,0,0:0:0:0:
256,192,64253,1,0,0:0:0:0:
256,192,64424,1,0,0:0:0:0:
256,192,64510,1,8,0:0:0:0:
256,192,64596,1,8,0:0:0:0:
256,192,64767,1,0,0:0:0:0:
256,192,64938,1,8,0:0:0:0:
256,192,65110,1,0,0:0:0:0:
256,192,65196,1,0,0:0:0:0:
256,192,65281,1,0,0:0:0:0:
256,192,65624,1,8,0:0:0:0:
256,192,65796,1,0,0:0:0:0:
256,192,65881,1,0,0:0:0:0:
256,192,65967,1,8,0:0:0:0:
256,192,66138,1,0,0:0:0:0:
256,192,66310,1,8,0:0:0:0:
256,192,66481,1,8,0:0:0:0:
256,192,66567,1,8,0:0:0:0:
256,192,66653,1,0,0:0:0:0:
256,192,66738,1,8,0:0:0:0:
256,192,66824,1,0,0:0:0:0:
256,192,66996,1,8,0:0:0:0:
256,192,67167,1,8,0:0:0:0:
256,192,67253,1,8,0:0:0:0:
256,192,67338,1,0,0:0:0:0:
256,192,67510,1,0,0:0:0:0:
256,192,67596,1,0,0:0:0:0:
256,192,67681,1,8,0:0:0:0:
256,192,67853,1,8,0:0:0:0:
256,192,67938,1,0,0:0:0:0:
256,192,68024,1,8,0:0:0:0:
256,192,68110,1,8,0:0:0:0:
256,192,68196,1,0,0:0:0:0:
256,192,68281,1,0,0:0:0:0:
256,192,68367,1,8,0:0:0:0:
256,192,68538,1,8,0:0:0:0:
256,192,68624,1,0,0:0:0:0:
256,192,68710,1,0,0:0:0:0:
256,192,68881,1,8,0:0:0:0:
256,192,69053,1,0,0:0:0:0:
256,192,69139,1,8,0:0:0:0:
256,192,69310,1,8,0:0:0:0:
256,192,69396,1,0,0:0:0:0:
256,192,69567,1,0,0:0:0:0:
256,192,69653,1,8,0:0:0:0:
256,192,69824,1,0,0:0:0:0:
256,192,69910,1,0,0:0:0:0:
256,192,69996,1,8,0:0:0:0:
256,192,70081,1,0,0:0:0:0:
256,192,70253,1,8,0:0:0:0:
256,192,70339,1,0,0:0:0:0:
256,192,70510,1,0,0:0:0:0:
256,192,70681,1,8,0:0:0:0:
256,192,70767,1,0,0:0:0:0:
256,192,70853,1,8,0:0:0:0:
256,192,71024,1,8,0:0:0:0:
256,192,71110,1,0,0:0:0:0:
256,192,71196,1,0,0:0:0:0:
256,192,71281,1,0,0:0:0:0:
256,192,71367,1,0,0:0:0:0:
256,192,71453,1,8,0:0:0:0:
256,192,71624,1,8,0:0:0:0:
256,192,71681,1,8,0:0:0:0:
256,192,71796,1,8,0:0:0:0:
256,192,71853,1,8,0:0:0:0:
256,192,71967,1,0,0:0:0:0:
256,192,72053,1,0,0:0:0:0:
256,192,72138,1,8,0:0:0:0:
256,192,72310,1,8,0:0:0:0:
256,192,72396,1,0,0:0:0:0:
256,192,72481,1,0,0:0:0:0:
256,192,72653,1,8,0:0:0:0:
256,192,72824,1,0,0:0:0:0:
256,192,72996,1,0,0:0:0:0:
256,192,73167,1,8,0:0:0:0:
256,192,73338,1,8,0:0:0:0:
256,192,73424,1,0,0:0:0:0:
256,192,73510,1,8,0:0:0:0:
256,192,73596,1,8,0:0:0:0:
256,192,73681,1,0,0:0:0:0:
256,192,73853,1,8,0:0:0:0:
256,192,74024,1,8,0:0:0:0:
256,192,74110,1,8,0:0:0:0:
256,192,74196,1,0,0:0:0:0:
256,192,74367,1,0,0:0:0:0:
256,192,74538,1,8,0:0:0:0:
256,192,74710,1,0,0:0:0:0:
256,192,74796,1,0,0:0:0:0:
256,192,74881,1,8,0:0:0:0:
256,192,74967,1,0,0:0:0:0:
256,192,75053,1,8,0:0:0:0:
256,192,75139,1,0,0:0:0:0:
256,192,75310,1,0,0:0:0:0:
256,192,75396,1,0,0:0:0:0:
256,192,75481,1,0,0:0:0:0:
256,192,75567,1,8,0:0:0:0:
256,192,75739,1,0,0:0:0:0:
256,192,75824,1,8,0:0:0:0:
256,192,75996,1,0,0:0:0:0:
256,192,76081,1,0,0:0:0:0:
256,192,76167,1,0,0:0:0:0:
256,192,76253,1,8,0:0:0:0:
256,192,76338,1,8,0:0:0:0:
256,192,76424,1,0,0:0:0:0:
256,192,76596,1,0,0:0:0:0:
256,192,76681,1,0,0:0:0:0:
256,192,76767,1,0,0:0:0:0:
256,192,76853,1,0,0:0:0:0:
256,192,76938,1,8,0:0:0:0:
256,192,77110,1,0,0:0:0:0:
256,192,77281,1,8,0:0:0:0:
256,192,77453,1,0,0:0:0:0:
256,192,77538,1,0,0:0:0:0:
256,192,77624,1,8,0:0:0:0:
256,192,77710,1,8,0:0:0:0:
256,192,77796,1,0,0:0:0:0:
256,192,77881,1,0,0:0:0:0:
256,192,77967,1,8,0:0:0:0:
256,192,78138,1,0,0:0:0:0:
256,192,78224,1,8,0:0:0:0:
256,192,78310,1,0,0:0:0:0:
256,192,78481,1,0,0:0:0:0:
256,192,78567,1,0,0:0:0:0:
256,192,78653,1,8,0:0:0:0:
256,192,78824,1,0,0:0:0:0:
256,192,78910,1,8,0:0:0:0:
256,192,78996,1,0,0:0:0:0:
256,192,79081,1,0,0:0:0:0:
256,192,79167,1,8,0:0:0:0:
256,192,79253,1,0,0:0:0:0:
256,192,79338,1,8,0:0:0:0:
256,192,79510,1,8,0:0:0:0:
256,192,79596,1,8,0:0:0:0:
256,192,79681,1,0,0:0:0:0:
256,192,79853,1,0,0:0:0:0:
256,192,80024,1,0,0:0:0:0:
256,192,80110,1,8,0:0:0:0:
256,192,80281,1,8,0:0:0:0:
256,192,80367,1,0,0:0:0:0:
256,192,80538,1,0,0:0:0:0:
256,192,80624,1,8,0:0:0:0:
256,192,80796,1,0,0:0:0:0:
256,192,80881,1,0,0:0:0:0:
256,192,80967,1,8,0:0:0:0:
256,192,81053,1,0,0:0:0:0:
256,192,81224,1,8,0:0:0:0:
256,192,81310,1,0,0:0:0:0:
256,192,81481,1,0,0:0:0:0:
256,192,81567,1,0,0:0:0:0:
256,192,81653,1,8,0:0:0:0:
256,192,81738,1,8,0:0:0:0:
256,192,81910,1,0,0:0:0:0:
256,192,81996,1,8,0:0:0:0:
256,192,82167,1,0,0:0:0:0:
256,192,82253,1,0,0:0:0:0:
256,192,82339,1,0,0:0:0:0:
256,192,82424,1,8,0:0:0:0:
256,192,82596,1,8,0:0:0:0:
256,192,82653,1,8,0:0:0:0:
256,192,82767,1,8,0:0:0:0:
256,192,82824,1,8,0:0:0:0:
256,192,82939,1,0,0:0:0:0:
256,192,83024,1,0,0:0:0:0:
256,192,83110,1,8,0:0:0:0:
256,192,83281,1,8,0:0:0:0:
256,192,83367,1,0,0:0:0:0:
256,192,83453,1,0,0:0:0:0:
256,192,83624,1,8,0:0:0:0:
256,192,83710,1,8,0:0:0:0:
256,192,83796,1,0,0:0:0:0:
256,192,84053,1,0,0:0:0:0:
256,192,84139,1,0,0:0:0:0:
256,192,84310,1,0,0:0:0:0:
256,192,84396,1,0,0:0:0:0:
256,192,84481,1,8,0:0:0:0:
256,192,84653,1,8,0:0:0:0:
256,192,84824,1,0,0:0:0:0:
256,192,84910,1,8,0:0:0:0:
256,192,84996,1,0,0:0:0:0:
256,192,85167,1,8,0:0:0:0:
256,192,85338,1,0,0:0:0:0:
256,192,85510,1,0,0:0:0:0:
256,192,85681,1,8,0:0:0:0:
256,192,85853,1,0,0:0:0:0:
256,192,86024,1,0,0:0:0:0:
256,192,86110,1,8,0:0:0:0:
256,192,86281,1,0,0:0:0:0:
256,192,86453,1,0,0:0:0:0:
256,192,86539,1,8,0:0:0:0:
256,192,86710,1,8,0:0:0:0:
256,192,86796,1,0,0:0:0:0:
256,192,86967,1,0,0:0:0:0:
256,192,87053,1,8,0:0:0:0:
256,192,87139,1,0,0:0:0:0:
256,192,87224,1,8,0:0:0:0:
256,192,87310,1,8,0:0:0:0:
256,192,87396,1,0,0:0:0:0:
256,192,87567,1,0,0:0:0:0:
256,192,87653,1,0,0:0:0:0:
256,192,87738,1,0,0:0:0:0:
256,192,87824,1,0,0:0:0:0:
256,192,87910,1,8,0:0:0:0:
256,192,88081,1,0,0:0:0:0:
256,192,88253,1,8,0:0:0:0:
256,192,88424,1,0,0:0:0:0:
256,192,88510,1,8,0:0:0:0:
256,192,88596,1,0,0:0:0:0:
256,192,88681,1,8,0:0:0:0:
256,192,88767,1,0,0:0:0:0:
256,192,88938,1,8,0:0:0:0:
256,192,89110,1,0,0:0:0:0:
256,192,89196,1,0,0:0:0:0:
256,192,89281,1,0,0:0:0:0:
256,192,89453,1,0,0:0:0:0:
256,192,89624,1,8,0:0:0:0:
256,192,89796,1,0,0:0:0:0:
256,192,89881,1,0,0:0:0:0:
256,192,89967,1,8,0:0:0:0:
256,192,90053,1,8,0:0:0:0:
256,192,90138,1,0,0:0:0:0:
256,192,90310,1,8,0:0:0:0:
256,192,90481,1,0,0:0:0:0:
256,192,90567,1,8,0:0:0:0:
256,192,90653,1,0,0:0:0:0:
256,192,90824,1,0,0:0:0:0:
256,192,90996,1,8,0:0:0:0:
256,192,91167,1,0,0:0:0:0:
256,192,91253,1,8,0:0:0:0:
256,192,91339,1,0,0:0:0:0:
256,192,91424,1,0,0:0:0:0:
256,192,91510,1,8,0:0:0:0:
256,192,91681,1,8,0:0:0:0:
256,192,91853,1,8,0:0:0:0:
256,192,91939,1,8,0:0:0:0:
256,192,92024,1,0,0:0:0:0:
256,192,92196,1,0,0:0:0:0:
256,192,92367,1,8,0:0:0:0:
256,192,92539,1,0,0:0:0:0:
256,192,92624,1,8,0:0:0:0:
256,192,92710,1,0,0:0:0:0:
256,192,92796,1,8,0:0:0:0:
256,192,92881,1,0,0:0:0:0:
256,192,93053,1,8,0:0:0:0:
256,192,93224,1,0,0:0:0:0:
256,192,93310,1,0,0:0:0:0:
256,192,93396,1,8,0:0:0:0:
256,192,93567,1,0,0:0:0:0:
256,192,93739,1,8,0:0:0:0:
256,192,93910,1,0,0:0:0:0:
256,192,93996,1,8,0:0:0:0:
256,192,94082,1,0,0:0:0:0:
256,192,94167,1,0,0:0:0:0:
256,192,94253,1,8,0:0:0:0:
256,192,94424,1,8,0:0:0:0:
256,192,94596,1,0,0:0:0:0:
256,192,94682,1,8,0:0:0:0:
256,192,94767,1,0,0:0:0:0:
256,192,94939,1,0,0:0:0:0:
256,192,95110,1,8,0:0:0:0:
256,192,95282,1,8,0:0:0:0:
256,192,95367,1,8,0:0:0:0:
256,192,95453,1,0,0:0:0:0:
256,192,95539,1,8,0:0:0:0:
256,192,95624,1,0,0:0:0:0:
256,192,95796,1,8,0:0:0:0:
256,192,95967,1,0,0:0:0:0:
256,192,96053,1,0,0:0:0:0:
256,192,96139,1,8,0:0:0:0:
256,192,96310,1,0,0:0:0:0:
256,192,96482,1,8,0:0:0:0:
256,192,96653,1,0,0:0:0:0:
256,192,96739,1,8,0:0:0:0:
256,192,96910,1,8,0:0:0:0:
256,192,96996,1,0,0:0:0:0:
256,192,97081,1,0,0:0:0:0:
256,192,97167,1,8,0:0:0:0:
256,192,97339,1,0,0:0:0:0:
256,192,97425,1,0,0:0:0:0:
256,192,97510,1,8,0:0:0:0:
256,192,97682,1,0,0:0:0:0:
256,192,97853,1,8,0:0:0:0:
256,192,98025,1,0,0:0:0:0:
256,192,98110,1,8,0:0:0:0:
256,192,98196,1,0,0:0:0:0:
256,192,98281,1,0,0:0:0:0:
256,192,98367,1,8,0:0:0:0:
256,192,98539,1,8,0:0:0:0:
256,192,98710,1,0,0:0:0:0:
256,192,98882,1,12,0:0:0:0:
256,192,99053,1,0,0:0:0:0:
256,192,99225,1,8,0:0:0:0:
256,192,99396,1,0,0:0:0:0:
256,192,99482,1,0,0:0:0:0:
256,192,99568,1,8,0:0:0:0:
256,192,99653,1,8,0:0:0:0:
256,192,99739,1,0,0:0:0:0:
256,192,99910,1,8,0:0:0:0:
256,192,100082,1,0,0:0:0:0:
256,192,100168,1,0,0:0:0:0:
256,192,100253,1,8,0:0:0:0:
256,192,100425,1,0,0:0:0:0:
256,192,100596,1,8,0:0:0:0:
256,192,100768,1,0,0:0:0:0:
256,192,100853,1,0,0:0:0:0:
256,192,100939,1,8,0:0:0:0:
256,192,101025,1,0,0:0:0:0:
256,192,101110,1,8,0:0:0:0:
256,192,101196,1,0,0:0:0:0:
256,192,101282,1,8,0:0:0:0:
256,192,101453,1,8,0:0:0:0:
256,192,101539,1,8,0:0:0:0:
256,192,101625,1,0,0:0:0:0:
256,192,101796,1,0,0:0:0:0:
256,192,101968,1,8,0:0:0:0:
256,192,102139,1,0,0:0:0:0:
256,192,102225,1,0,0:0:0:0:
256,192,102311,1,8,0:0:0:0:
256,192,102396,1,8,0:0:0:0:
256,192,102482,1,0,0:0:0:0:
256,192,102567,1,0,0:0:0:0:
256,192,102653,1,8,0:0:0:0:
256,192,102825,1,0,0:0:0:0:
256,192,102911,1,0,0:0:0:0:
256,192,102996,1,8,0:0:0:0:
256,192,103168,1,0,0:0:0:0:
256,192,103339,1,8,0:0:0:0:
256,192,103511,1,8,0:0:0:0:
256,192,103596,1,8,0:0:0:0:
256,192,103682,1,0,0:0:0:0:
256,192,103768,1,8,0:0:0:0:
256,192,103853,1,0,0:0:0:0:
256,192,103938,1,0,0:0:0:0:
256,192,104025,1,8,0:0:0:0:
256,192,104196,1,8,0:0:0:0:
256,192,104282,1,8,0:0:0:0:
256,192,104368,1,0,0:0:0:0:
256,192,104538,1,0,0:0:0:0:
256,192,104710,1,8,0:0:0:0:
256,192,104881,1,8,0:0:0:0:
256,192,105053,1,0,0:0:0:0:
256,192,105138,1,0,0:0:0:0:
256,192,105224,1,0,0:0:0:0:
256,192,105395,1,0,0:0:0:0:
256,192,105567,1,8,0:0:0:0:
256,192,105653,1,8,0:0:0:0:
256,192,105738,1,0,0:0:0:0:
256,192,105996,1,0,0:0:0:0:
256,192,106081,1,0,0:0:0:0:
256,192,106253,1,0,0:0:0:0:
256,192,106424,1,0,0:0:0:0:
256,192,106595,1,8,0:0:0:0:
256,192,106767,1,0,0:0:0:0:
256,192,106853,1,0,0:0:0:0:
256,192,106938,1,0,0:0:0:0:
256,192,107110,1,8,0:0:0:0:
256,192,107281,1,0,0:0:0:0:
256,192,107367,1,0,0:0:0:0:
256,192,107453,1,0,0:0:0:0:
256,192,107624,1,8,0:0:0:0:
256,192,107796,1,0,0:0:0:0:
256,192,107881,1,0,0:0:0:0:
256,192,107967,1,0,0:0:0:0:
256,192,108138,1,8,0:0:0:0:
256,192,108310,1,8,0:0:0:0:
256,192,108481,1,0,0:0:0:0:
256,192,108567,1,0,0:0:0:0:
256,192,108653,1,8,0:0:0:0:
256,192,108738,1,0,0:0:0:0:
256,192,108824,1,8,0:0:0:0:
256,192,108996,1,8,0:0:0:0:
256,192,109167,1,0,0:0:0:0:
256,192,109253,1,8,0:0:0:0:
256,192,109338,1,0,0:0:0:0:
256,192,109510,1,0,0:0:0:0:
256,192,109596,1,0,0:0:0:0:
256,192,109681,1,0,0:0:0:0:
256,192,109767,1,0,0:0:0:0:
256,192,109853,1,8,0:0:0:0:
256,192,111224,1,8,0:0:0:0:
256,192,111281,1,8,0:0:0:0:
256,192,112596,1,0,0:0:0:0:
256,192,113453,1,8,0:0:0:0:
256,192,113710,1,0,0:0:0:0:
256,192,113967,1,8,0:0:0:0:
256,192,114653,1,0,0:0:0:0:
256,192,114996,1,0,0:0:0:0:
256,192,115339,1,8,0:0:0:0:
256,192,116710,1,8,0:0:0:0:
256,192,116767,1,8,0:0:0:0:
256,192,118081,1,0,0:0:0:0:
256,192,118939,1,8,0:0:0:0:
256,192,119196,1,0,0:0:0:0:
256,192,119453,1,8,0:0:0:0:
256,192,120139,1,0,0:0:0:0:
256,192,120481,1,0,0:0:0:0:
256,192,120824,12,0,121424,0:0:0:0:
256,192,121510,12,0,122110,0:0:0:0:
256,192,122196,12,0,123481,0:0:0:0:
256,192,123567,12,0,123996,0:0:0:0:
256,192,124081,12,0,124510,0:0:0:0:
256,192,124596,12,0,126224,0:0:0:0:
256,192,126310,12,0,128967,0:0:0:0:
256,192,129053,12,0,131196,0:0:0:0:
256,192,131281,12,0,131796,0:0:0:0:
