osu file format v14

[General]
AudioFilename: audio.mp3
AudioLeadIn: 0
PreviewTime: 52253
Countdown: 0
SampleSet: Normal
StackLeniency: 0.7
Mode: 1
LetterboxInBreaks: 0
WidescreenStoryboard: 1

[Editor]
DistanceSpacing: 1.4
BeatDivisor: 4
GridSize: 32
TimelineZoom: 1.099998

[Metadata]
Title:only a small number of reasons keep me on this planet...
TitleUnicode:only a small number of reasons keep me on this planet...
Artist:I.W.
ArtistUnicode:I.W.
Creator:Briesmas
Version:Futsuu
Source:
Tags:remix electronic japanese comptonhikikomori hatsune miku YY 23.exe arcpotato rap and i lose a couple more everyday vocaloid
BeatmapID:3313152
BeatmapSetID:1622678

[Difficulty]
HPDrainRate:7
CircleSize:2
OverallDifficulty:4.5
ApproachRate:0
SliderMultiplier:1.4
SliderTickRate:1

[Events]
//Background and Video events
0,0,"mikudab.png",0,0
//Break Periods
//Storyboard Layer 0 (Background)
//Storyboard Layer 1 (Fail)
//Storyboard Layer 2 (Pass)
//Storyboard Layer 3 (Foreground)
//Storyboard Layer 4 (Overlay)
//Storyboard Sound Samples

[TimingPoints]
139,342.857142857143,4,1,0,70,1,0
139,-133.333333333333,4,1,0,70,0,0
22081,-100,4,1,0,100,0,0
44710,-133.333333333333,4,1,0,80,0,0
45053,-133.333333333333,4,1,0,70,0,0
50196,-133.333333333333,4,1,0,80,0,0
50539,-133.333333333333,4,1,0,70,0,0
52253,-100,4,1,0,90,0,0
57739,-100,4,1,0,100,0,0
87910,-90.9090909090909,4,1,0,100,0,1
109853,-90.9090909090909,4,1,0,100,0,0
111224,-133.333333333333,4,1,0,40,0,0
120824,-100.285714904334,4,1,0,30,0,0
121510,-100.285714904334,4,1,0,25,0,0
122196,-100.285714904334,4,1,0,20,0,0
122881,-100.285714904334,4,1,0,19,0,0
123567,-100.285714904334,4,1,0,18,0,0
124253,-100.285714904334,4,1,0,17,0,0
124939,-100.285714904334,4,1,0,16,0,0
125624,-100.285714904334,4,1,0,15,0,0
126310,-100.285714904334,4,1,0,14,0,0
126996,-100.285714904334,4,1,0,13,0,0
127681,-100.285714904334,4,1,0,12,0,0
128367,-100.285714904334,4,1,0,11,0,0
129053,-100.285714904334,4,1,0,10,0,0
129396,-100.285714904334,4,1,0,9,0,0
129739,-100.285714904334,4,1,0,8,0,0
130081,-100.285714904334,4,1,0,7,0,0
130424,-100.285714904334,4,1,0,6,0,0
130767,-100.285714904334,4,1,0,5,0,0

[HitObjects]
256,192,139,5,8,0:0:0:0:
256,192,310,1,0,0:0:0:0:
256,192,1510,1,0,0:0:0:0:
256,192,1767,1,8,0:0:0:0:
256,192,2881,1,8,0:0:0:0:
256,192,3053,1,0,0:0:0:0:
256,192,3739,1,8,0:0:0:0:
256,192,3996,1,8,0:0:0:0:
256,192,4253,1,0,0:0:0:0:
256,192,5110,1,8,0:0:0:0:
256,192,5367,1,8,0:0:0:0:
256,192,5624,1,8,0:0:0:0:
256,192,5796,1,0,0:0:0:0:
256,192,6996,1,0,0:0:0:0:
256,192,7253,1,8,0:0:0:0:
256,192,8367,1,8,0:0:0:0:
256,192,8539,1,0,0:0:0:0:
256,192,9224,1,8,0:0:0:0:
256,192,9481,1,8,0:0:0:0:
256,192,9739,1,0,0:0:0:0:
256,192,10767,1,8,0:0:0:0:
256,192,10939,1,8,0:0:0:0:
256,192,11110,1,8,0:0:0:0:
256,192,11281,1,0,0:0:0:0:
256,192,12481,1,0,0:0:0:0:
256,192,12739,1,8,0:0:0:0:
256,192,13853,1,8,0:0:0:0:
256,192,14024,1,0,0:0:0:0:
256,192,14710,1,8,0:0:0:0:
256,192,14967,1,8,0:0:0:0:
256,192,15224,1,0,0:0:0:0:
256,192,15910,1,0,0:0:0:0:
256,192,16253,1,8,0:0:0:0:
256,192,16424,1,0,0:0:0:0:
256,192,16596,1,0,0:0:0:0:
256,192,16767,1,8,0:0:0:0:
256,192,17967,1,0,0:0:0:0:
256,192,18224,1,8,0:0:0:0:
256,192,19339,1,0,0:0:0:0:
256,192,19510,1,8,0:0:0:0:
256,192,20196,1,8,0:0:0:0:
256,192,20453,1,8,0:0:0:0:
256,192,20710,1,0,0:0:0:0:
256,192,21396,1,0,0:0:0:0:
256,192,21739,1,8,0:0:0:0:
256,192,22081,1,12,0:0:0:0:
256,192,22424,1,0,0:0:0:0:
256,192,22767,1,8,0:0:0:0:
256,192,23110,1,0,0:0:0:0:
256,192,23453,1,0,0:0:0:0:
256,192,23796,1,8,0:0:0:0:
256,192,24053,1,8,0:0:0:0:
256,192,24310,1,0,0:0:0:0:
256,192,24653,1,8,0:0:0:0:
256,192,24824,1,0,0:0:0:0:
256,192,25167,1,8,0:0:0:0:
256,192,25510,1,0,0:0:0:0:
256,192,25853,1,8,0:0:0:0:
256,192,26196,1,0,0:0:0:0:
256,192,26539,1,8,0:0:0:0:
256,192,26710,1,8,0:0:0:0:
256,192,27053,1,0,0:0:0:0:
256,192,27224,1,0,0:0:0:0:
256,192,27396,1,0,0:0:0:0:
256,192,27567,1,0,0:0:0:0:
256,192,28423,1,0,0:0:0:0:
256,192,28595,1,0,0:0:0:0:
256,192,28766,1,0,0:0:0:0:
256,192,28938,1,8,0:0:0:0:
256,192,29109,1,0,0:0:0:0:
256,192,29452,1,8,0:0:0:0:
256,192,29795,1,8,0:0:0:0:
256,192,29966,1,0,0:0:0:0:
256,192,30138,1,0,0:0:0:0:
256,192,30309,1,0,0:0:0:0:
256,192,30652,1,8,0:0:0:0:
256,192,30995,1,0,0:0:0:0:
256,192,31338,1,8,0:0:0:0:
256,192,31509,1,8,0:0:0:0:
256,192,31681,1,0,0:0:0:0:
256,192,32023,1,8,0:0:0:0:
256,192,32367,2,0,L|416:192,2,140
256,192,33910,1,0,0:0:0:0:
256,192,34082,1,0,0:0:0:0:
256,192,34253,1,0,0:0:0:0:
256,192,34424,1,8,0:0:0:0:
256,192,34596,1,0,0:0:0:0:
256,192,34939,1,8,0:0:0:0:
256,192,35110,1,0,0:0:0:0:
256,192,35453,1,0,0:0:0:0:
256,192,35796,1,0,0:0:0:0:
256,192,36139,1,8,0:0:0:0:
256,192,36824,1,8,0:0:0:0:
256,192,36996,1,8,0:0:0:0:
256,192,37167,1,0,0:0:0:0:
256,192,37510,1,8,0:0:0:0:
256,192,37682,1,0,0:0:0:0:
256,192,37853,1,8,0:0:0:0:
256,192,38196,1,0,0:0:0:0:
256,192,38367,1,8,0:0:0:0:
256,192,38539,1,0,0:0:0:0:
256,192,38882,1,8,0:0:0:0:
256,192,39396,1,8,0:0:0:0:
256,192,39567,1,0,0:0:0:0:
256,192,39910,1,0,0:0:0:0:
256,192,40253,1,8,0:0:0:0:
256,192,40596,1,0,0:0:0:0:
256,192,40767,1,8,0:0:0:0:
256,192,41110,1,8,0:0:0:0:
256,192,41282,1,0,0:0:0:0:
256,192,41624,1,8,0:0:0:0:
256,192,41796,1,0,0:0:0:0:
256,192,41967,1,8,0:0:0:0:
256,192,42310,1,0,0:0:0:0:
256,192,42482,1,8,0:0:0:0:
256,192,42653,1,8,0:0:0:0:
256,192,42996,1,0,0:0:0:0:
256,192,43339,1,0,0:0:0:0:
256,192,43681,1,0,0:0:0:0:
256,192,43853,1,0,0:0:0:0:
256,192,44024,1,8,0:0:0:0:
256,192,44710,1,8,0:0:0:0:
256,192,45053,1,0,0:0:0:0:
256,192,45396,1,8,0:0:0:0:
256,160,46424,1,8,0:0:0:0:
256,160,46767,1,0,0:0:0:0:
256,160,47453,1,0,0:0:0:0:
256,160,48139,1,8,0:0:0:0:
256,192,48824,1,8,0:0:0:0:
256,192,49510,1,0,0:0:0:0:
256,192,50196,1,8,0:0:0:0:
256,192,50539,1,0,0:0:0:0:
256,192,50881,1,8,0:0:0:0:
256,192,51567,1,8,0:0:0:0:
256,192,51910,1,8,0:0:0:0:
256,192,52253,2,0,L|480:192,5,210
256,192,54996,1,0,0:0:0:0:
256,192,55681,1,0,0:0:0:0:
256,192,56367,1,0,0:0:0:0:
256,192,57053,1,8,0:0:0:0:
256,192,57739,1,0,0:0:0:0:
256,192,58081,1,8,0:0:0:0:
256,192,58424,1,0,0:0:0:0:
256,192,58767,1,8,0:0:0:0:
256,192,59110,1,0,0:0:0:0:
256,192,59454,1,8,0:0:0:0:
256,192,59625,1,8,0:0:0:0:
256,192,59797,1,0,0:0:0:0:
256,192,60139,1,0,0:0:0:0:
256,192,60310,1,0,0:0:0:0:
256,192,60482,1,0,0:0:0:0:
256,192,60824,1,8,0:0:0:0:
256,192,61167,1,0,0:0:0:0:
256,192,61510,1,8,0:0:0:0:
256,192,61853,1,0,0:0:0:0:
256,192,62110,1,0,0:0:0:0:
256,192,62367,1,8,0:0:0:0:
256,192,62538,1,0,0:0:0:0:
256,192,62796,1,0,0:0:0:0:
256,192,63053,1,8,0:0:0:0:
256,192,63224,1,0,0:0:0:0:
256,192,63567,1,8,0:0:0:0:
256,192,63909,1,0,0:0:0:0:
256,192,64253,1,0,0:0:0:0:
256,192,64596,1,8,0:0:0:0:
256,192,64938,1,0,0:0:0:0:
256,192,65281,1,0,0:0:0:0:
256,192,65624,1,8,0:0:0:0:
256,192,65967,1,12,0:0:0:0:
256,192,66653,1,0,0:0:0:0:
256,192,66825,1,0,0:0:0:0:
256,192,66996,1,8,0:0:0:0:
256,192,67338,1,0,0:0:0:0:
256,192,67681,1,8,0:0:0:0:
256,192,68024,1,8,0:0:0:0:
256,192,68196,1,8,0:0:0:0:
256,192,68367,1,0,0:0:0:0:
256,192,68710,1,0,0:0:0:0:
256,192,69053,1,8,0:0:0:0:
256,192,69396,1,0,0:0:0:0:
256,192,69568,1,0,0:0:0:0:
256,192,69739,1,8,0:0:0:0:
256,192,70081,1,0,0:0:0:0:
256,192,70424,1,8,0:0:0:0:
256,192,70596,1,8,0:0:0:0:
256,192,70767,1,0,0:0:0:0:
256,192,71110,1,0,0:0:0:0:
256,192,71281,1,0,0:0:0:0:
256,192,71453,1,0,0:0:0:0:
256,192,72824,1,0,0:0:0:0:
256,192,73167,1,8,0:0:0:0:
256,192,73510,1,0,0:0:0:0:
256,192,73681,1,0,0:0:0:0:
256,192,73853,1,8,0:0:0:0:
256,192,74196,1,0,0:0:0:0:
256,192,74539,1,8,0:0:0:0:
256,192,74882,1,8,0:0:0:0:
256,192,75054,1,8,0:0:0:0:
256,192,75225,1,0,0:0:0:0:
256,192,75567,1,0,0:0:0:0:
256,192,75910,1,8,0:0:0:0:
256,192,76253,1,0,0:0:0:0:
256,192,76425,1,0,0:0:0:0:
256,192,76596,1,8,0:0:0:0:
256,192,76938,1,12,0:0:0:0:
256,192,77624,1,0,0:0:0:0:
256,192,77796,1,0,0:0:0:0:
256,192,77967,1,8,0:0:0:0:
256,192,78310,1,0,0:0:0:0:
256,192,78653,1,8,0:0:0:0:
256,192,78996,1,8,0:0:0:0:
256,192,79167,1,8,0:0:0:0:
256,192,79338,1,0,0:0:0:0:
256,192,79681,1,0,0:0:0:0:
256,192,80367,1,0,0:0:0:0:
256,192,80539,1,0,0:0:0:0:
256,192,80710,1,8,0:0:0:0:
256,192,81053,1,0,0:0:0:0:
256,192,81396,1,8,0:0:0:0:
256,192,81739,1,8,0:0:0:0:
256,192,81911,1,8,0:0:0:0:
256,192,82082,1,0,0:0:0:0:
256,192,82424,1,0,0:0:0:0:
256,192,82767,1,8,0:0:0:0:
256,192,82938,1,8,0:0:0:0:
256,192,83281,1,0,0:0:0:0:
256,192,83624,1,8,0:0:0:0:
256,192,83796,1,8,0:0:0:0:
256,192,83967,1,0,0:0:0:0:
256,192,84653,1,8,0:0:0:0:
256,192,84996,1,0,0:0:0:0:
256,192,85167,1,8,0:0:0:0:
256,192,85510,1,0,0:0:0:0:
256,192,85681,1,8,0:0:0:0:
256,192,85853,1,0,0:0:0:0:
256,192,86196,1,8,0:0:0:0:
256,192,86367,1,8,0:0:0:0:
256,192,86538,1,0,0:0:0:0:
256,192,86881,1,8,0:0:0:0:
256,192,87053,1,8,0:0:0:0:
256,192,87224,1,0,0:0:0:0:
256,192,87567,1,0,0:0:0:0:
256,192,87910,1,12,0:0:0:0:
256,192,88081,1,0,0:0:0:0:
256,192,88253,1,8,0:0:0:0:
256,192,88424,1,8,0:0:0:0:
256,192,88596,1,0,0:0:0:0:
256,192,88938,1,0,0:0:0:0:
256,192,89110,1,0,0:0:0:0:
256,192,89281,1,8,0:0:0:0:
256,192,89453,1,0,0:0:0:0:
256,192,89624,1,8,0:0:0:0:
256,192,90310,1,0,0:0:0:0:
256,192,90652,1,8,0:0:0:0:
256,192,90995,1,0,0:0:0:0:
256,192,91338,1,8,0:0:0:0:
256,192,91510,1,8,0:0:0:0:
256,192,91680,1,0,0:0:0:0:
256,192,91853,1,0,0:0:0:0:
256,192,92023,1,8,0:0:0:0:
256,192,92196,1,0,0:0:0:0:
256,192,92367,1,8,0:0:0:0:
256,192,93053,1,8,0:0:0:0:
256,192,93395,1,0,0:0:0:0:
256,192,93738,1,8,0:0:0:0:
256,192,94081,1,0,0:0:0:0:
256,192,94253,1,8,0:0:0:0:
256,192,94423,1,0,0:0:0:0:
256,192,94596,1,0,0:0:0:0:
256,192,94766,1,8,0:0:0:0:
256,192,94938,1,0,0:0:0:0:
256,192,95109,1,8,0:0:0:0:
256,192,95796,1,8,0:0:0:0:
256,192,96138,1,0,0:0:0:0:
256,192,96481,1,8,0:0:0:0:
256,192,96824,1,8,0:0:0:0:
256,192,96996,1,8,0:0:0:0:
256,192,97167,1,0,0:0:0:0:
256,192,97509,1,8,0:0:0:0:
256,192,97681,1,0,0:0:0:0:
256,192,97852,1,8,0:0:0:0:
256,192,98196,1,0,0:0:0:0:
256,192,98367,1,0,0:0:0:0:
256,192,98538,1,8,0:0:0:0:
256,192,98881,1,0,0:0:0:0:
256,192,99224,1,8,0:0:0:0:
256,192,99567,1,8,0:0:0:0:
256,192,99738,1,0,0:0:0:0:
256,192,99909,1,0,0:0:0:0:
256,192,100081,1,0,0:0:0:0:
256,192,100252,1,8,0:0:0:0:
256,192,100424,1,0,0:0:0:0:
256,192,100595,1,8,0:0:0:0:
256,192,101281,1,0,0:0:0:0:
256,192,101623,1,8,0:0:0:0:
256,192,101966,1,0,0:0:0:0:
256,192,102310,1,8,0:0:0:0:
256,192,102480,1,8,0:0:0:0:
256,192,102653,1,0,0:0:0:0:
256,192,102824,1,0,0:0:0:0:
256,192,102996,1,8,0:0:0:0:
256,192,103167,1,0,0:0:0:0:
256,192,103339,1,8,0:0:0:0:
256,192,104024,1,8,0:0:0:0:
256,192,104366,1,0,0:0:0:0:
256,192,104709,1,8,0:0:0:0:
256,192,104881,1,8,0:0:0:0:
256,192,105053,1,0,0:0:0:0:
256,192,105396,1,0,0:0:0:0:
256,192,105567,1,8,0:0:0:0:
256,192,105910,1,0,0:0:0:0:
256,192,106081,1,0,0:0:0:0:
256,192,106253,1,0,0:0:0:0:
256,192,106596,1,8,0:0:0:0:
256,192,106767,1,0,0:0:0:0:
256,192,107110,1,8,0:0:0:0:
256,192,107281,1,0,0:0:0:0:
256,192,107452,1,0,0:0:0:0:
256,192,107624,1,8,0:0:0:0:
256,192,107796,1,0,0:0:0:0:
256,192,108138,1,8,0:0:0:0:
256,192,108310,1,8,0:0:0:0:
256,192,108481,1,0,0:0:0:0:
256,192,108824,1,8,0:0:0:0:
256,192,108996,1,8,0:0:0:0:
256,192,109338,1,0,0:0:0:0:
256,192,109510,1,0,0:0:0:0:
256,192,109681,1,0,0:0:0:0:
256,192,109853,1,8,0:0:0:0:
256,224,111224,1,8,0:0:0:0:
256,192,112596,1,0,0:0:0:0:
256,192,113453,1,8,0:0:0:0:
256,192,113710,1,0,0:0:0:0:
256,192,113967,1,8,0:0:0:0:
256,192,114653,1,0,0:0:0:0:
256,192,114996,1,0,0:0:0:0:
256,192,115339,1,8,0:0:0:0:
256,192,116710,1,8,0:0:0:0:
256,192,118081,1,0,0:0:0:0:
256,192,118939,1,8,0:0:0:0:
256,192,119196,1,0,0:0:0:0:
256,192,119453,1,8,0:0:0:0:
256,192,120139,1,0,0:0:0:0:
256,192,120481,1,0,0:0:0:0:
256,192,120824,12,0,131796,0:0:0:0:
