osu file format v14

[General]
AudioFilename: audio.mp3
AudioLeadIn: 0
PreviewTime: 91416
Countdown: 0
SampleSet: Drum
StackLeniency: 0.4
Mode: 0
LetterboxInBreaks: 0
WidescreenStoryboard: 1

[Editor]
Bookmarks: 54844,73130,91416,127987,146273,156987,164559
DistanceSpacing: 1
BeatDivisor: 4
GridSize: 32
TimelineZoom: 2.899999

[Metadata]
Title:4/19/2004 (Cut Ver.)
TitleUnicode:4/19/2004 (Cut Ver.)
Artist:I.W.
ArtistUnicode:I.W.
Creator:Morrighan
Version:Normal
Source:
Tags:electronic instrumental breakcore RDOC Grand Finals custom map hidden hidden2 HD2 royal danish osu cup tournament atlas- aeniko calliecube obamacube allice smokebloke IW chen IWchen itterashai itterasshai wakusei いってらっしゃい 行ってらっしゃい わくせい 惑星 goodbye planet 4192004 1942004 19/4/2004 19th of april nineteenth twothousandandfour two thousand and four cut version
BeatmapID:3572265
BeatmapSetID:1740060

[Difficulty]
HPDrainRate:4
CircleSize:3.4
OverallDifficulty:4
ApproachRate:6
SliderMultiplier:0.8
SliderTickRate:1

[Events]
//Background and Video events
0,0,"untitled.png",0,0
//Break Periods
//Storyboard Layer 0 (Background)
//Storyboard Layer 1 (Fail)
//Storyboard Layer 2 (Pass)
//Storyboard Layer 3 (Foreground)
//Storyboard Layer 4 (Overlay)
//Storyboard Sound Samples

[TimingPoints]
36549,285.714285714286,4,3,0,50,1,0
73120,-90.9090909090909,4,3,0,50,0,0
91406,-100,4,3,0,50,0,0
127977,-90.9090909090909,4,3,0,50,0,0
146263,-111.111111111111,4,3,0,50,0,0

[Colours]
Combo1 : 255,179,217
Combo2 : 85,85,255
Combo3 : 128,128,255
Combo4 : 255,149,43
Combo5 : 255,174,136
Combo6 : 0,128,64
Combo7 : 0,204,102
Combo8 : 255,151,203

[HitObjects]
508,225,36549,6,0,P|510:183|487:144,2,80,4|8|2,0:0|0:2|0:0,0:0:0:0:
455,335,37549,1,4,0:0:0:0:
455,335,37692,2,0,L|375:343,1,80,4|4,0:0|0:0,0:0:0:0:
309,296,38264,2,0,L|254:301,2,40,2|8|0,0:0|0:2|0:0,0:0:0:0:
376,252,38835,5,4,0:0:0:0:
362,131,39264,1,4,0:0:0:0:
348,10,39692,1,4,0:0:0:0:
291,66,39977,6,0,L|211:74,1,80,8|4,0:2|0:0,0:0:0:0:
181,101,40406,1,4,0:0:0:0:
181,101,40549,1,4,0:0:0:0:
202,178,40834,2,0,L|257:183,1,40,4|4,0:0|0:0,0:0:0:0:
282,185,41120,6,0,P|284:227|261:266,2,80,4|8|2,0:0|0:2|0:0,0:0:0:0:
266,71,42120,1,4,0:0:0:0:
266,71,42262,1,4,0:0:0:0:
329,120,42549,2,0,L|409:128,1,80,4|2,0:0|0:0,0:0:0:0:
488,136,43120,1,0,0:0:0:0:
492,216,43406,6,0,L|412:224,1,80,4|8,0:0|0:2,0:0:0:0:
373,231,43834,1,4,0:0:0:0:
265,179,44263,1,4,0:0:0:0:
304,108,44549,6,0,L|359:103,2,40,8|4|4,0:2|0:0|0:0,0:0:0:0:
247,52,45120,1,4,0:0:0:0:
202,118,45405,2,0,B|194:127|194:127|120:133,1,80,4|4,0:0|0:0,0:0:0:0:
10,149,46120,5,2,0:0:0:0:
10,149,46263,2,0,L|16:203,1,40,2|8,0:0|0:2,0:0:0:0:
29,310,46834,1,4,0:0:0:0:
103,279,47120,2,0,P|109:240|90:204,2,80,4|2|0,0:0|0:0|0:0,0:0:0:0:
29,310,47977,5,4,0:0:0:0:
139,352,48406,1,4,0:0:0:0:
253,311,48834,1,4,0:0:0:0:
304,246,49120,6,0,L|384:254,1,80,8|4,0:2|0:0,0:0:0:0:
414,281,49549,1,4,0:0:0:0:
414,281,49692,1,4,0:0:0:0:
396,359,49977,6,0,L|316:367,1,80,4|4,0:0|0:0,0:0:0:0:
184,275,50834,2,0,L|180:236,1,40,2|8,0:0|0:2,0:0:0:0:
249,195,51263,2,0,L|244:155,1,40,4|4,0:0|0:0,0:0:0:0:
187,96,51692,2,0,P|148:92|114:114,2,80,4|2|0,0:0|0:0|0:0,0:0:0:0:
244,155,52549,5,4,0:0:0:0:
308,108,52835,2,0,L|302:53,1,40,8|4,0:2|0:0,0:0:0:0:
422,48,53406,1,4,0:0:0:0:
473,111,53692,6,0,L|513:107,2,40,8|4|4,0:2|0:0|0:0,0:0:0:0:
425,175,54263,2,0,L|342:184,1,80,4|4,0:0|0:0,0:0:0:0:
298,247,54834,6,0,P|296:289|319:328,2,80,4|8|2,0:0|0:2|0:0,0:0:0:0:
282,132,55834,1,4,0:0:0:0:
282,132,55977,2,0,L|202:140,1,80,4|4,0:0|0:0,0:0:0:0:
134,98,56549,2,0,L|79:103,2,40,2|8|0,0:0|0:2|0:0,0:0:0:0:
192,43,57120,5,4,0:0:0:0:
206,164,57548,1,4,0:0:0:0:
220,285,57977,1,4,0:0:0:0:
288,243,58263,6,0,L|368:235,1,80,8|4,0:2|0:0,0:0:0:0:
405,262,58692,1,4,0:0:0:0:
405,262,58835,1,4,0:0:0:0:
462,206,59120,2,0,L|457:151,1,40,4|4,0:0|0:0,0:0:0:0:
455,126,59406,6,0,P|413:124|374:147,2,80,4|8|2,0:0|0:2|0:0,0:0:0:0:
445,9,60406,1,4,0:0:0:0:
445,9,60548,1,4,0:0:0:0:
365,20,60835,2,0,L|285:28,1,80,4|2,0:0|0:0,0:0:0:0:
206,36,61406,1,0,0:0:0:0:
202,116,61692,6,0,L|282:124,1,80,4|8,0:0|0:2,0:0:0:0:
321,131,62120,1,4,0:0:0:0:
247,226,62549,1,4,0:0:0:0:
274,301,62835,6,0,L|329:306,2,40,8|4|4,0:2|0:0|0:0,0:0:0:0:
217,357,63406,1,4,0:0:0:0:
172,291,63691,2,0,B|164:282|164:282|90:276,1,80,4|4,0:0|0:0,0:0:0:0:
25,186,64406,5,2,0:0:0:0:
25,186,64549,2,0,L|31:132,1,40,2|8,0:0|0:2,0:0:0:0:
38,25,65120,1,4,0:0:0:0:
110,59,65406,2,0,P|120:97|104:134,2,80,4|2|0,0:0|0:0|0:0,0:0:0:0:
38,25,66263,5,4,0:0:0:0:
159,0,66691,1,4,0:0:0:0:
259,71,67120,1,4,0:0:0:0:
214,137,67406,6,0,L|134:145,1,80,8|4,0:2|0:0,0:0:0:0:
104,172,67835,1,4,0:0:0:0:
104,172,67978,1,4,0:0:0:0:
53,233,68263,6,0,L|61:313,1,80,4|4,0:0|0:0,0:0:0:0:
207,376,69120,2,0,L|203:337,1,40,2|8,0:0|0:2,0:0:0:0:
272,296,69549,2,0,L|267:256,1,40,4|4,0:0|0:0,0:0:0:0:
210,197,69978,2,0,P|171:193|137:215,2,80,4|2|0,0:0|0:0|0:0,0:0:0:0:
267,256,70835,5,4,0:0:0:0:
338,218,71121,2,0,L|332:163,1,40,8|4,0:2|0:0,0:0:0:0:
246,96,71692,1,4,0:0:0:0:
325,87,71978,6,0,L|365:83,2,40,8|4|4,0:2|0:0|0:0,0:0:0:0:
311,8,72549,2,0,L|394:-1,1,80,4|4,0:0|0:0,0:0:0:0:
461,74,73120,6,0,P|421:74|421:113,1,88.000002685547,4|8,0:0|0:2,0:0:0:0:
503,157,73691,1,0,0:0:0:0:
503,157,73834,1,8,0:2:0:0:
456,233,74120,1,4,0:0:0:0:
456,233,74263,2,0,B|446:246|446:246|363:256,1,88.000002685547,4|4,0:0|0:0,0:0:0:0:
289,267,74834,5,0,0:0:0:0:
201,276,75120,1,0,0:0:0:0:
113,285,75406,2,0,B|104:205|104:205|132:195|151:175,1,132.00000402832,4|4,0:0|0:0,0:0:0:0:
227,136,76120,1,8,0:2:0:0:
227,136,76263,1,4,0:0:0:0:
155,82,76549,2,0,L|110:87,1,44.0000013427735,8|4,0:2|0:0,0:0:0:0:
74,63,76834,2,0,L|29:68,2,44.0000013427735,4|4|4,0:0|0:0|0:0,0:0:0:0:
91,199,77549,1,4,0:0:0:0:
91,199,77691,6,0,P|90:239|130:239,1,88.000002685547,4|8,0:0|0:2,0:0:0:0:
172,156,78262,1,0,0:0:0:0:
172,156,78405,1,8,0:2:0:0:
258,170,78691,2,0,L|303:175,1,44.0000013427735,4|4,0:0|0:0,0:0:0:0:
374,123,79120,5,4,0:0:0:0:
396,38,79406,2,0,P|434:23|470:14,2,66.0000020141602,0|0|4,0:0|0:0|0:0,0:0:0:0:
356,21,79977,2,0,B|276:33|276:33|273:62|259:86,1,132.00000402832,4|4,0:0|0:0,0:0:0:0:
262,225,80834,1,4,0:0:0:0:
262,225,80977,2,0,L|272:320,2,88.000002685547,0|4|4,0:0|0:0|0:0,0:0:0:0:
246,52,82120,1,4,0:0:0:0:
246,52,82262,6,0,P|234:13|196:26,1,88.000002685547,4|8,0:0|0:2,0:0:0:0:
182,117,82833,1,0,0:0:0:0:
182,117,82976,1,8,0:2:0:0:
135,194,83263,1,4,0:0:0:0:
135,194,83406,2,0,B|145:207|145:207|228:217,1,88.000002685547,4|4,0:0|0:0,0:0:0:0:
303,224,83977,5,0,0:0:0:0:
391,233,84263,1,0,0:0:0:0:
479,242,84549,2,0,B|488:162|488:162|460:152|441:132,1,132.00000402832,4|4,0:0|0:0,0:0:0:0:
373,92,85263,1,8,0:2:0:0:
373,92,85406,1,4,0:0:0:0:
296,134,85692,2,0,L|251:139,1,44.0000013427735,8|4,0:2|0:0,0:0:0:0:
215,115,85977,2,0,L|170:120,2,44.0000013427735,4|4|4,0:0|0:0|0:0,0:0:0:0:
235,254,86691,1,4,0:0:0:0:
235,254,86834,6,0,P|234:294|194:293,1,88.000002685547,4|8,0:0|0:2,0:0:0:0:
152,211,87405,1,0,0:0:0:0:
152,211,87548,1,8,0:2:0:0:
115,133,87834,2,0,L|70:128,1,44.0000013427735,4|4,0:0|0:0,0:0:0:0:
0,178,88263,5,4,0:0:0:0:
57,247,88549,2,0,P|50:288|40:323,2,66.0000020141602,0|0|4,0:0|0:0|0:0,0:0:0:0:
93,221,89120,2,0,B|173:233|173:233|176:262|190:286,1,132.00000402832,4|4,0:0|0:0,0:0:0:0:
324,279,89977,1,4,0:0:0:0:
324,279,90120,2,0,L|334:374,2,88.000002685547,0|4|4,0:0|0:0|0:0,0:0:0:0:
313,103,91263,1,4,0:0:0:0:
313,103,91406,6,0,P|348:85|387:87,2,80,4|8|0,0:0|0:2|0:0,0:0:0:0:
239,205,92406,1,4,0:0:0:0:
239,205,92549,2,0,L|159:213,1,80,4|4,0:0|0:0,0:0:0:0:
105,149,93121,2,0,L|110:94,2,40,0|8|0,0:0|0:2|0:0,0:0:0:0:
38,198,93692,5,4,0:0:0:0:
159,212,94121,1,4,0:0:0:0:
280,226,94549,1,4,0:0:0:0:
339,170,94834,6,0,L|419:162,1,80,8|4,0:2|0:0,0:0:0:0:
457,186,95263,1,4,0:0:0:0:
457,186,95406,1,4,0:0:0:0:
449,264,95691,2,0,L|444:319,1,40,4|4,0:0|0:0,0:0:0:0:
442,344,95977,6,0,P|400:346|361:323,2,80,4|8|0,0:0|0:2|0:0,0:0:0:0:
365,247,96977,1,4,0:0:0:0:
365,247,97119,1,4,0:0:0:0:
282,253,97406,2,0,L|202:261,1,80,8|0,0:2|0:0,0:0:0:0:
165,275,97834,2,0,P|174:301|163:323,2,40,2|2|2,0:0|0:0|0:0,0:0:0:0:
125,267,98263,6,0,L|117:187,1,80,4|2,0:0|0:0,0:0:0:0:
114,157,98691,1,4,0:0:0:0:
15,91,99120,1,4,0:0:0:0:
66,31,99406,1,2,0:0:0:0:
66,31,99549,6,0,L|121:21,1,40,4|8,0:0|0:2,0:0:0:0:
162,82,99977,1,2,0:0:0:0:
210,17,100262,2,0,B|218:8|218:8|262:5,1,40,2|2,0:0|0:0,0:0:0:0:
286,8,100549,5,4,0:0:0:0:
242,130,100977,1,0,0:0:0:0:
242,130,101120,2,0,L|248:184,1,40,0|8,0:0|0:2,0:0:0:0:
306,223,101549,2,0,L|361:213,1,40,4|4,0:0|0:0,0:0:0:0:
423,198,101977,2,0,P|429:159|410:123,2,80,4|0|0,0:0|0:0|0:0,0:0:0:0:
345,215,102834,5,4,0:0:0:0:
235,173,103263,1,4,0:0:0:0:
121,214,103691,1,4,0:0:0:0:
191,262,103977,6,0,L|271:270,1,80,8|4,0:2|0:0,0:0:0:0:
301,297,104406,1,4,0:0:0:0:
301,297,104549,1,4,0:0:0:0:
251,363,104834,6,0,L|171:371,1,80,4|4,0:0|0:0,0:0:0:0:
13,384,105691,2,0,L|9:345,1,40,2|4,0:0|0:0,0:0:0:0:
38,314,105977,1,8,0:2:0:0:
38,314,106120,2,0,L|33:274,1,40,4|4,0:0|0:0,0:0:0:0:
16,196,106549,2,0,P|49:174|88:178,1,80,8|2,0:2|0:0,0:0:0:0:
121,202,106977,1,8,0:2:0:0:
121,202,107120,1,8,0:2:0:0:
184,152,107406,5,4,0:0:0:0:
248,199,107692,2,0,L|242:254,2,40,2|4|4,0:0|0:0|0:0,0:0:0:0:
319,101,108406,1,2,0:0:0:0:
319,101,108549,6,0,L|359:97,2,40,8|4|2,0:2|0:0|0:0,0:0:0:0:
247,58,109120,2,0,L|164:67,1,80,2|2,0:0|0:0,0:0:0:0:
102,113,109691,6,0,P|100:155|123:194,2,80,4|8|2,0:0|0:2|0:0,0:0:0:0:
213,63,110691,1,4,0:0:0:0:
213,63,110834,2,0,L|293:55,1,80,4|4,0:0|0:0,0:0:0:0:
359,102,111406,2,0,L|414:97,2,40,2|8|0,0:0|0:2|0:0,0:0:0:0:
319,171,111977,5,4,0:0:0:0:
198,185,112405,1,4,0:0:0:0:
77,199,112834,1,4,0:0:0:0:
113,127,113120,6,0,L|121:46,1,80,8|4,0:2|0:0,0:0:0:0:
154,23,113549,1,4,0:0:0:0:
154,23,113692,1,4,0:0:0:0:
235,16,113977,2,0,L|240:71,1,40,4|4,0:0|0:0,0:0:0:0:
242,96,114263,6,0,P|284:98|323:75,2,80,4|8|2,0:0|0:2|0:0,0:0:0:0:
155,176,115263,1,4,0:0:0:0:
155,176,115405,1,4,0:0:0:0:
235,187,115692,2,0,L|315:195,1,80,4|2,0:0|0:0,0:0:0:0:
394,204,116263,1,0,0:0:0:0:
404,124,116549,6,0,L|324:116,1,80,4|8,0:0|0:2,0:0:0:0:
293,92,116977,1,4,0:0:0:0:
400,30,117406,1,4,0:0:0:0:
475,59,117692,6,0,L|480:114,2,40,8|4|4,0:2|0:0|0:0,0:0:0:0:
400,30,118263,1,4,0:0:0:0:
352,93,118548,2,0,B|344:102|344:102|270:108,1,80,4|4,0:0|0:0,0:0:0:0:
160,125,119263,5,2,0:0:0:0:
160,125,119406,2,0,L|166:179,1,40,2|8,0:0|0:2,0:0:0:0:
184,285,119977,1,4,0:0:0:0:
105,270,120263,2,0,P|85:235|91:196,2,80,4|2|0,0:0|0:0|0:0,0:0:0:0:
184,285,121120,5,4,0:0:0:0:
305,290,121548,1,4,0:0:0:0:
414,236,121977,1,4,0:0:0:0:
376,165,122263,6,0,L|296:157,1,80,8|4,0:2|0:0,0:0:0:0:
266,130,122692,1,4,0:0:0:0:
266,130,122835,1,4,0:0:0:0:
210,193,123120,6,0,L|218:273,1,80,4|4,0:0|0:0,0:0:0:0:
360,348,123977,2,0,L|366:309,1,40,2|8,0:0|0:2,0:0:0:0:
443,287,124406,2,0,L|448:247,1,40,4|4,0:0|0:0,0:0:0:0:
409,175,124835,2,0,P|372:161|333:173,2,80,4|2|0,0:0|0:0|0:0,0:0:0:0:
448,247,125692,5,4,0:0:0:0:
498,182,125978,2,0,L|492:127,1,40,8|4,0:2|0:0,0:0:0:0:
435,36,126549,1,4,0:0:0:0:
370,86,126835,6,0,L|330:90,2,40,8|4|4,0:2|0:0|0:0,0:0:0:0:
345,10,127406,2,0,L|262:19,1,80,4|4,0:0|0:0,0:0:0:0:
178,31,127977,5,4,0:0:0:0:
138,110,128263,2,0,L|144:165,2,44.0000013427735,10|0|2,0:2|0:0|0:2,0:0:0:0:
101,85,128691,1,10,0:2:0:0:
65,165,128977,2,0,L|215:184,1,132.00000402832,4|4,0:0|0:0,0:0:0:0:
327,199,129834,2,0,B|300:220|300:220|308:287,1,88.000002685547,8|4,0:2|0:0,0:0:0:0:
315,317,130263,5,4,0:0:0:0:
408,226,130691,1,4,0:0:0:0:
335,115,131120,1,4,0:0:0:0:
335,115,131263,6,0,L|235:127,1,88.000002685547,2|4,0:0|0:0,0:0:0:0:
219,159,131691,2,0,L|119:171,1,88.000002685547,4|4,0:0|0:0,0:0:0:0:
92,150,132120,1,2,0:2:0:0:
42,223,132406,2,0,L|48:278,1,44.0000013427735,4|4,0:0|0:0,0:0:0:0:
58,356,132834,6,0,L|3:362,2,44.0000013427735,10|0|2,0:2|0:0|0:2,0:0:0:0:
98,377,133262,1,10,0:2:0:0:
139,298,133548,2,0,L|289:317,1,132.00000402832,4|4,0:0|0:0,0:0:0:0:
443,337,134549,1,0,0:0:0:0:
372,286,134834,6,0,B|345:265|345:265|353:198,1,88.000002685547,4|10,0:0|0:2,0:0:0:0:
385,183,135263,1,4,0:0:0:0:
385,183,135406,2,0,L|391:128,1,44.0000013427735,0|10,0:0|0:2,0:0:0:0:
401,51,135834,1,2,0:2:0:0:
278,98,136263,5,4,0:0:0:0:
237,113,136406,1,4,0:0:0:0:
197,94,136549,2,0,L|110:83,1,88.000002685547,6|4,0:2|0:0,0:0:0:0:
41,136,137120,5,4,0:0:0:0:
81,215,137406,2,0,L|75:270,2,44.0000013427735,10|0|2,0:2|0:0|0:2,0:0:0:0:
118,190,137834,1,10,0:2:0:0:
154,270,138120,2,0,L|4:289,1,132.00000402832,4|4,0:0|0:0,0:0:0:0:
127,351,138977,2,0,B|148:378|148:378|214:370,1,88.000002685547,8|4,0:2|0:0,0:0:0:0:
245,363,139406,5,4,0:0:0:0:
154,270,139834,1,4,0:0:0:0:
43,343,140263,1,4,0:0:0:0:
43,343,140406,6,0,L|55:243,1,88.000002685547,2|4,0:2|0:0,0:0:0:0:
28,221,140834,2,0,L|40:121,1,88.000002685547,4|4,0:0|0:0,0:0:0:0:
78,112,141263,1,2,0:2:0:0:
153,154,141549,2,0,L|208:148,1,44.0000013427735,4|4,0:0|0:0,0:0:0:0:
266,93,141977,6,0,L|257:38,2,44.0000013427735,10|0|2,0:2|0:0|0:2,0:0:0:0:
296,126,142405,1,10,0:2:0:0:
381,100,142691,2,0,L|362:250,1,132.00000402832,4|4,0:0|0:0,0:0:0:0:
235,349,143692,1,0,0:0:0:0:
204,267,143977,6,0,B|190:235|190:235|123:225,1,88.000002685547,4|10,0:0|0:2,0:0:0:0:
101,253,144406,1,4,0:0:0:0:
101,253,144549,2,0,L|46:244,1,44.0000013427735,0|10,0:0|0:2,0:0:0:0:
7,174,144977,1,2,0:2:0:0:
130,127,145406,5,4,0:0:0:0:
171,112,145549,1,4,0:0:0:0:
211,131,145691,2,0,L|298:142,1,88.000002685547,6|4,0:2|0:0,0:0:0:0:
374,126,146263,6,0,P|432:127|353:236,1,287.999991210938,4|2,0:0|1:1,0:0:0:0:
270,177,147834,1,4,0:0:0:0:
205,217,148120,1,8,0:2:0:0:
154,314,148549,6,0,P|163:205|101:35,1,287.999991210938,4|8,0:0|0:2,0:0:0:0:
28,42,149977,2,0,L|19:79,2,35.9999989013672,4|4|4,0:0|0:0|0:0,0:0:0:0:
43,183,150834,6,0,P|131:146|266:258,1,287.999991210938,4|2,0:0|1:1,0:0:0:0:
312,358,152406,1,4,0:0:0:0:
377,318,152692,1,8,0:2:0:0:
485,297,153120,6,0,P|441:294|203:220,1,287.999991210938,2|8,1:1|0:2,0:0:0:0:
181,153,154549,2,0,L|190:116,2,35.9999989013672,4|4|4,0:0|0:0|0:0,0:0:0:0:
121,287,155406,6,0,P|197:287|266:115,1,287.999991210938,4|2,0:0|1:1,0:0:0:0:
174,53,156977,1,4,0:0:0:0:
109,93,157263,1,8,0:2:0:0:
10,146,157691,6,0,P|79:128|304:112,1,287.999991210938,4|8,0:0|0:2,0:0:0:0:
336,174,159120,2,0,L|327:211,2,35.9999989013672,4|4|4,0:0|0:0|0:0,0:0:0:0:
480,183,159977,6,0,P|409:190|443:40,1,287.999991210938,4|2,0:0|1:1,0:0:0:0:
512,111,161549,1,4,0:0:0:0:
447,151,161835,1,8,0:2:0:0:
466,261,162263,6,0,P|446:204|292:36,1,287.999991210938,2|8,1:1|0:2,0:0:0:0:
237,88,163691,2,0,L|246:125,2,35.9999989013672,4|4|4,0:0|0:0|0:0,0:0:0:0:
173,50,164263,1,4,0:0:0:0:
116,99,164549,5,4,0:0:0:0:
