osu file format v14

[General]
AudioFilename: audio.mp3
AudioLeadIn: 0
PreviewTime: 91416
Countdown: 0
SampleSet: Drum
StackLeniency: 0.4
Mode: 0
LetterboxInBreaks: 0
WidescreenStoryboard: 1

[Editor]
Bookmarks: 73130,91416,127987,146273,164559
DistanceSpacing: 0.9
BeatDivisor: 4
GridSize: 32
TimelineZoom: 2.899999

[Metadata]
Title:4/19/2004 (Cut Ver.)
TitleUnicode:4/19/2004 (Cut Ver.)
Artist:I.W.
ArtistUnicode:I.W.
Creator:Morrighan
Version:Hard
Source:
Tags:electronic instrumental breakcore RDOC Grand Finals custom map hidden hidden2 HD2 royal danish osu cup tournament atlas- aeniko calliecube obamacube allice smokebloke IW chen IWchen itterashai itterasshai wakusei いってらっしゃい 行ってらっしゃい わくせい 惑星 goodbye planet 4192004 1942004 19/4/2004 19th of april nineteenth twothousandandfour two thousand and four cut version
BeatmapID:3569414
BeatmapSetID:1740060

[Difficulty]
HPDrainRate:4
CircleSize:3.8
OverallDifficulty:7
ApproachRate:8
SliderMultiplier:1.2
SliderTickRate:1

[Events]
//Background and Video events
0,0,"untitled.png",0,0
//Break Periods
//Storyboard Layer 0 (Background)
//Storyboard Layer 1 (Fail)
//Storyboard Layer 2 (Pass)
//Storyboard Layer 3 (Foreground)
//Storyboard Layer 4 (Overlay)
//Storyboard Sound Samples

[TimingPoints]
36549,285.714285714286,4,3,0,50,1,0
73120,-83.3333333333333,4,3,0,50,0,0
91406,-100,4,3,0,50,0,0
127977,-90.9090909090909,4,3,0,50,0,0
146263,-111.111111111111,4,3,0,50,0,0

[Colours]
Combo1 : 255,179,217
Combo2 : 85,85,255
Combo3 : 128,128,255
Combo4 : 255,149,43
Combo5 : 255,174,136
Combo6 : 0,128,64
Combo7 : 0,204,102
Combo8 : 255,151,203

[HitObjects]
191,300,36549,6,0,P|211:339|218:362,2,60,4|0|8,0:0|0:0|0:2,0:0:0:0:
120,268,36977,1,2,0:0:0:0:
88,338,37120,2,0,P|75:347|24:359,1,60,2|8,0:0|0:2,0:0:0:0:
26,217,37549,5,4,0:0:0:0:
26,217,37691,1,4,0:0:0:0:
129,125,37977,2,0,L|123:52,1,60,4|4,0:0|0:0,0:0:0:0:
190,222,38406,2,0,P|230:238|273:248,1,60,8|0,0:2|0:0,0:0:0:0:
321,212,38691,5,4,0:0:0:0:
321,212,38763,1,0,0:0:0:0:
321,212,38834,2,0,L|327:285,2,60,4|2|8,0:0|0:0|0:2,0:0:0:0:
373,149,39263,2,0,P|401:135|437:132,1,60,4|2,0:0|0:0,0:0:0:0:
260,75,39691,2,0,L|254:2,2,60,4|2|8,0:0|0:0|0:2,0:0:0:0:
194,133,40120,6,0,B|181:135|181:135|160:84,1,60,4|4,0:0|0:0,0:0:0:0:
180,16,40406,1,4,0:0:0:0:
180,16,40549,1,4,0:0:0:0:
293,226,40834,5,4,0:0:0:0:
269,154,40977,1,4,0:0:0:0:
194,133,41120,6,0,P|155:153|132:160,2,60,4|0|8,0:0|0:0|0:2,0:0:0:0:
220,60,41549,1,2,0:0:0:0:
295,44,41691,2,0,P|308:53|359:65,1,60,2|8,0:0|0:2,0:0:0:0:
409,193,42120,2,0,L|403:266,1,60,4|4,0:0|0:0,0:0:0:0:
483,362,42548,5,4,0:0:0:0:
483,362,42691,1,4,0:0:0:0:
340,304,42977,2,0,P|299:287|257:278,1,60,8|0,0:2|0:0,0:0:0:0:
207,297,43263,5,4,0:0:0:0:
207,297,43406,2,0,L|201:370,2,60,4|2|8,0:0|0:0|0:2,0:0:0:0:
169,229,43834,1,4,0:0:0:0:
169,229,43977,1,2,0:0:0:0:
304,119,44264,2,0,P|276:105|240:102,1,60,4|2,0:0|0:0,0:0:0:0:
169,117,44549,5,8,0:2:0:0:
169,117,44691,2,0,B|159:109|159:109|180:58,2,60,4|4|4,0:0|0:0|0:0,0:0:0:0:
225,173,45120,1,4,0:0:0:0:
89,348,45406,5,4,0:0:0:0:
158,316,45549,1,4,0:0:0:0:
171,239,45692,6,0,P|147:202|137:180,2,60,4|0|8,0:0|0:0|0:2,0:0:0:0:
246,260,46120,1,2,0:0:0:0:
314,296,46263,2,0,P|324:307|341:357,1,60,2|8,0:0|0:2,0:0:0:0:
460,251,46691,6,0,L|454:178,1,60,4|4,0:0|0:0,0:0:0:0:
344,34,47120,2,0,L|338:107,1,60,4|4,0:0|0:0,0:0:0:0:
359,221,47549,2,0,P|316:214|274:202,1,60,8|0,0:2|0:0,0:0:0:0:
257,147,47834,5,4,0:0:0:0:
257,147,47906,1,0,0:0:0:0:
257,147,47977,2,0,L|263:74,2,60,4|2|8,0:0|0:0|0:2,0:0:0:0:
195,205,48406,2,0,P|167:219|131:222,1,60,4|2,0:0|0:0,0:0:0:0:
15,113,48835,2,0,P|43:99|79:96,1,60,4|2,0:0|0:0,0:0:0:0:
147,139,49120,5,8,0:2:0:0:
214,95,49263,2,0,B|227:93|227:93|248:144,1,60,4|4,0:0|0:0,0:0:0:0:
308,186,49549,2,0,B|316:196|316:196|282:239,1,60,4|4,0:0|0:0,0:0:0:0:
53,310,49977,5,4,0:0:0:0:
77,238,50120,1,4,0:0:0:0:
152,217,50263,6,0,P|191:237|214:244,2,60,4|0|8,0:0|0:0|0:2,0:0:0:0:
135,142,50691,1,2,0:0:0:0:
74,99,50834,2,0,P|35:119|12:126,1,60,2|8,0:0|0:2,0:0:0:0:
205,44,51263,6,0,L|278:50,1,60,4|4,0:0|0:0,0:0:0:0:
420,60,51691,1,4,0:0:0:0:
372,122,51834,2,0,L|299:128,1,60,4|2,0:0|0:0,0:0:0:0:
232,134,52120,1,8,0:2:0:0:
232,134,52263,1,0,0:0:0:0:
275,259,52548,2,0,L|281:186,2,60,4|2|8,0:0|0:0|0:2,0:0:0:0:
199,277,52977,2,0,P|171:291|135:294,1,60,4|2,0:0|0:0,0:0:0:0:
93,139,53406,2,0,P|121:153|157:156,1,60,4|2,0:0|0:0,0:0:0:0:
234,132,53691,5,8,0:2:0:0:
314,127,53834,1,4,0:0:0:0:
314,127,53977,2,0,B|324:134|324:134|303:185,2,60,4|4|4,0:0|0:0|0:0,0:0:0:0:
278,313,54549,5,4,0:0:0:0:
254,241,54692,1,4,0:0:0:0:
179,220,54835,6,0,P|140:240|117:247,2,60,4|0|8,0:0|0:0|0:2,0:0:0:0:
195,145,55263,1,2,0:0:0:0:
259,102,55406,2,0,P|298:122|321:129,1,60,2|8,0:0|0:2,0:0:0:0:
512,141,55834,5,4,0:0:0:0:
512,141,55977,2,0,L|439:135,1,60,4|2,0:0|0:0,0:0:0:0:
393,80,56263,1,4,0:0:0:0:
393,80,56405,1,4,0:0:0:0:
271,164,56691,2,0,P|231:180|188:190,1,60,8|0,0:2|0:0,0:0:0:0:
150,142,56976,5,4,0:0:0:0:
150,142,57049,1,0,0:0:0:0:
150,142,57119,2,0,L|77:136,1,60,4|2,0:0|0:0,0:0:0:0:
35,79,57406,1,8,0:2:0:0:
35,79,57549,2,0,P|21:51|18:15,1,60,4|2,0:0|0:0,0:0:0:0:
32,202,57978,2,0,P|18:230|14:266,2,60,4|2|8,0:0|0:0|0:2,0:0:0:0:
90,137,58405,6,0,B|102:134|102:134|129:182,1,60,4|4,0:0|0:0,0:0:0:0:
189,223,58691,2,0,B|199:229|199:229|185:283,1,60,4|4,0:0|0:0,0:0:0:0:
194,80,59120,5,4,0:0:0:0:
218,152,59263,1,4,0:0:0:0:
293,173,59406,6,0,P|332:153|355:146,2,60,4|0|8,0:0|0:0|0:2,0:0:0:0:
273,247,59834,1,2,0:0:0:0:
298,319,59977,2,0,P|337:339|360:346,1,60,2|8,0:0|0:2,0:0:0:0:
473,271,60406,6,0,L|479:198,1,60,4|4,0:0|0:0,0:0:0:0:
347,148,60834,1,4,0:0:0:0:
347,148,60977,1,4,0:0:0:0:
216,248,61263,2,0,P|260:249|303:258,1,60,8|0,0:2|0:0,0:0:0:0:
353,288,61548,5,4,0:0:0:0:
353,288,61691,2,0,L|347:215,1,60,4|2,0:0|0:0,0:0:0:0:
347,148,61977,1,8,0:2:0:0:
347,148,62120,2,0,P|375:134|411:131,1,60,4|2,0:0|0:0,0:0:0:0:
273,34,62549,2,0,P|245:20|209:16,1,60,4|2,0:0|0:0,0:0:0:0:
142,52,62834,5,8,0:2:0:0:
142,52,62977,2,0,B|133:62|133:62|161:109,1,60,4|4,0:0|0:0,0:0:0:0:
119,175,63263,2,0,B|119:188|119:188|173:201,1,60,4|4,0:0|0:0,0:0:0:0:
271,115,63691,5,4,0:0:0:0:
295,187,63834,1,4,0:0:0:0:
370,208,63977,6,0,P|409:188|432:185,2,60,4|0|8,0:0|0:0|0:2,0:0:0:0:
357,286,64406,1,2,0:0:0:0:
295,338,64549,2,0,P|256:318|233:315,1,60,2|8,0:0|0:2,0:0:0:0:
103,357,64977,5,4,0:0:0:0:
103,357,65119,1,4,0:0:0:0:
215,234,65406,2,0,L|209:161,1,60,4|4,0:0|0:0,0:0:0:0:
159,336,65834,2,0,P|119:352|76:362,1,60,8|0,0:2|0:0,0:0:0:0:
35,315,66119,5,4,0:0:0:0:
35,315,66191,1,0,0:0:0:0:
35,315,66262,2,0,L|29:242,1,60,4|2,0:0|0:0,0:0:0:0:
80,187,66549,1,8,0:2:0:0:
12,136,66692,2,0,P|8:107|15:78,1,60,4|2,0:0|0:0,0:0:0:0:
193,109,67121,2,0,P|165:123|129:127,1,60,4|2,0:0|0:0,0:0:0:0:
92,64,67405,5,8,0:2:0:0:
92,64,67548,2,0,B|84:54|84:54|118:11,2,60,4|4|4,0:0|0:0|0:0,0:0:0:0:
136,127,67977,1,4,0:0:0:0:
235,36,68263,5,4,0:0:0:0:
307,60,68406,1,4,0:0:0:0:
337,129,68549,6,0,P|317:168|310:191,2,60,4|0|8,0:0|0:0|0:2,0:0:0:0:
414,125,68977,1,2,0:0:0:0:
484,93,69120,2,0,P|504:54|511:31,1,60,2|8,0:0|0:2,0:0:0:0:
345,13,69549,5,4,0:0:0:0:
345,13,69691,1,4,0:0:0:0:
252,119,69977,1,4,0:0:0:0:
252,119,70120,1,4,0:0:0:0:
293,251,70406,2,0,P|322:248|352:241,1,60,8|0,0:2|0:0,0:0:0:0:
422,212,70691,5,4,0:0:0:0:
422,212,70834,2,0,L|428:139,2,60,4|2|8,0:0|0:0|0:2,0:0:0:0:
482,264,71263,2,0,P|495:291|499:321,1,60,4|2,0:0|0:0,0:0:0:0:
376,361,71691,2,0,P|389:334|393:304,1,60,4|2,0:0|0:0,0:0:0:0:
352,240,71977,5,8,0:2:0:0:
310,176,72120,2,0,B|311:162|311:162|366:155,1,60,4|4,0:0|0:0,0:0:0:0:
431,133,72406,2,0,B|443:127|443:127|476:171,1,60,4|4,0:0|0:0,0:0:0:0:
382,364,72834,5,4,0:0:0:0:
310,340,72977,1,4,0:0:0:0:
271,271,73120,6,0,P|237:298|194:316,1,71.9999978027344,4|0,0:0|0:0,0:0:0:0:
145,273,73406,2,0,L|131:197,1,71.9999978027344,8|0,0:2|0:0,0:0:0:0:
129,175,73620,1,0,0:0:0:0:
129,175,73691,1,0,0:0:0:0:
176,111,73834,1,8,0:2:0:0:
83,22,74120,5,4,0:0:0:0:
83,22,74263,1,4,0:0:0:0:
215,10,74549,1,4,0:0:0:0:
215,10,74691,2,0,P|250:14|287:36,1,71.9999978027344,4|0,0:0|0:0,0:0:0:0:
322,100,74977,2,0,L|326:180,1,71.9999978027344,8|0,0:2|0:0,0:0:0:0:
274,229,75263,5,4,0:0:0:0:
274,229,75406,1,4,0:0:0:0:
404,157,75691,1,8,0:2:0:0:
404,157,75834,2,0,P|430:142|476:139,1,71.9999978027344,4|0,0:0|0:0,0:0:0:0:
508,243,76120,1,8,0:2:0:0:
508,243,76263,2,0,P|482:228|436:225,1,71.9999978027344,4|0,0:0|0:0,0:0:0:0:
386,282,76549,5,8,0:2:0:0:
323,331,76691,2,0,L|246:325,3,71.9999978027344,4|4|4|4,0:0|0:0|0:0|0:0,0:0:0:0:
228,208,77406,5,4,0:0:0:0:
176,287,77549,1,4,0:0:0:0:
176,287,77620,1,0,0:0:0:0:
176,287,77691,6,0,P|149:261|136:219,1,71.9999978027344,4|0,0:0|0:0,0:0:0:0:
109,154,77977,2,0,L|31:159,1,71.9999978027344,8|0,0:2|0:0,0:0:0:0:
12,148,78191,1,0,0:0:0:0:
12,148,78262,1,0,0:0:0:0:
35,72,78406,1,8,0:2:0:0:
177,38,78691,5,4,0:0:0:0:
177,38,78834,1,4,0:0:0:0:
295,106,79120,2,0,P|284:72|258:43,2,71.9999978027344,4|4|0,0:0|0:0|0:0,0:0:0:0:
242,162,79549,1,8,0:2:0:0:
238,171,79620,2,0,L|246:228,1,35.9999989013672
304,262,79834,5,4,0:0:0:0:
304,262,79977,1,4,0:0:0:0:
170,224,80262,1,8,0:2:0:0:
170,224,80405,2,0,P|144:209|98:206,1,71.9999978027344,4|0,0:0|0:0,0:0:0:0:
49,150,80691,1,8,0:2:0:0:
49,150,80834,2,0,P|75:135|121:132,1,71.9999978027344,4|0,0:0|0:0,0:0:0:0:
193,147,81120,5,8,0:2:0:0:
256,98,81262,2,0,L|333:104,3,71.9999978027344,4|4|4|4,0:0|0:0|0:0|0:0,0:0:0:0:
495,109,81977,1,4,0:0:0:0:
448,35,82120,1,4,0:0:0:0:
448,35,82191,1,0,0:0:0:0:
448,35,82262,6,0,P|421:61|408:103,1,71.9999978027344,4|0,0:0|0:0,0:0:0:0:
439,176,82549,2,0,L|363:190,1,71.9999978027344,8|0,0:2|0:0,0:0:0:0:
341,192,82763,1,0,0:0:0:0:
341,192,82834,1,0,0:0:0:0:
277,145,82977,1,8,0:2:0:0:
316,10,83263,5,4,0:0:0:0:
316,10,83406,1,4,0:0:0:0:
175,8,83691,1,4,0:0:0:0:
175,8,83833,2,0,P|140:12|103:34,1,71.9999978027344,4|0,0:0|0:0,0:0:0:0:
68,98,84119,2,0,L|64:178,1,71.9999978027344,8|0,0:2|0:0,0:0:0:0:
116,227,84405,5,4,0:0:0:0:
116,227,84548,1,4,0:0:0:0:
169,95,84834,1,8,0:2:0:0:
169,95,84977,2,0,P|195:80|241:77,1,71.9999978027344,4|0,0:0|0:0,0:0:0:0:
295,136,85263,1,8,0:2:0:0:
295,136,85406,2,0,P|269:151|223:154,1,71.9999978027344,4|0,0:0|0:0,0:0:0:0:
152,175,85692,5,8,0:2:0:0:
89,224,85834,2,0,L|12:218,3,71.9999978027344,4|4|4|4,0:0|0:0|0:0|0:0,0:0:0:0:
141,296,86549,5,4,0:0:0:0:
193,375,86692,1,4,0:0:0:0:
193,375,86763,1,0,0:0:0:0:
193,375,86834,6,0,P|220:349|233:307,1,71.9999978027344,4|0,0:0|0:0,0:0:0:0:
225,236,87120,2,0,L|301:246,1,71.9999978027344,8|0,0:2|0:0,0:0:0:0:
323,251,87334,1,0,0:0:0:0:
323,251,87405,1,0,0:0:0:0:
369,315,87548,1,8,0:2:0:0:
498,246,87834,5,4,0:0:0:0:
498,246,87977,1,4,0:0:0:0:
364,139,88263,2,0,P|375:105|401:76,2,71.9999978027344,4|4|0,0:0|0:0|0:0,0:0:0:0:
417,195,88692,1,8,0:2:0:0:
421,204,88763,2,0,L|413:261,1,35.9999989013672
344,256,88977,5,4,0:0:0:0:
344,256,89120,1,4,0:0:0:0:
228,178,89406,1,8,0:2:0:0:
228,178,89549,2,0,P|254:163|300:160,1,71.9999978027344,4|0,0:0|0:0,0:0:0:0:
349,104,89835,5,8,0:2:0:0:
349,104,89978,2,0,P|323:89|277:86,1,71.9999978027344,4|0,0:0|0:0,0:0:0:0:
209,54,90264,5,8,0:2:0:0:
272,5,90406,2,0,L|349:11,3,71.9999978027344,4|4|4|4,0:0|0:0|0:0|0:0,0:0:0:0:
494,19,91120,5,4,0:0:0:0:
442,98,91263,1,4,0:0:0:0:
442,98,91334,1,0,0:0:0:0:
442,98,91406,6,0,P|462:137|469:160,2,60,4|0|8,0:0|0:0|0:2,0:0:0:0:
363,66,91834,1,0,0:0:0:0:
331,136,91977,2,0,P|318:145|267:157,1,60,0|8,0:0|0:2,0:0:0:0:
189,78,92406,5,4,0:0:0:0:
189,78,92549,1,4,0:0:0:0:
283,0,92834,1,4,0:0:0:0:
283,0,92977,1,4,0:0:0:0:
385,73,93263,2,0,P|345:89|302:99,1,60,8|0,0:2|0:0,0:0:0:0:
260,130,93548,5,4,0:0:0:0:
260,130,93620,1,0,0:0:0:0:
260,130,93691,2,0,L|254:203,1,60,4|0,0:0|0:0,0:0:0:0:
193,241,93977,1,8,0:2:0:0:
193,241,94120,2,0,P|165:227|129:224,1,60,4|0,0:0|0:0,0:0:0:0:
233,363,94549,2,0,P|262:353|290:329,1,60,4|0,0:0|0:0,0:0:0:0:
335,277,94834,5,8,0:2:0:0:
335,277,94977,2,0,B|348:275|348:275|369:326,3,60,4|4|4|4,0:0|0:0|0:0|0:0,0:0:0:0:
408,111,95691,5,4,0:0:0:0:
384,183,95834,1,4,0:0:0:0:
309,204,95977,6,0,P|270:184|247:177,2,60,4|0|8,0:0|0:0|0:2,0:0:0:0:
335,277,96406,1,0,0:0:0:0:
410,293,96548,2,0,P|423:284|474:272,1,60,0|8,0:0|0:2,0:0:0:0:
330,383,96977,5,4,0:0:0:0:
330,383,97120,1,4,0:0:0:0:
194,359,97406,2,0,L|200:286,1,60,8|4,0:2|0:0,0:0:0:0:
251,183,97834,6,0,B|264:178|264:178|327:208,2,60,2|2|2,0:0|0:0|0:0,0:0:0:0:
181,222,98262,2,0,L|175:149,1,60,4|0,0:0|0:0,0:0:0:0:
114,111,98548,1,2,0:0:0:0:
114,111,98691,2,0,P|86:125|50:128,1,60,4|2,0:0|0:0,0:0:0:0:
192,83,98977,1,8,0:2:0:0:
192,83,99120,2,0,P|220:97|256:100,1,60,4|2,0:0|0:0,0:0:0:0:
325,92,99405,5,2,0:0:0:0:
325,92,99548,2,0,B|335:100|335:100|311:150,2,60,4|8|4,0:0|0:2|0:0,0:0:0:0:
274,26,99977,6,0,B|282:15|282:15|352:8,1,60,2|4,0:0|0:0,0:0:0:0:
399,54,100263,1,2,0:0:0:0:
399,54,100406,1,2,0:0:0:0:
458,102,100549,6,0,P|497:82|520:75,2,60,4|0|8,0:0|0:0|0:2,0:0:0:0:
430,175,100977,1,0,0:0:0:0:
362,214,101120,2,0,P|349:205|298:193,1,60,0|8,0:0|0:2,0:0:0:0:
195,256,101548,5,4,0:0:0:0:
195,256,101691,2,0,L|122:262,1,60,4|0,0:0|0:0,0:0:0:0:
89,202,101976,1,4,0:0:0:0:
89,202,102119,1,4,0:0:0:0:
85,53,102406,2,0,P|101:93|111:136,1,60,8|0,0:2|0:0,0:0:0:0:
164,173,102691,5,4,0:0:0:0:
164,173,102763,1,0,0:0:0:0:
164,173,102834,2,0,L|237:179,1,60,4|0,0:0|0:0,0:0:0:0:
283,235,103120,1,8,0:2:0:0:
283,235,103263,2,0,P|297:263|300:299,2,60,4|0|8,0:0|0:0|0:2,0:0:0:0:
335,176,103692,2,0,P|349:148|352:112,1,60,4|0,0:0|0:0,0:0:0:0:
294,63,103977,1,8,0:2:0:0:
358,19,104120,1,4,0:0:0:0:
358,19,104263,2,0,B|368:11|368:11|410:47,2,60,4|4|4,0:0|0:0|0:0,0:0:0:0:
464,144,104834,5,4,0:0:0:0:
440,216,104977,1,4,0:0:0:0:
365,237,105120,6,0,P|326:217|303:210,1,60,4|2,0:0|0:0,0:0:0:0:
236,234,105406,1,8,0:2:0:0:
236,234,105548,1,2,0:0:0:0:
248,316,105691,2,0,P|287:296|310:289,1,60,2|4,0:0|0:0,0:0:0:0:
359,345,105977,1,8,0:2:0:0:
436,330,106120,2,0,B|449:325|449:325|471:269,2,60,4|4|2,0:0|0:0|0:0,0:0:0:0:
359,345,106549,6,0,P|336:357|311:380,1,60,8|4,0:2|0:0,0:0:0:0:
191,370,106977,1,8,0:2:0:0:
168,296,107120,1,8,0:2:0:0:
112,186,107406,6,0,P|105:223|98:250,1,60,4|0,0:0|0:0,0:0:0:0:
25,266,107691,2,0,B|15:280|15:280|27:321,2,60,2|4|4,0:0|0:0|0:0,0:0:0:0:
112,186,108263,2,0,P|160:178|188:177,1,60,4|2,0:0|0:0,0:0:0:0:
216,200,108477,1,0,0:0:0:0:
216,200,108549,2,0,P|207:244|204:265,2,60,8|4|2,0:2|0:0|0:0,0:0:0:0:
282,164,108977,1,4,0:0:0:0:
250,94,109120,6,0,B|241:83|241:83|171:76,1,60,2|4,0:0|0:0,0:0:0:0:
140,134,109406,1,2,0:0:0:0:
140,134,109549,1,4,0:0:0:0:
80,185,109692,6,0,P|41:165|18:158,2,60,4|0|8,0:0|0:0|0:2,0:0:0:0:
98,260,110120,1,2,0:0:0:0:
156,308,110263,2,0,P|195:288|218:281,1,60,2|8,0:0|0:2,0:0:0:0:
323,344,110691,5,4,0:0:0:0:
323,344,110834,1,4,0:0:0:0:
386,234,111120,1,4,0:0:0:0:
386,234,111263,1,4,0:0:0:0:
359,107,111549,2,0,P|343:147|333:190,1,60,8|0,0:2|0:0,0:0:0:0:
302,232,111834,5,4,0:0:0:0:
226,241,111977,2,0,L|153:247,1,60,4|2,0:0|0:0,0:0:0:0:
91,260,112263,1,8,0:2:0:0:
91,260,112334,1,0,0:0:0:0:
91,260,112406,2,0,P|77:288|74:324,1,60,4|2,0:0|0:0,0:0:0:0:
167,168,112835,2,0,P|153:140|150:104,1,60,4|2,0:0|0:0,0:0:0:0:
194,47,113120,5,8,0:2:0:0:
194,47,113263,2,0,B|201:36|201:36|252:57,3,60,4|4|4|4,0:0|0:0|0:0|0:0,0:0:0:0:
377,106,113977,5,4,0:0:0:0:
353,178,114120,1,4,0:0:0:0:
276,195,114263,6,0,P|221:159|146:140,1,120,4|8,0:0|0:2,0:0:0:0:
125,208,114691,1,2,0:0:0:0:
125,208,114834,2,0,P|145:247|152:270,1,60,2|8,0:0|0:2,0:0:0:0:
59,357,115263,5,4,0:0:0:0:
59,357,115406,1,4,0:0:0:0:
209,320,115691,1,4,0:0:0:0:
209,320,115834,1,4,0:0:0:0:
203,169,116120,2,0,P|243:153|286:143,1,60,8|0,0:2|0:0,0:0:0:0:
337,172,116405,5,4,0:0:0:0:
347,248,116549,1,4,0:0:0:0:
266,332,116834,1,8,0:2:0:0:
266,332,116977,2,0,P|234:330|202:314,1,60,4|2,0:0|0:0,0:0:0:0:
177,206,117406,2,0,P|149:220|113:223,1,60,4|2,0:0|0:0,0:0:0:0:
65,282,117691,5,8,0:2:0:0:
0,244,117834,2,0,B|-10:236|-10:236|10:185,3,60,4|4|4|4,0:0|0:0|0:0|0:0,0:0:0:0:
28,50,118549,5,4,0:0:0:0:
52,122,118692,1,4,0:0:0:0:
127,143,118835,6,0,P|166:123|189:120,1,60,4|0,0:0|0:0,0:0:0:0:
245,168,119120,1,8,0:2:0:0:
307,116,119264,1,2,0:0:0:0:
307,116,119406,2,0,P|346:136|369:139,1,60,2|8,0:0|0:2,0:0:0:0:
241,10,119834,6,0,L|168:4,1,60,4|4,0:0|0:0,0:0:0:0:
307,116,120263,2,0,L|380:110,1,60,4|4,0:0|0:0,0:0:0:0:
494,169,120691,2,0,P|454:153|411:143,1,60,8|0,0:2|0:0,0:0:0:0:
370,196,120976,5,4,0:0:0:0:
370,196,121049,1,0,0:0:0:0:
370,196,121119,2,0,L|376:269,1,60,4|2,0:0|0:0,0:0:0:0:
374,330,121406,1,8,0:2:0:0:
300,356,121548,2,0,P|286:328|283:292,1,60,4|2,0:0|0:0,0:0:0:0:
445,288,121977,2,0,P|459:260|462:224,1,60,4|2,0:0|0:0,0:0:0:0:
440,158,122262,5,8,0:2:0:0:
386,99,122406,2,0,B|373:97|373:97|352:148,2,60,4|4|4,0:0|0:0|0:0,0:0:0:0:
461,77,122834,1,4,0:0:0:0:
356,220,123120,5,4,0:0:0:0:
284,196,123263,1,4,0:0:0:0:
254,127,123406,6,0,P|274:88|281:65,2,60,4|0|8,0:0|0:0|0:2,0:0:0:0:
177,131,123834,1,2,0:0:0:0:
107,163,123977,2,0,P|87:202|80:225,1,60,2|8,0:0|0:2,0:0:0:0:
136,343,124406,5,4,0:0:0:0:
136,343,124549,1,4,0:0:0:0:
253,255,124834,1,4,0:0:0:0:
253,255,124977,1,4,0:0:0:0:
399,295,125263,2,0,P|415:255|425:212,1,60,8|0,0:2|0:0,0:0:0:0:
431,166,125548,5,4,0:0:0:0:
431,166,125691,2,0,L|303:157,1,120,4|8,0:0|0:2,0:0:0:0:
248,107,126120,2,0,P|234:135|231:171,2,60,4|2|8,0:0|0:0|0:2,0:0:0:0:
325,80,126549,2,0,P|311:52|308:16,2,60,4|2|8,0:0|0:0|0:2,0:0:0:0:
311,157,126977,6,0,B|303:167|303:167|252:146,1,60,4|4,0:0|0:0,0:0:0:0:
185,120,127263,1,4,0:0:0:0:
185,120,127406,1,4,0:0:0:0:
60,96,127691,5,4,0:0:0:0:
84,168,127834,1,4,0:0:0:0:
38,233,127977,6,0,P|32:214|68:174,1,66.0000020141602,4|0,0:0|0:0,0:0:0:0:
115,238,128263,2,0,L|105:306,2,66.0000020141602,10|0|2,0:2|0:0|0:2,0:0:0:0:
184,196,128691,1,10,0:2:0:0:
302,269,128977,5,4,0:0:0:0:
302,269,129120,1,4,0:0:0:0:
438,234,129406,1,4,0:0:0:0:
438,234,129549,1,4,0:0:0:0:
485,100,129834,2,0,L|475:32,1,66.0000020141602,8|0,0:2|0:0,0:0:0:0:
397,24,130120,5,4,0:0:0:0:
397,24,130191,1,0,0:0:0:0:
397,24,130263,2,0,P|368:19|330:-4,1,66.0000020141602,4|0,0:0|0:0,0:0:0:0:
267,39,130549,1,10,0:2:0:0:
267,39,130691,2,0,L|262:114,1,66.0000020141602,4|0,0:0|0:0,0:0:0:0:
215,168,130977,5,10,0:2:0:0:
153,211,131120,2,0,L|156:249,2,33.0000010070801,4|0|2,0:0|0:0|0:0,0:0:0:0:
85,169,131406,6,0,L|94:92,1,66.0000020141602,8|4,0:2|0:0,0:0:0:0:
105,28,131691,1,4,0:0:0:0:
105,28,131834,1,4,0:0:0:0:
18,45,131977,2,0,P|41:82|65:98,1,66.0000020141602,4|2,0:0|0:2,0:0:0:0:
85,169,132263,2,0,P|128:167|154:154,1,66.0000020141602,4|4,0:0|0:0,0:0:0:0:
169,81,132549,5,4,0:0:0:0:
287,133,132834,2,0,L|355:123,2,66.0000020141602,10|0|2,0:2|0:0|0:2,0:0:0:0:
245,202,133262,1,10,0:2:0:0:
326,307,133549,5,4,0:0:0:0:
326,307,133691,1,4,0:0:0:0:
188,342,133977,1,4,0:0:0:0:
188,342,134120,1,4,0:0:0:0:
62,273,134406,2,0,L|72:205,1,66.0000020141602,8|0,0:2|0:0,0:0:0:0:
68,127,134691,5,4,0:0:0:0:
68,127,134834,2,0,P|97:132|135:155,1,66.0000020141602,4|0,0:0|0:0,0:0:0:0:
177,216,135120,2,0,L|245:206,2,66.0000020141602,10|4|0,0:2|0:0|0:0,0:0:0:0:
127,282,135549,2,0,L|59:272,1,66.0000020141602,10|4,0:2|0:0,0:0:0:0:
57,351,135834,5,2,0:2:0:0:
132,363,135977,2,0,P|173:348|194:329,1,66.0000020141602,8|4,0:2|0:0,0:0:0:0:
266,325,136263,2,0,P|273:282|266:254,1,66.0000020141602,4|4,0:0|0:0,0:0:0:0:
242,250,136477,1,0,0:0:0:0:
242,250,136549,1,6,0:2:0:0:
142,127,136834,5,4,0:0:0:0:
214,150,136977,1,4,0:0:0:0:
279,104,137120,6,0,P|260:98|220:134,1,66.0000020141602,4|0,0:0|0:0,0:0:0:0:
284,181,137406,2,0,L|352:171,2,66.0000020141602,10|0|2,0:2|0:0|0:2,0:0:0:0:
242,250,137834,1,10,0:2:0:0:
368,329,138120,5,4,0:0:0:0:
368,329,138263,1,4,0:0:0:0:
437,203,138549,1,4,0:0:0:0:
437,203,138691,1,4,0:0:0:0:
385,64,138977,2,0,L|317:74,1,66.0000020141602,8|0,0:2|0:0,0:0:0:0:
330,154,139263,5,4,0:0:0:0:
330,154,139334,1,0,0:0:0:0:
330,154,139406,2,0,P|301:149|263:126,1,66.0000020141602,4|0,0:0|0:0,0:0:0:0:
194,89,139692,1,10,0:2:0:0:
194,89,139834,2,0,L|189:164,1,66.0000020141602,4|0,0:0|0:0,0:0:0:0:
246,212,140120,5,10,0:2:0:0:
321,233,140263,2,0,L|318:271,2,33.0000010070801,4|0|2,0:0|0:0|0:2,0:0:0:0:
402,177,140549,6,0,L|393:254,1,66.0000020141602,8|4,0:2|0:0,0:0:0:0:
386,320,140834,1,4,0:0:0:0:
386,320,140977,1,4,0:0:0:0:
469,301,141120,2,0,P|446:264|422:248,1,66.0000020141602,4|2,0:0|0:2,0:0:0:0:
402,177,141406,2,0,P|359:179|333:192,1,66.0000020141602,4|4,0:0|0:0,0:0:0:0:
318,265,141692,5,4,0:0:0:0:
188,246,141977,2,0,L|178:314,2,66.0000020141602,10|0|2,0:2|0:0|0:2,0:0:0:0:
257,204,142405,1,10,0:2:0:0:
170,96,142692,5,4,0:0:0:0:
170,96,142834,1,4,0:0:0:0:
69,200,143120,1,4,0:0:0:0:
69,200,143263,1,4,0:0:0:0:
142,325,143549,2,0,L|210:335,1,66.0000020141602,8|0,0:2|0:0,0:0:0:0:
274,381,143834,5,4,0:0:0:0:
274,381,143977,2,0,P|303:376|341:353,1,66.0000020141602,4|0,0:0|0:0,0:0:0:0:
383,292,144263,2,0,L|451:302,2,66.0000020141602,10|4|0,0:2|0:0|0:0,0:0:0:0:
333,226,144692,2,0,L|265:236,1,66.0000020141602,10|4,0:2|0:0,0:0:0:0:
263,157,144977,5,2,0:2:0:0:
338,145,145120,2,0,P|379:160|400:179,1,66.0000020141602,8|4,0:2|0:0,0:0:0:0:
472,183,145406,2,0,P|479:226|472:254,1,66.0000020141602,4|4,0:0|0:0,0:0:0:0:
449,267,145620,1,0,0:0:0:0:
449,267,145692,1,6,0:2:0:0:
313,344,145977,5,4,0:0:0:0:
241,321,146120,1,4,0:0:0:0:
176,367,146263,6,0,P|135:359|116:338,1,53.9999983520508,4|0,0:0|0:0,0:0:0:0:
116,276,146549,1,8,0:2:0:0:
244,246,146834,5,0,0:0:0:0:
172,223,146977,1,8,0:2:0:0:
53,232,147263,6,0,L|-12:244,1,53.9999983520508,4|2,0:0|1:1,0:0:0:0:
112,169,147691,2,0,L|47:157,1,53.9999983520508,4|4,0:0|0:0,0:0:0:0:
160,109,148120,2,0,L|225:97,1,53.9999983520508,8|0,0:2|0:0,0:0:0:0:
268,42,148406,5,4,0:0:0:0:
268,42,148549,1,4,0:0:0:0:
373,24,148834,1,8,0:2:0:0:
373,24,148977,2,0,L|385:78,2,53.9999983520508,2|0|8,1:1|0:0|0:2,0:0:0:0:
449,2,149406,2,0,L|461:56,1,53.9999983520508,4|0,0:0|0:0,0:0:0:0:
478,129,149691,5,8,0:2:0:0:
423,181,149834,2,0,B|414:182|414:182|402:138,3,53.9999983520508,4|4|4|4,0:0|0:0|0:0|0:0,0:0:0:0:
373,24,150549,5,4,0:0:0:0:
301,47,150692,1,4,0:0:0:0:
236,1,150835,6,0,P|195:9|176:30,1,53.9999983520508,4|0,0:0|0:0,0:0:0:0:
176,92,151121,1,8,0:2:0:0:
304,122,151406,5,0,0:0:0:0:
232,145,151549,1,8,0:2:0:0:
101,105,151834,6,0,L|36:93,1,53.9999983520508,4|2,0:0|1:1,0:0:0:0:
160,168,152262,2,0,L|95:180,1,53.9999983520508,4|4,0:0|0:0,0:0:0:0:
67,249,152549,1,2,1:1:0:0:
67,249,152691,2,0,L|132:261,1,53.9999983520508,8|2,0:2|1:1,0:0:0:0:
177,322,152977,5,4,0:0:0:0:
177,322,153120,1,2,1:1:0:0:
282,340,153405,1,8,0:2:0:0:
282,340,153548,2,0,L|294:286,2,53.9999983520508,4|0|8,0:0|0:0|0:2,0:0:0:0:
358,362,153977,2,0,L|370:308,1,53.9999983520508,4|0,0:0|0:0,0:0:0:0:
387,235,154262,5,8,0:2:0:0:
332,183,154405,2,0,B|323:181|323:181|311:226,3,53.9999983520508,4|4|4|4,0:0|0:0|0:0|0:0,0:0:0:0:
282,340,155120,5,4,0:0:0:0:
210,317,155263,1,4,0:0:0:0:
145,363,155406,6,0,P|104:355|85:334,1,53.9999983520508,4|0,0:0|0:0,0:0:0:0:
102,272,155691,2,0,P|141:258|168:267,1,53.9999983520508,8|0,0:2|0:0,0:0:0:0:
205,206,155977,5,0,0:0:0:0:
133,183,156120,1,8,0:2:0:0:
53,46,156406,6,0,L|-12:34,1,53.9999983520508,4|2,0:0|1:1,0:0:0:0:
112,109,156834,2,0,L|47:121,1,53.9999983520508,4|4,0:0|0:0,0:0:0:0:
165,165,157263,2,0,L|230:177,1,53.9999983520508,8|0,0:2|0:0,0:0:0:0:
262,244,157549,5,4,0:0:0:0:
262,244,157692,1,4,0:0:0:0:
367,262,157977,1,8,0:2:0:0:
367,262,158120,2,0,L|379:208,2,53.9999983520508,2|0|8,1:1|0:0|0:2,0:0:0:0:
443,284,158549,2,0,L|455:230,1,53.9999983520508,4|0,0:0|0:0,0:0:0:0:
472,157,158834,5,8,0:2:0:0:
417,105,158977,2,0,B|408:103|408:103|396:148,3,53.9999983520508,4|4|4|4,0:0|0:0|0:0|0:0,0:0:0:0:
373,24,159691,5,4,0:0:0:0:
301,47,159834,1,4,0:0:0:0:
236,1,159977,6,0,P|195:9|176:30,1,53.9999983520508,4|0,0:0|0:0,0:0:0:0:
176,92,160263,1,8,0:2:0:0:
304,122,160548,5,0,0:0:0:0:
232,145,160691,1,8,0:2:0:0:
101,99,160976,6,0,L|36:87,1,53.9999983520508,4|2,0:0|1:1,0:0:0:0:
106,177,161263,1,0,0:0:0:0:
106,177,161406,2,0,L|160:168,1,53.9999983520508,4|4,0:0|0:0,0:0:0:0:
67,249,161691,1,2,1:1:0:0:
67,249,161833,2,0,L|132:261,1,53.9999983520508,8|2,0:2|1:1,0:0:0:0:
177,322,162119,5,4,0:0:0:0:
177,322,162262,1,2,1:1:0:0:
282,340,162549,1,8,0:2:0:0:
282,340,162690,2,0,L|294:286,2,53.9999983520508,4|0|8,0:0|0:0|0:2,0:0:0:0:
358,362,163119,2,0,L|370:308,1,53.9999983520508,4|0,0:0|0:0,0:0:0:0:
387,235,163406,5,8,0:2:0:0:
332,183,163549,2,0,B|323:181|323:181|311:226,2,53.9999983520508,4|4|4,0:0|0:0|0:0,0:0:0:0:
404,157,163977,1,4,0:0:0:0:
256,128,164263,6,0,L|256:53,1,53.9999983520508,4|4,0:0|0:0,0:0:0:0:
255,73,164549,1,4,0:0:0:0:
