osu file format v14

[General]
AudioFilename: audio.mp3
AudioLeadIn: 0
PreviewTime: -1
Countdown: 0
SampleSet: None
StackLeniency: 0.7
Mode: 0
LetterboxInBreaks: 0
WidescreenStoryboard: 1

[Editor]
Bookmarks: 18034,62014,65728,65801,70461,75121,88228,93179,93689,93762,159005
DistanceSpacing: 1
BeatDivisor: 4
GridSize: 4
TimelineZoom: 2.4

[Metadata]
Title:Very Very Very
TitleUnicode:너무너무너무
Artist:I.O.I
ArtistUnicode:I.O.I
Creator:PixlPlayz
Version:NomuNomuNomu
Source:
Tags:KPOP Miss Me? 너무너무너무 Katten Alex
BeatmapID:1278628
BeatmapSetID:605189

[Difficulty]
HPDrainRate:6
CircleSize:4.1
OverallDifficulty:7
ApproachRate:9.6
SliderMultiplier:1.4
SliderTickRate:1

[Events]
//Background and Video events
0,0,"osu! beatmap bg.jpg",0,0
//Break Periods
2,59447,60309
2,115369,116231
2,149884,158465
//Storyboard Layer 0 (Background)
//Storyboard Layer 1 (Fail)
//Storyboard Layer 2 (Pass)
//Storyboard Layer 3 (Foreground)
//Storyboard Sound Samples

[TimingPoints]
-24,291.26213592233,4,1,0,100,1,0
-24,-76.9230769230769,4,1,0,80,0,0
2014,-66.6666666666667,4,1,0,80,0,0
2160,-76.9230769230769,4,1,0,80,0,0
2451,-66.6666666666667,4,1,0,80,0,0
2742,-66.6666666666667,4,1,0,80,0,0
2888,-76.9230769230769,4,1,0,80,0,0
3034,-76.9230769230769,4,1,0,80,0,0
5218,-83.3333333333333,4,1,0,80,0,0
6675,-76.9230769230769,4,1,0,80,0,0
6966,-66.6666666666667,4,1,0,80,0,0
7403,-76.9230769230769,4,1,0,80,0,0
8417,-62.5,4,1,0,80,0,0
8568,-76.9230769230769,4,1,0,80,0,0
9150,-62.5,4,1,0,80,0,0
9296,-76.9230769230769,4,1,0,80,0,0
11917,-66.6666666666667,4,1,0,80,0,0
12063,-76.9230769230769,4,1,0,80,0,0
12500,-66.6666666666667,4,1,0,80,0,0
12645,-76.9230769230769,4,1,0,80,0,0
13082,-83.3333333333333,4,1,0,80,0,0
13228,-76.9230769230769,4,1,0,80,0,0
19199,-76.9230769230769,4,1,0,85,0,1
23568,-66.6666666666667,4,1,0,85,0,1
23713,-76.9230769230769,4,1,0,85,0,1
37840,-76.9230769230769,4,1,0,80,0,0
61141,-125,4,1,0,80,0,0
65801,-83.3333333333333,4,1,0,80,0,0
75121,-76.9230769230769,4,1,0,80,0,1
93179,-142.857142857143,4,1,0,80,0,1
93471,-76.9230769230769,4,1,0,80,0,0
95218,-62.5,4,1,0,80,0,0
95364,-76.9230769230769,4,1,0,80,0,0
117063,-125,4,1,0,80,0,0
121723,-83.3333333333333,4,1,0,80,0,0
131043,-76.9230769230769,4,1,0,80,0,1
149684,-76.9230769230769,4,1,0,80,0,0
168325,-76.9230769230769,4,1,0,80,0,1
186966,-76.9230769230769,4,1,0,80,0,0

[Colours]
Combo1 : 136,255,255
Combo2 : 255,0,217
Combo3 : 141,123,196

[HitObjects]
176,216,558,6,0,L|100:292,1,90.9999958343508
292,172,995,2,0,L|364:100,1,90.9999958343508
252,40,1432,1,0,0:0:0:0:
160,204,1723,1,0,0:0:0:0:
360,316,2014,6,0,P|408:296|424:240,1,105.000004005432
296,228,2306,1,0,0:0:0:0:
144,132,2451,2,0,P|88:176|88:220,1,105.000004005432
236,300,2742,1,0,0:0:0:0:
52,156,2888,2,0,P|52:96|24:64,1,90.9999958343508
236,300,3325,2,0,P|224:228|308:180,1,181.999991668702
125,236,3762,1,0,0:0:0:0:
232,96,4053,1,0,0:0:0:0:
454,198,4344,6,0,P|415:178|400:136,1,90.9999958343508
480,51,4636,2,0,P|463:91|420:104,1,90.9999958343508
311,69,4927,2,0,P|355:70|388:100,1,90.9999958343508
168,152,5218,2,0,L|88:180,1,83.9999974365235
296,184,5655,2,0,P|364:176|416:264,1,167.999994873047
208,320,6092,1,0,0:0:0:0:
412,292,6383,1,0,0:0:0:0:
346,121,6675,6,0,L|274:193,1,90.9999958343508
240,120,6966,2,0,L|144:216,1,105.000004005432
136,120,7257,2,0,L|48:208,1,105.000004005432
352,112,7548,2,0,P|392:136|452:120,1,90.9999958343508
200,260,7985,2,0,P|140:204|52:260,1,181.999991668702
344,124,8422,2,0,L|412:212,1,112
404,340,8713,2,0,L|288:184,1,181.999991668702
308,60,9150,2,0,P|352:48|412:100,1,112
344,256,9587,1,0,0:0:0:0:
288,132,9878,6,0,P|240:92|236:44,1,90.9999958343508
52,188,10170,1,0,0:0:0:0:
208,216,10315,1,0,0:0:0:0:
12,304,10461,2,0,P|68:336|104:328,1,90.9999958343508
100,196,10752,5,0,0:0:0:0:
220,64,10898,1,0,0:0:0:0:
236,184,11043,1,0,0:0:0:0:
104,88,11189,1,0,0:0:0:0:
160,284,11335,6,0,P|208:300|264:276,1,90.9999958343508
128,104,11626,2,0,P|108:60|124:16,1,90.9999958343508
376,52,11917,2,0,P|420:100|416:144,1,105.000004005432
208,224,12209,5,0,0:0:0:0:
376,52,12354,1,0,0:0:0:0:
404,244,12500,2,0,L|328:168,1,105.000004005432
236,152,12791,2,0,L|160:76,1,90.9999958343508
56,240,13082,5,0,0:0:0:0:
252,296,13228,1,0,0:0:0:0:
272,80,13374,2,0,B|339:125|295:162|362:252,1,181.999991668702
492,120,13810,5,0,0:0:0:0:
352,238,13956,1,0,0:0:0:0:
472,336,14102,1,0,0:0:0:0:
384,140,14247,1,0,0:0:0:0:
244,312,14393,1,0,0:0:0:0:
96,168,14539,6,0,L|176:248,1,90.9999958343508
232,96,14830,1,0,0:0:0:0:
232,224,14975,1,0,0:0:0:0:
124,100,15121,1,0,0:0:0:0:
120,228,15267,1,0,0:0:0:0:
232,236,15412,6,0,P|280:240|320:288,1,90.9999958343508
464,88,15704,1,0,0:0:0:0:
248,112,15849,1,0,0:0:0:0:
512,264,15995,5,0,0:0:0:0:
248,112,16141,1,0,0:0:0:0:
368,96,16286,2,0,L|392:196,1,90.9999958343508
352,344,16577,2,0,L|324:236,1,90.9999958343508
228,232,16869,5,0,0:0:0:0:
184,248,16942,1,0,0:0:0:0:
140,264,17014,1,0,0:0:0:0:
96,256,17087,1,0,0:0:0:0:
60,228,17160,1,0,0:0:0:0:
32,192,17233,1,0,0:0:0:0:
28,148,17306,1,0,0:0:0:0:
40,104,17378,1,0,0:0:0:0:
64,64,17451,5,0,0:0:0:0:
104,44,17524,1,0,0:0:0:0:
148,52,17597,1,0,0:0:0:0:
188,72,17669,1,0,0:0:0:0:
224,100,17742,5,0,0:0:0:0:
256,132,17815,1,0,0:0:0:0:
296,156,17888,1,0,0:0:0:0:
340,160,17961,1,0,0:0:0:0:
384,156,18033,1,0,0:0:0:0:
440,272,18179,5,0,0:0:0:0:
172,188,18325,1,0,0:0:0:0:
292,324,18471,1,0,0:0:0:0:
336,136,18616,1,0,0:0:0:0:
328,228,18762,5,0,0:0:0:0:
284,236,18834,1,0,0:0:0:0:
241,222,18907,1,0,0:0:0:0:
104,324,19053,1,0,0:0:0:0:
288,160,19199,6,0,P|332:148|384:176,1,90.9999958343508
148,164,19490,2,0,P|88:172|32:148,1,90.9999958343508
336,92,19781,2,0,P|324:40|328:4,1,90.9999958343508
164,240,20073,2,0,P|176:304|160:344,1,90.9999958343508
100,100,20364,6,0,P|172:84|228:172,1,181.999991668702
360,248,20801,1,0,0:0:0:0:
336,92,20946,2,0,L|428:24,1,90.9999958343508
448,272,21238,2,0,L|372:336,1,90.9999958343508
184,224,21529,6,0,L|264:156,1,90.9999958343508
120,72,21820,1,0,0:0:0:0:
64,304,21966,1,0,0:0:0:0:
0,136,22111,1,0,0:0:0:0:
184,224,22257,1,0,0:0:0:0:
268,108,22403,2,0,B|228:160|304:220|236:300,1,181.999991668702
316,312,22985,6,0,B|360:240|360:240|316:180|336:132,1,181.999991668702
412,168,23422,1,0,0:0:0:0:
360,240,23568,2,0,P|308:228|252:264,1,105.000004005432
96,264,23859,6,0,L|168:192,1,90.9999958343508
28,68,24150,2,0,L|100:140,1,90.9999958343508
356,132,24442,2,0,L|284:60,1,90.9999958343508
161,199,24733,2,0,L|237:123,1,90.9999958343508
320,280,25024,5,0,0:0:0:0:
472,164,25170,1,0,0:0:0:0:
392,308,25315,2,0,P|388:244|368:216,1,90.9999958343508
288,188,25607,2,0,P|276:140|348:40,2,181.999991668702
164,300,26335,5,0,0:0:0:0:
88,136,26480,2,0,P|20:176|8:216,1,90.9999958343508
288,188,26772,1,0,0:0:0:0:
188,32,26917,1,0,0:0:0:0:
352,144,27063,6,0,P|368:192|344:244,1,90.9999958343508
112,356,27354,2,0,P|92:308|104:252,1,90.9999958343508
184,140,27645,1,0,0:0:0:0:
8,208,27791,1,0,0:0:0:0:
40,28,27937,5,0,0:0:0:0:
260,168,28082,1,0,0:0:0:0:
262,122,28154,1,0,0:0:0:0:
240,84,28228,2,0,P|204:60|144:72,1,90.9999958343508
208,224,28519,6,0,P|264:244|300:232,1,90.9999958343508
432,88,28810,2,0,L|368:24,1,90.9999958343508
408,220,29102,2,0,L|488:300,1,90.9999958343508
240,84,29393,2,0,P|200:56|92:124,1,181.999991668702
168,276,29975,6,0,L|248:332,1,90.9999958343508
248,188,30267,2,0,L|156:124,1,90.9999958343508
328,248,30558,2,0,L|384:164,1,90.9999958343508
104,232,30849,2,0,L|40:320,1,90.9999958343508
100,96,31141,5,0,0:0:0:0:
232,276,31286,1,0,0:0:0:0:
224,80,31432,1,0,0:0:0:0:
112,188,31577,1,0,0:0:0:0:
312,184,31723,2,0,B|344:160|340:140|340:140|364:144|400:112|400:92|400:92|420:88|424:40,1,181.999991668702
236,152,32306,6,0,B|200:312|392:236|384:360,1,272.999987503052
384,345,32888,1,0,0:0:0:0:
160,180,33034,1,0,0:0:0:0:
160,180,33179,6,0,P|164:108|192:80,1,90.9999958343508
32,244,33470,2,0,P|40:300|8:352,1,90.9999958343508
120,44,33762,2,0,P|184:24|236:52,1,90.9999958343508
299,198,34053,2,0,P|265:227|220:228,1,90.9999958343508
120,44,34344,5,0,0:0:0:0:
189,296,34490,1,0,0:0:0:0:
32,240,34636,2,0,L|192:136,1,181.999991668702
272,304,35073,1,0,0:0:0:0:
392,116,35218,5,0,0:0:0:0:
408,256,35364,1,0,0:0:0:0:
240,228,35509,6,0,P|192:276|192:324,1,90.9999958343508
440,180,35801,2,0,P|472:120|456:68,1,90.9999958343508
276,136,36092,2,0,P|232:108|184:116,1,90.9999958343508
344,296,36383,2,0,P|384:328|448:320,1,90.9999958343508
404,116,36675,5,0,0:0:0:0:
196,176,36820,1,0,0:0:0:0:
248,40,36966,1,0,0:0:0:0:
336,228,37111,1,0,0:0:0:0:
128,256,37257,5,0,0:0:0:0:
293,88,37403,1,0,0:0:0:0:
338,78,37475,1,0,0:0:0:0:
383,69,37548,1,0,0:0:0:0:
256,264,37694,1,0,0:0:0:0:
256,264,37840,1,0,0:0:0:0:
408,168,38131,6,0,L|476:236,1,90.9999958343508
444,68,38422,1,0,0:0:0:0:
324,188,38568,1,0,0:0:0:0:
220,88,38713,2,0,B|260:160|212:224|276:288,2,181.999991668702
332,264,39442,6,0,P|320:312|280:336,1,90.9999958343508
92,352,39733,1,0,0:0:0:0:
116,192,39878,2,0,B|156:144|216:160|216:160|268:160|296:116,2,181.999991668702
220,88,40607,2,0,P|176:80|120:96,1,90.9999958343508
244,262,40898,6,0,P|296:274|340:258,1,90.9999958343508
400,88,41189,1,0,0:0:0:0:
472,292,41335,1,0,0:0:0:0:
292,200,41480,1,0,0:0:0:0:
492,112,41626,5,0,0:0:0:0:
300,16,41772,1,0,0:0:0:0:
432,220,41917,2,0,P|400:260|400:316,1,90.9999958343508
296,116,42209,2,0,P|244:128|212:168,1,90.9999958343508
492,112,42500,1,0,0:0:0:0:
260,220,42791,6,0,P|192:228|160:196,1,90.9999958343508
436,60,43082,2,0,P|416:104|436:164,1,90.9999958343508
328,284,43374,2,0,P|344:220|264:132,1,181.999991668702
168,320,43810,5,0,0:0:0:0:
328,284,43956,2,0,P|380:312|424:312,1,90.9999958343508
276,135,44247,2,0,P|332:111|348:63,1,90.9999958343508
142,92,44539,6,0,P|123:133|136:176,1,90.9999958343508
276,296,44830,1,0,0:0:0:0:
272,44,44975,1,0,0:0:0:0:
444,216,45121,1,0,0:0:0:0:
228,232,45267,1,0,0:0:0:0:
424,136,45412,6,0,P|376:168|368:228,1,90.9999958343508
196,304,45704,2,0,P|156:268|152:216,1,90.9999958343508
272,44,45995,1,0,0:0:0:0:
344,296,46141,1,0,0:0:0:0:
112,164,46286,5,0,0:0:0:0:
344,108,46432,1,0,0:0:0:0:
104,84,46577,2,0,P|164:104|188:164,1,90.9999958343508
268,276,46869,2,0,B|304:172|404:252|428:164,1,181.999991668702
220,64,47451,5,0,0:0:0:0:
268,276,47597,1,0,0:0:0:0:
212,24,47742,1,0,0:0:0:0:
368,132,47888,1,0,0:0:0:0:
128,188,48034,5,0,0:0:0:0:
412,124,48179,1,0,0:0:0:0:
192,248,48325,2,0,P|204:328|308:344,1,181.999991668702
291,351,48762,1,0,0:0:0:0:
264,216,48908,2,0,P|284:172|340:168,1,90.9999958343508
224,40,49199,5,0,0:0:0:0:
96,256,49344,1,0,0:0:0:0:
344,236,49490,2,0,P|336:172|232:140,1,181.999991668702
235,138,49927,1,0,0:0:0:0:
28,272,50073,2,0,P|52:316|104:328,1,90.9999958343508
40,80,50364,5,0,0:0:0:0:
235,138,50509,1,0,0:0:0:0:
96,256,50655,1,0,0:0:0:0:
212,44,50801,1,0,0:0:0:0:
312,192,50946,5,0,0:0:0:0:
128,148,51092,1,0,0:0:0:0:
376,140,51238,2,0,B|444:212|320:288|416:340,2,181.999991668702
264,24,52111,6,0,L|76:88,1,181.999991668702
180,280,52548,1,0,0:0:0:0:
288,136,52694,1,0,0:0:0:0:
91,82,52840,1,0,0:0:0:0:
324,256,52985,5,0,0:0:0:0:
264,24,53131,1,0,0:0:0:0:
160,204,53276,2,0,P|120:232|104:280,1,90.9999958343508
364,324,53568,2,0,P|400:276|392:224,1,90.9999958343508
336,64,53859,6,0,P|296:96|240:96,1,90.9999958343508
260,240,54150,2,0,P|200:304|84:272,2,181.999991668702
348,44,54878,1,0,0:0:0:0:
172,228,55024,1,0,0:0:0:0:
176,72,55170,5,0,0:0:0:0:
372,240,55315,1,0,0:0:0:0:
436,56,55461,1,0,0:0:0:0:
236,124,55607,2,0,P|196:148|128:132,1,90.9999958343508
372,240,55898,5,0,0:0:0:0:
308,88,56043,1,0,0:0:0:0:
276,56,56115,1,0,0:0:0:0:
232,45,56188,1,0,0:0:0:0:
76,172,56335,1,0,0:0:0:0:
232,45,56480,1,0,0:0:0:0:
196,224,56772,6,0,B|224:284|288:224|364:300,2,181.999991668702
384,244,57645,1,0,0:0:0:0:
268,168,57791,1,0,0:0:0:0:
400,168,57937,1,0,0:0:0:0:
288,256,58082,1,0,0:0:0:0:
332,120,58228,1,0,0:0:0:0:
416,248,58374,1,0,0:0:0:0:
168,72,58519,2,0,P|220:124|196:232,1,181.999991668702
140,156,59247,1,0,0:0:0:0:
432,80,60849,5,0,0:0:0:0:
360,200,60995,1,0,0:0:0:0:
360,120,61141,2,0,P|300:144|308:252,1,168
160,216,62014,6,0,P|112:160|108:156,1,56
232,176,62306,2,0,P|244:244|156:300,1,168
248,64,63179,5,0,0:0:0:0:
340,136,63325,1,0,0:0:0:0:
232,176,63471,2,0,L|256:308,1,112
404,192,64053,2,0,P|424:128|396:76,1,112
312,152,64636,2,0,P|276:104|212:100,1,112
228,188,65218,2,0,P|168:188|120:240,2,112
228,188,65946,1,0,0:0:0:0:
364,256,66092,6,0,P|408:268|452:256,1,83.9999974365235
496,140,66383,2,0,L|448:56,1,83.9999974365235
312,24,66675,2,0,L|360:116,1,83.9999974365235
236,264,66966,5,0,0:0:0:0:
264,96,67111,1,0,0:0:0:0:
388,232,67257,1,0,0:0:0:0:
192,172,67403,1,0,0:0:0:0:
376,116,67548,1,0,0:0:0:0:
304,304,67694,1,0,0:0:0:0:
104,264,67840,6,0,P|80:200|104:160,1,83.9999974365235
364,172,68131,2,0,P|420:136|400:40,2,167.999994873047
324,96,69005,6,0,P|272:48|224:40,1,83.9999974365235
248,148,69296,2,0,P|196:140|144:168,1,83.9999974365235
252,244,69587,2,0,P|216:272|208:320,1,83.9999974365235
292,316,69878,2,0,P|352:304|384:204,1,167.999994873047
88,72,70461,5,0,0:0:0:0:
320,76,70607,1,0,0:0:0:0:
88,148,70752,5,0,0:0:0:0:
320,148,70898,1,0,0:0:0:0:
88,220,71043,5,0,0:0:0:0:
320,220,71189,1,0,0:0:0:0:
240,56,71335,6,0,P|176:52|136:88,1,83.9999974365235
392,252,71626,2,0,P|376:184|332:160,1,83.9999974365235
500,96,71917,1,0,0:0:0:0:
480,312,72063,1,0,0:0:0:0:
316,192,72209,5,0,0:0:0:0:
428,88,72354,1,0,0:0:0:0:
472,236,72500,1,0,0:0:0:0:
324,104,72645,1,0,0:0:0:0:
80,84,72791,5,0,0:0:0:0:
68,124,72863,1,0,0:0:0:0:
64,164,72936,1,0,0:0:0:0:
60,208,73009,1,0,0:0:0:0:
68,248,73082,5,0,0:0:0:0:
84,288,73155,1,0,0:0:0:0:
112,316,73227,1,0,0:0:0:0:
148,336,73300,1,0,0:0:0:0:
192,336,73374,5,0,0:0:0:0:
232,328,73446,1,0,0:0:0:0:
272,316,73518,1,0,0:0:0:0:
308,292,73591,1,0,0:0:0:0:
344,268,73665,5,0,0:0:0:0:
380,244,73737,1,0,0:0:0:0:
404,208,73810,1,0,0:0:0:0:
428,176,73882,1,0,0:0:0:0:
448,140,73955,1,0,0:0:0:0:
380,84,74102,5,0,0:0:0:0:
412,352,74247,1,0,0:0:0:0:
244,248,74393,1,0,0:0:0:0:
476,192,74539,1,0,0:0:0:0:
236,144,74684,5,0,0:0:0:0:
195,149,74756,1,0,0:0:0:0:
164,177,74829,1,0,0:0:0:0:
100,336,74975,1,0,0:0:0:0:
100,336,75121,6,0,L|8:264,1,90.9999958343508
200,248,75412,2,0,L|276:304,1,90.9999958343508
312,160,75704,2,0,P|304:104|244:76,1,90.9999958343508
164,177,75995,2,0,P|128:217|128:281,1,90.9999958343508
336,292,76286,2,0,B|372:212|308:160|308:160|372:140,1,181.999991668702
448,264,76723,5,0,0:0:0:0:
412,132,76869,2,0,P|380:88|312:80,1,90.9999958343508
208,172,77160,2,0,L|276:240,1,90.9999958343508
272,68,77451,5,0,0:0:0:0:
188,336,77597,1,0,0:0:0:0:
368,148,77742,1,0,0:0:0:0:
120,248,77888,1,0,0:0:0:0:
400,220,78034,2,0,P|440:184|444:132,1,90.9999958343508
192,64,78325,2,0,B|184:120|256:160|220:240,1,181.999991668702
292,96,78908,6,0,P|240:140|96:164,1,181.999991668702
131,168,79344,1,0,0:0:0:0:
196,296,79490,2,0,L|108:240,1,90.9999958343508
184,88,79781,5,0,0:0:0:0:
356,256,79927,1,0,0:0:0:0:
352,84,80073,1,0,0:0:0:0:
180,248,80218,1,0,0:0:0:0:
260,140,80364,5,0,0:0:0:0:
432,308,80510,1,0,0:0:0:0:
428,136,80656,1,0,0:0:0:0:
256,300,80801,1,0,0:0:0:0:
128,200,80946,5,0,0:0:0:0:
312,148,81092,1,0,0:0:0:0:
176,72,81238,2,0,P|132:112|80:116,1,90.9999958343508
124,276,81529,2,0,P|172:316|284:284,2,181.999991668702
124,276,82257,1,0,0:0:0:0:
240,164,82403,6,0,L|332:192,1,90.9999958343508
188,44,82694,1,0,0:0:0:0:
124,276,82840,1,0,0:0:0:0:
404,192,82985,6,0,P|388:240|324:264,1,90.9999958343508
124,96,83276,2,0,P|108:44|132:-8,1,90.9999958343508
327,190,83568,1,0,0:0:0:0:
80,184,83713,1,0,0:0:0:0:
208,64,83859,1,0,0:0:0:0:
340,72,84005,1,0,0:0:0:0:
369,106,84077,1,0,0:0:0:0:
398,141,84150,2,0,P|424:180|488:192,1,90.9999958343508
292,140,84442,6,0,P|256:84|260:44,1,90.9999958343508
104,36,84733,2,0,L|32:120,1,90.9999958343508
60,248,85024,2,0,L|140:156,1,90.9999958343508
308,216,85315,2,0,P|236:196|232:100,1,181.999991668702
328,232,85898,6,0,L|280:320,1,90.9999958343508
448,152,86189,2,0,L|492:48,1,90.9999958343508
292,140,86480,2,0,L|196:96,1,90.9999958343508
24,208,86772,2,0,L|128:268,1,90.9999958343508
100,52,87063,5,0,0:0:0:0:
200,296,87209,1,0,0:0:0:0:
209,102,87354,1,0,0:0:0:0:
40,304,87500,1,0,0:0:0:0:
304,312,87645,2,0,B|348:268|348:268|432:272|444:200,1,181.999991668702
472,32,88228,6,0,B|372:80|372:80|428:132|428:132|368:148|364:216,1,272.999987503052
352,200,88810,1,0,0:0:0:0:
160,64,88956,1,0,0:0:0:0:
264,224,89102,5,0,0:0:0:0:
44,80,89247,1,0,0:0:0:0:
104,308,89393,1,0,0:0:0:0:
188,84,89539,1,0,0:0:0:0:
0,220,89684,1,0,0:0:0:0:
296,256,89830,5,0,0:0:0:0:
76,112,89975,1,0,0:0:0:0:
136,340,90121,1,0,0:0:0:0:
220,116,90267,1,0,0:0:0:0:
32,252,90412,1,0,0:0:0:0:
260,352,90558,2,0,B|240:288|240:288|312:292|280:220|372:216,1,181.999991668702
248,56,90995,1,0,0:0:0:0:
460,176,91141,5,0,0:0:0:0:
404,48,91286,1,0,0:0:0:0:
284,128,91432,6,0,P|228:136|192:116,1,90.9999958343508
52,136,91723,2,0,L|116:200,1,90.9999958343508
300,284,92014,2,0,L|228:212,1,90.9999958343508
248,56,92306,2,0,P|292:32|356:52,1,90.9999958343508
424,264,92597,5,0,0:0:0:0:
168,192,92742,1,0,0:0:0:0:
424,160,92888,1,0,0:0:0:0:
244,56,93034,1,0,0:0:0:0:
300,284,93179,2,0,L|200:344,1,97.9999970092774
120,188,93762,6,0,L|200:144,1,90.9999958343508
64,68,94053,1,0,0:0:0:0:
324,124,94199,1,0,0:0:0:0:
120,188,94344,1,0,0:0:0:0:
256,308,94490,1,0,0:0:0:0:
396,168,94636,2,0,P|404:112|384:68,1,90.9999958343508
188,236,94927,2,0,P|140:268|88:268,1,90.9999958343508
192,64,95218,6,0,L|256:164,1,112
364,316,95509,1,0,0:0:0:0:
316,88,95655,1,0,0:0:0:0:
284,316,95801,2,0,B|288:240|372:236|372:144,1,181.999991668702
392,152,96238,1,0,0:0:0:0:
184,144,96383,2,0,P|136:120|124:72,2,90.9999958343508
60,232,96820,1,0,0:0:0:0:
220,220,96966,6,0,P|256:184|260:132,1,90.9999958343508
352,272,97257,1,0,0:0:0:0:
340,152,97403,2,0,P|332:100|280:72,1,90.9999958343508
204,328,97694,1,0,0:0:0:0:
96,144,97840,5,0,0:0:0:0:
352,272,97985,1,0,0:0:0:0:
296,68,98131,2,0,P|240:112|228:144,1,90.9999958343508
204,328,98422,1,0,0:0:0:0:
356,124,98568,6,0,P|376:80|364:28,1,90.9999958343508
256,192,98859,1,0,0:0:0:0:
96,144,99005,1,0,0:0:0:0:
324,216,99150,2,0,P|288:256|228:256,1,90.9999958343508
152,64,99442,1,0,0:0:0:0:
388,168,99587,6,0,P|404:232|396:256,1,90.9999958343508
152,296,99878,1,0,0:0:0:0:
300,60,100024,1,0,0:0:0:0:
76,80,100170,6,0,B|92:176|176:124|212:224,1,181.999991668702
264,240,100607,2,0,P|276:188|252:148,1,90.9999958343508
432,132,100898,1,0,0:0:0:0:
216,48,101043,1,0,0:0:0:0:
264,240,101189,1,0,0:0:0:0:
472,60,101335,6,0,P|504:96|508:160,1,90.9999958343508
288,136,101626,1,0,0:0:0:0:
432,248,101772,1,0,0:0:0:0:
312,296,101917,2,0,P|256:316|204:288,1,90.9999958343508
76,148,102209,1,0,0:0:0:0:
144,348,102354,1,0,0:0:0:0:
44,220,102500,6,0,B|124:252|144:164|240:196,1,181.999991668702
236,116,102937,2,0,P|288:156|288:200,1,90.9999958343508
440,52,103374,5,0,0:0:0:0:
291,177,103519,1,0,0:0:0:0:
472,180,103665,1,0,0:0:0:0:
344,308,103810,1,0,0:0:0:0:
232,40,103956,6,0,P|188:56|160:112,1,90.9999958343508
356,108,104247,1,0,0:0:0:0:
184,224,104393,1,0,0:0:0:0:
24,188,104539,1,0,0:0:0:0:
72,340,104684,1,0,0:0:0:0:
240,164,104830,2,0,P|264:208|252:264,1,90.9999958343508
420,160,105121,6,0,P|436:112|412:52,1,90.9999958343508
212,48,105412,2,0,L|304:84,1,90.9999958343508
340,240,105704,1,0,0:0:0:0:
108,144,105849,1,0,0:0:0:0:
209,323,105995,6,0,L|265:239,1,90.9999958343508
304,56,106286,2,0,L|248:152,1,90.9999958343508
416,264,106577,1,0,0:0:0:0:
132,288,106723,1,0,0:0:0:0:
258,134,106869,1,0,0:0:0:0:
258,134,107014,2,0,L|264:236,1,90.9999958343508
108,144,107306,5,0,0:0:0:0:
232,312,107451,2,0,P|316:284|336:180,1,181.999991668702
444,112,107888,1,0,0:0:0:0:
263,224,108034,2,0,P|200:224|156:268,1,90.9999958343508
192,40,108325,5,0,0:0:0:0:
48,156,108471,1,0,0:0:0:0:
304,52,108616,2,0,L|380:128,1,90.9999958343508
396,312,108908,2,0,L|324:240,1,90.9999958343508
216,100,109199,5,0,0:0:0:0:
352,232,109344,2,0,P|444:184|448:176,1,90.9999958343508
216,100,109927,6,0,L|144:172,1,90.9999958343508
56,56,110218,1,0,0:0:0:0:
56,272,110364,1,0,0:0:0:0:
56,176,110509,1,0,0:0:0:0:
208,176,110655,1,0,0:0:0:0:
232,260,110801,2,0,P|276:224|288:164,1,90.9999958343508
296,104,111092,6,0,P|320:52|376:32,2,90.9999958343508
468,196,111529,1,0,0:0:0:0:
436,56,111675,1,0,0:0:0:0:
324,304,111820,1,0,0:0:0:0:
156,188,111966,1,0,0:0:0:0:
134,228,112038,1,0,0:0:0:0:
112,268,112111,1,0,0:0:0:0:
292,208,112257,1,0,0:0:0:0:
240,40,112403,1,0,0:0:0:0:
236,164,112694,6,0,B|264:104|328:164|404:88,2,181.999991668702
460,64,113567,2,0,P|464:128|444:152,1,90.9999958343508
332,224,113859,2,0,P|312:272|328:316,1,90.9999958343508
220,88,114150,2,0,P|171:91|132:137,1,90.9999958343508
168,312,114441,2,0,P|220:260|196:152,1,181.999991668702
140,228,115169,1,0,0:0:0:0:
432,304,116771,5,0,0:0:0:0:
360,184,116917,1,0,0:0:0:0:
360,264,117063,2,0,P|300:240|308:132,1,168
160,168,117936,6,0,P|112:224|108:228,1,56
232,208,118228,2,0,P|244:140|156:84,1,168
248,320,119101,5,0,0:0:0:0:
340,248,119247,1,0,0:0:0:0:
232,208,119393,2,0,L|256:76,1,112
404,192,119975,2,0,P|424:256|396:308,1,112
312,232,120558,2,0,P|276:280|212:284,1,112
228,196,121140,2,0,P|168:196|120:144,2,112
228,196,121868,1,0,0:0:0:0:
364,128,122015,6,0,P|408:116|452:128,1,83.9999974365235
496,244,122306,2,0,L|448:328,1,83.9999974365235
312,360,122597,2,0,L|360:268,1,83.9999974365235
288,112,122888,5,0,0:0:0:0:
228,260,123033,1,0,0:0:0:0:
380,172,123179,1,0,0:0:0:0:
216,160,123325,1,0,0:0:0:0:
372,268,123470,1,0,0:0:0:0:
288,112,123616,1,0,0:0:0:0:
104,120,123762,6,0,P|80:184|104:224,1,83.9999974365235
364,212,124053,2,0,P|420:248|400:344,2,167.999994873047
324,288,124927,6,0,P|272:336|224:344,1,83.9999974365235
248,236,125218,2,0,P|196:244|144:216,1,83.9999974365235
252,140,125509,2,0,P|216:112|208:64,1,83.9999974365235
292,68,125800,2,0,P|352:80|384:180,1,167.999994873047
164,172,126383,5,0,0:0:0:0:
8,264,126529,1,0,0:0:0:0:
132,316,126675,1,0,0:0:0:0:
40,136,126820,1,0,0:0:0:0:
277,214,126966,6,0,P|269:158|233:130,1,83.9999974365235
92,264,127257,1,0,0:0:0:0:
96,108,127403,1,0,0:0:0:0:
232,252,127548,1,0,0:0:0:0:
344,144,127694,6,0,L|328:56,1,83.9999974365235
176,180,127985,1,0,0:0:0:0:
428,160,128131,1,0,0:0:0:0:
312,316,128276,1,0,0:0:0:0:
296,68,128422,1,0,0:0:0:0:
180,304,128568,1,0,0:0:0:0:
24,272,128713,5,0,0:0:0:0:
32,232,128785,1,0,0:0:0:0:
40,192,128858,1,0,0:0:0:0:
56,152,128932,1,0,0:0:0:0:
72,112,129004,5,0,0:0:0:0:
96,80,129077,1,0,0:0:0:0:
128,52,129150,1,0,0:0:0:0:
168,36,129223,1,0,0:0:0:0:
212,36,129296,5,0,0:0:0:0:
252,40,129369,1,0,0:0:0:0:
284,68,129441,1,0,0:0:0:0:
308,100,129514,1,0,0:0:0:0:
320,140,129587,5,0,0:0:0:0:
320,180,129659,1,0,0:0:0:0:
312,220,129732,1,0,0:0:0:0:
288,256,129805,1,0,0:0:0:0:
256,284,129878,1,0,0:0:0:0:
132,280,130024,5,0,0:0:0:0:
396,88,130170,1,0,0:0:0:0:
352,332,130315,1,0,0:0:0:0:
224,100,130461,1,0,0:0:0:0:
448,260,130607,1,0,0:0:0:0:
482,236,130679,1,0,0:0:0:0:
496,198,130752,1,0,0:0:0:0:
396,88,130898,1,0,0:0:0:0:
288,224,131043,6,0,P|332:236|384:208,1,90.9999958343508
148,220,131334,2,0,P|88:212|32:236,1,90.9999958343508
336,292,131626,2,0,P|324:344|330:382,1,90.9999958343508
164,144,131917,2,0,P|176:80|160:40,1,90.9999958343508
100,284,132208,6,0,P|172:300|228:212,1,181.999991668702
360,136,132645,1,0,0:0:0:0:
336,292,132791,2,0,L|428:360,1,90.9999958343508
448,112,133082,2,0,L|372:48,1,90.9999958343508
184,160,133373,6,0,L|264:228,1,90.9999958343508
120,312,133664,1,0,0:0:0:0:
64,80,133810,1,0,0:0:0:0:
0,248,133955,1,0,0:0:0:0:
184,160,134101,1,0,0:0:0:0:
268,276,134247,2,0,B|228:224|304:164|236:84,1,181.999991668702
316,72,134829,6,0,B|360:144|360:144|316:204|336:252,1,181.999991668702
412,216,135266,1,0,0:0:0:0:
360,144,135412,2,0,P|308:156|256:128,1,90.9999958343508
96,120,135703,6,0,L|168:192,1,90.9999958343508
28,316,135995,2,0,L|100:244,1,90.9999958343508
356,252,136286,2,0,L|284:324,1,90.9999958343508
161,185,136577,2,0,L|237:261,1,90.9999958343508
320,104,136868,5,0,0:0:0:0:
472,220,137014,1,0,0:0:0:0:
392,76,137160,2,0,P|388:140|368:168,1,90.9999958343508
288,196,137451,2,0,P|276:244|348:344,2,181.999991668702
164,84,138179,5,0,0:0:0:0:
88,248,138325,2,0,P|20:208|8:168,1,90.9999958343508
288,196,138616,1,0,0:0:0:0:
188,352,138761,1,0,0:0:0:0:
352,240,138907,6,0,P|368:192|344:140,1,90.9999958343508
112,28,139198,2,0,P|92:76|104:132,1,90.9999958343508
184,244,139489,1,0,0:0:0:0:
8,176,139635,1,0,0:0:0:0:
40,356,139781,5,0,0:0:0:0:
260,216,139926,1,0,0:0:0:0:
262,262,140000,1,0,0:0:0:0:
240,300,140072,2,0,P|204:324|144:312,1,90.9999958343508
208,160,140363,6,0,P|264:140|300:152,1,90.9999958343508
432,296,140655,2,0,L|368:360,1,90.9999958343508
408,164,140946,2,0,L|488:84,1,90.9999958343508
240,300,141237,2,0,P|200:328|92:260,1,181.999991668702
168,108,141820,6,0,L|248:52,1,90.9999958343508
248,196,142111,2,0,L|156:260,1,90.9999958343508
328,136,142402,2,0,L|384:220,1,90.9999958343508
104,152,142694,2,0,L|40:64,1,90.9999958343508
100,288,142985,5,0,0:0:0:0:
243,56,143130,1,0,0:0:0:0:
216,324,143276,1,0,0:0:0:0:
104,152,143421,1,0,0:0:0:0:
312,200,143567,2,0,B|344:224|340:244|340:244|364:240|400:272|400:292|400:292|420:296|424:344,1,181.999991668702
236,232,144150,6,0,B|200:72|392:148|384:24,1,272.999987503052
384,39,144732,1,0,0:0:0:0:
160,204,144878,1,0,0:0:0:0:
160,204,145024,6,0,P|126:175|81:174,1,90.9999958343508
304,200,145315,1,0,0:0:0:0:
136,52,145461,1,0,0:0:0:0:
76,296,145606,1,0,0:0:0:0:
248,120,145752,1,0,0:0:0:0:
76,144,145898,1,0,0:0:0:0:
224,300,146043,1,0,0:0:0:0:
68,264,146188,5,0,0:0:0:0:
204,92,146334,1,0,0:0:0:0:
32,144,146480,2,0,L|192:248,1,181.999991668702
272,80,146917,1,0,0:0:0:0:
392,268,147062,5,0,0:0:0:0:
408,128,147208,1,0,0:0:0:0:
240,156,147354,6,0,P|192:108|192:60,1,90.9999958343508
440,204,147645,2,0,P|472:264|456:316,1,90.9999958343508
276,248,147936,2,0,P|232:276|184:268,1,90.9999958343508
344,88,148228,2,0,P|384:56|448:64,1,90.9999958343508
384,304,148519,5,0,0:0:0:0:
272,80,148664,1,0,0:0:0:0:
200,340,148810,1,0,0:0:0:0:
344,176,148955,1,0,0:0:0:0:
128,128,149101,5,0,0:0:0:0:
293,296,149247,1,0,0:0:0:0:
338,306,149319,1,0,0:0:0:0:
383,315,149392,1,0,0:0:0:0:
256,120,149539,1,0,0:0:0:0:
256,120,149684,1,0,0:0:0:0:
148,128,159005,6,0,P|104:116|54:128,1,90.9999958343508
16,244,159296,2,0,L|68:335,1,90.9999958343508
200,360,159587,2,0,L|152:266,1,90.9999958343508
276,120,159878,5,0,0:0:0:0:
332,324,160023,1,0,0:0:0:0:
96,152,160169,1,0,0:0:0:0:
348,176,160315,1,0,0:0:0:0:
162,286,160460,1,0,0:0:0:0:
192,56,160606,1,0,0:0:0:0:
408,120,160752,6,0,P|433:184|408:224,1,90.9999958343508
144,208,161043,1,0,0:0:0:0:
408,300,161189,1,0,0:0:0:0:
292,84,161335,1,0,0:0:0:0:
240,304,161480,1,0,0:0:0:0:
368,168,161626,1,0,0:0:0:0:
176,188,161772,1,0,0:0:0:0:
188,288,161917,6,0,P|239:336|288:344,1,90.9999958343508
264,236,162208,2,0,P|316:244|368:216,1,90.9999958343508
260,140,162499,2,0,P|296:112|306:58,1,90.9999958343508
220,68,162790,2,0,P|160:80|128:180,1,167.999994873047
356,184,163373,5,0,0:0:0:0:
492,296,163519,1,0,0:0:0:0:
332,304,163665,1,0,0:0:0:0:
452,112,163810,1,0,0:0:0:0:
235,214,163956,6,0,P|238:157|279:130,1,90.9999958343508
332,304,164247,1,0,0:0:0:0:
452,112,164393,1,0,0:0:0:0:
224,300,164538,1,0,0:0:0:0:
168,144,164684,6,0,L|188:52,1,90.9999958343508
88,272,164975,1,0,0:0:0:0:
248,100,165121,1,0,0:0:0:0:
224,300,165267,1,0,0:0:0:0:
344,124,165412,1,0,0:0:0:0:
312,312,165558,1,0,0:0:0:0:
428,160,165704,1,0,0:0:0:0:
412,312,165849,1,0,0:0:0:0:
488,272,165995,5,0,0:0:0:0:
480,228,166067,1,0,0:0:0:0:
468,184,166140,1,0,0:0:0:0:
448,140,166214,1,0,0:0:0:0:
424,100,166286,5,0,0:0:0:0:
400,60,166359,1,0,0:0:0:0:
356,44,166432,1,0,0:0:0:0:
312,40,166505,1,0,0:0:0:0:
268,40,166578,5,0,0:0:0:0:
224,44,166651,1,0,0:0:0:0:
180,48,166723,1,0,0:0:0:0:
136,60,166796,1,0,0:0:0:0:
96,80,166869,5,0,0:0:0:0:
60,108,166941,1,0,0:0:0:0:
36,144,167014,1,0,0:0:0:0:
32,188,167087,1,0,0:0:0:0:
40,232,167160,1,0,0:0:0:0:
124,268,167306,5,0,0:0:0:0:
156,236,167379,1,0,0:0:0:0:
172,196,167451,1,0,0:0:0:0:
376,204,167597,1,0,0:0:0:0:
68,136,167742,1,0,0:0:0:0:
376,204,168034,1,0,0:0:0:0:
224,224,168325,6,0,P|180:236|128:208,1,90.9999958343508
364,220,168616,2,0,P|424:212|480:236,1,90.9999958343508
176,292,168907,2,0,P|188:344|184:380,1,90.9999958343508
348,144,169199,2,0,P|336:80|352:40,1,90.9999958343508
412,284,169490,6,0,P|340:300|284:212,1,181.999991668702
152,136,169927,1,0,0:0:0:0:
176,292,170072,2,0,L|84:360,1,90.9999958343508
64,112,170364,2,0,L|140:48,1,90.9999958343508
328,160,170655,6,0,L|248:228,1,90.9999958343508
392,312,170946,1,0,0:0:0:0:
448,80,171092,1,0,0:0:0:0:
512,248,171237,1,0,0:0:0:0:
328,160,171383,1,0,0:0:0:0:
244,276,171529,2,0,B|284:224|208:164|276:84,1,181.999991668702
196,72,172111,6,0,B|152:144|152:144|196:204|176:252,1,181.999991668702
100,216,172548,1,0,0:0:0:0:
152,144,172694,2,0,P|204:156|258:121,1,90.9999958343508
416,120,172985,6,0,L|344:192,1,90.9999958343508
484,316,173276,2,0,L|412:244,1,90.9999958343508
156,252,173568,2,0,L|228:324,1,90.9999958343508
351,185,173859,2,0,L|275:261,1,90.9999958343508
192,104,174150,5,0,0:0:0:0:
40,220,174296,1,0,0:0:0:0:
120,76,174441,2,0,P|124:140|144:168,1,90.9999958343508
224,196,174733,2,0,P|236:244|164:344,2,181.999991668702
348,84,175461,5,0,0:0:0:0:
424,248,175606,2,0,P|492:208|504:168,1,90.9999958343508
224,196,175898,1,0,0:0:0:0:
324,352,176043,1,0,0:0:0:0:
160,240,176189,6,0,P|144:192|168:140,1,90.9999958343508
400,28,176480,2,0,P|420:76|408:132,1,90.9999958343508
328,244,176771,1,0,0:0:0:0:
504,176,176917,1,0,0:0:0:0:
472,356,177063,5,0,0:0:0:0:
252,216,177208,1,0,0:0:0:0:
250,262,177280,1,0,0:0:0:0:
272,300,177354,2,0,P|308:324|368:312,1,90.9999958343508
304,160,177645,6,0,P|248:140|212:152,1,90.9999958343508
80,296,177936,2,0,L|144:360,1,90.9999958343508
104,164,178228,2,0,L|24:84,1,90.9999958343508
272,300,178519,2,0,P|312:328|420:260,1,181.999991668702
344,108,179101,6,0,L|264:52,1,90.9999958343508
264,196,179393,2,0,L|356:260,1,90.9999958343508
184,136,179684,2,0,L|128:220,1,90.9999958343508
408,152,179975,2,0,L|472:64,1,90.9999958343508
412,288,180267,5,0,0:0:0:0:
269,56,180412,1,0,0:0:0:0:
296,324,180558,1,0,0:0:0:0:
408,152,180703,1,0,0:0:0:0:
200,200,180849,2,0,B|168:224|172:244|172:244|148:240|112:272|112:292|112:292|92:296|88:344,1,181.999991668702
276,232,181432,6,0,B|312:72|120:148|128:24,1,272.999987503052
128,39,182014,1,0,0:0:0:0:
352,204,182160,1,0,0:0:0:0:
352,204,182305,6,0,P|348:276|320:304,1,90.9999958343508
480,88,182597,1,0,0:0:0:0:
320,88,182742,1,0,0:0:0:0:
480,312,182888,1,0,0:0:0:0:
324,312,183034,1,0,0:0:0:0:
213,186,183179,2,0,P|247:157|292:156,1,90.9999958343508
392,340,183470,5,0,0:0:0:0:
323,88,183616,1,0,0:0:0:0:
480,144,183762,2,0,L|320:248,1,181.999991668702
240,80,184199,1,0,0:0:0:0:
120,268,184344,5,0,0:0:0:0:
104,128,184490,1,0,0:0:0:0:
272,156,184635,6,0,P|320:108|320:60,1,90.9999958343508
72,204,184927,2,0,P|40:264|56:316,1,90.9999958343508
236,248,185218,2,0,P|280:276|328:268,1,90.9999958343508
168,88,185509,2,0,P|128:56|64:64,1,90.9999958343508
128,304,185801,5,0,0:0:0:0:
240,80,185946,1,0,0:0:0:0:
312,340,186092,1,0,0:0:0:0:
168,176,186237,1,0,0:0:0:0:
384,128,186383,5,0,0:0:0:0:
219,296,186529,1,0,0:0:0:0:
174,306,186601,1,0,0:0:0:0:
129,315,186674,1,0,0:0:0:0:
256,120,186820,1,0,0:0:0:0:
256,120,186966,1,0,0:0:0:0:
