osu file format v14

[General]
AudioFilename: audio.mp3
AudioLeadIn: 0
PreviewTime: 66850
Countdown: 0
SampleSet: Soft
StackLeniency: 0.7
Mode: 3
LetterboxInBreaks: 0
SpecialStyle: 0
WidescreenStoryboard: 0

[Editor]
DistanceSpacing: 0.8
BeatDivisor: 4
GridSize: 8
TimelineZoom: 1.2

[Metadata]
Title:Level Zero
TitleUnicode:Level Zero
Artist:I.O.
ArtistUnicode:I.O.
Creator:thenewlimee
Version:Lv . 1
Source:Deemo
Tags:Deemo 2.4, VOEZ
BeatmapID:1205601
BeatmapSetID:568646

[Difficulty]
HPDrainRate:7.5
CircleSize:7
OverallDifficulty:7.5
ApproachRate:5
SliderMultiplier:1.4
SliderTickRate:1

[Events]
//Background and Video events
0,0,"Lv_0.png",0,0
//Break Periods
//Storyboard Layer 0 (Background)
//Storyboard Layer 1 (Fail)
//Storyboard Layer 2 (Pass)
//Storyboard Layer 3 (Foreground)
//Storyboard Sound Samples

[TimingPoints]
410.35331281176,375,3,2,1,40,1,0
43160,389.61038961039,3,2,1,40,1,0
44328,483.870967741935,3,2,1,40,1,0
44804,504.201680672269,3,2,1,40,1,0
45308,652.173913043478,3,2,1,40,1,0
46461,504.201680672269,3,2,1,40,1,0
46965,422.535211267606,3,2,1,40,1,0
47387,344.827586206897,3,2,1,40,1,0
48310,260.869565217391,3,2,1,40,1,0
48310,-133.333333333333,3,2,1,40,0,0
63962,272.727272727273,3,2,1,40,1,0
63962,-125,3,2,1,40,0,0
64371,326.086956521739,3,2,1,40,1,0
66327,352.941176470588,3,2,1,40,1,0
66850,375,3,2,1,40,1,1
66856,-100,3,2,1,40,0,1
76975,-100,3,2,1,40,0,0
98350,428.571428571429,3,2,1,40,1,0
99635,550.45871559633,3,2,1,40,1,0
101286,666.666666666667,3,2,1,40,1,0

[HitObjects]
182,192,410,5,2,0:0:0:0:
475,192,410,1,0,0:0:0:0:
256,192,433,1,2,0:0:0:0:
109,192,972,1,2,0:0:0:0:
182,192,972,1,0,0:0:0:0:
36,192,1160,1,2,0:0:0:0:
329,192,1160,1,0,0:0:0:0:
109,192,1347,1,2,0:0:0:0:
402,192,1347,1,0,0:0:0:0:
36,192,1535,1,2,0:0:0:0:
475,192,1535,1,0,0:0:0:0:
109,192,2097,1,2,0:0:0:0:
475,192,2285,1,0,0:0:0:0:
182,192,2660,1,2,0:0:0:0:
36,192,2660,1,2,0:0:0:0:
256,192,2660,1,0,0:0:0:0:
109,192,3035,1,2,0:0:0:0:
402,192,3222,1,0,0:0:0:0:
182,192,3410,1,2,0:0:0:0:
329,192,3410,1,0,0:0:0:0:
256,192,3597,1,0,0:0:0:0:
329,192,3785,1,0,0:0:0:0:
182,192,3785,1,2,0:0:0:0:
36,192,3785,1,2,0:0:0:0:
109,192,4347,1,2,0:0:0:0:
256,192,4535,1,0,0:0:0:0:
36,192,4910,1,2,0:0:0:0:
109,192,4910,1,2,0:0:0:0:
329,192,4910,1,0,0:0:0:0:
36,192,5285,1,2,0:0:0:0:
109,192,5472,1,2,0:0:0:0:
182,192,5660,1,2,0:0:0:0:
256,192,6035,1,2,0:0:0:0:
329,192,6035,1,0,0:0:0:0:
109,192,6410,1,2,0:0:0:0:
402,192,6785,1,0,0:0:0:0:
36,192,7160,1,2,0:0:0:0:
329,192,7160,1,0,0:0:0:0:
109,192,7160,1,2,0:0:0:0:
256,192,7160,128,0,11660:0:0:0:0:
109,192,8285,1,0,0:0:0:0:
329,192,8308,1,0,0:0:0:0:
36,192,9410,128,0,11660:0:0:0:0:
182,192,9410,1,0,0:0:0:0:
475,192,9433,1,0,0:0:0:0:
109,192,11660,1,0,0:0:0:70:crash.wav
329,192,11660,1,0,0:0:0:70:CrashS.wav
475,192,11660,1,0,0:0:0:0:
182,192,12035,1,0,0:0:0:0:
402,192,12222,1,0,0:0:0:0:
182,192,12410,1,0,0:0:0:0:
329,192,12410,1,0,0:0:0:0:
256,192,12597,1,0,0:0:0:0:
36,192,12785,1,0,0:0:0:0:
329,192,12785,1,0,0:0:0:0:
182,192,13160,1,0,0:0:0:0:
182,192,13535,1,0,0:0:0:0:
109,192,13910,1,0,0:0:0:0:
329,192,13910,1,0,0:0:0:0:
475,192,13910,1,0,0:0:0:0:
182,192,14285,1,0,0:0:0:0:
402,192,14472,1,0,0:0:0:0:
182,192,14660,1,0,0:0:0:0:
329,192,14660,1,0,0:0:0:0:
256,192,14847,1,0,0:0:0:0:
36,192,15035,1,0,0:0:0:0:
329,192,15035,1,0,0:0:0:0:
182,192,15410,1,0,0:0:0:0:
182,192,15785,1,0,0:0:0:0:
402,192,15785,1,0,0:0:0:0:
329,192,16160,1,0,0:0:0:0:
475,192,16160,1,0,0:0:0:0:
109,192,16160,1,0,0:0:0:0:
182,192,16535,1,0,0:0:0:0:
182,192,16910,1,0,0:0:0:0:
36,192,17285,1,0,0:0:0:0:
182,192,17660,1,0,0:0:0:0:
182,192,18035,1,0,0:0:0:0:
109,192,18410,1,0,0:0:0:0:
256,192,18785,1,0,0:0:0:0:
256,192,19160,1,0,0:0:0:0:
402,192,19535,1,0,0:0:0:0:
256,192,19910,1,0,0:0:0:0:
256,192,20285,1,0,0:0:0:0:
36,192,20285,1,0,0:0:0:0:
36,192,20660,1,0,0:0:0:0:
402,192,20660,1,0,0:0:0:0:
182,192,20660,1,0,0:0:0:0:
329,192,21035,1,0,0:0:0:0:
109,192,21222,1,0,0:0:0:0:
329,192,21410,1,0,0:0:0:0:
182,192,21410,1,0,0:0:0:0:
256,192,21597,1,0,0:0:0:0:
475,192,21785,1,0,0:0:0:0:
182,192,21785,1,0,0:0:0:0:
329,192,22160,1,0,0:0:0:0:
329,192,22535,1,0,0:0:0:0:
402,192,22910,1,0,0:0:0:0:
36,192,22910,1,0,0:0:0:0:
182,192,22910,1,0,0:0:0:0:
329,192,23285,1,0,0:0:0:0:
109,192,23472,1,0,0:0:0:0:
329,192,23660,1,0,0:0:0:0:
182,192,23660,1,0,0:0:0:0:
256,192,23847,1,0,0:0:0:0:
475,192,24035,1,0,0:0:0:0:
182,192,24035,1,0,0:0:0:0:
329,192,24410,1,0,0:0:0:0:
109,192,24410,1,0,0:0:0:0:
329,192,24785,1,0,0:0:0:0:
36,192,24785,1,0,0:0:0:0:
402,192,25160,1,0,0:0:0:0:
109,192,25160,1,0,0:0:0:0:
182,192,25160,1,0,0:0:0:0:
329,192,25535,1,0,0:0:0:0:
329,192,25910,1,0,0:0:0:0:
475,192,26285,1,0,0:0:0:0:
36,192,26285,1,0,0:0:0:0:
182,192,26308,1,0,0:0:0:0:
329,192,26660,1,0,0:0:0:0:
329,192,27035,1,0,0:0:0:0:
475,192,27410,128,0,29660:0:0:0:0:
109,192,27410,1,0,0:0:0:0:
256,192,27433,1,0,0:0:0:0:
402,192,27785,128,0,29660:0:0:0:0:
329,192,27972,1,0,0:0:0:0:
256,192,28160,1,0,0:0:0:0:
182,192,28347,1,0,0:0:0:0:
109,192,28535,1,0,0:0:0:0:
36,192,28910,1,0,0:0:0:0:
109,192,29285,1,0,0:0:0:0:
329,192,29660,1,0,0:0:0:0:
182,192,29660,1,0,0:0:0:80:LR_Drum Rpd.wav
36,192,29660,1,0,0:0:0:0:
256,192,29847,1,0,0:0:0:0:
182,192,30035,1,0,0:0:0:80:LR_Drum Rpd.wav
329,192,30035,1,0,0:0:0:0:
109,192,30222,1,0,0:0:0:80:LR_Drum Rpd.wav
256,192,30222,1,0,0:0:0:0:
182,192,30410,1,0,0:0:0:80:LR_Drum Rpd.wav
329,192,30410,1,0,0:0:0:0:
109,192,30597,1,0,0:0:0:80:LR_Drum Rpd.wav
256,192,30597,1,0,0:0:0:0:
329,192,30785,1,0,0:0:0:0:
182,192,30785,1,0,0:0:0:80:LR_Drum Rpd.wav
36,192,30785,1,0,0:0:0:0:
182,192,31160,1,0,0:0:0:80:LR_Drum Rpd.wav
109,192,31160,1,0,0:0:0:80:LR_Drum Rpd.wav
182,192,31535,1,0,0:0:0:80:LR_Drum Rpd.wav
109,192,31722,1,0,0:0:0:80:LR_Drum Rpd.wav
329,192,31910,1,0,0:0:0:80:LR_Drum Rpd.wav
475,192,31910,1,0,0:0:0:0:
182,192,31910,1,0,0:0:0:0:
256,192,32097,1,0,0:0:0:0:
329,192,32285,1,0,0:0:0:80:LR_Drum Rpd.wav
182,192,32285,1,0,0:0:0:0:
402,192,32472,1,0,0:0:0:80:LR_Drum Rpd.wav
109,192,32472,1,0,0:0:0:0:
329,192,32660,1,0,0:0:0:80:LR_Drum Rpd.wav
182,192,32660,1,0,0:0:0:0:
402,192,32847,1,0,0:0:0:80:LR_Drum Rpd.wav
256,192,32847,1,0,0:0:0:0:
182,192,33035,1,0,0:0:0:0:
329,192,33035,1,0,0:0:0:80:LR_Drum Rpd.wav
475,192,33035,1,0,0:0:0:0:
329,192,33410,1,0,0:0:0:80:LR_Drum Rpd.wav
402,192,33504,1,0,0:0:0:80:LR_Drum Rpd.wav
329,192,33597,1,0,0:0:0:80:LR_Drum Rpd.wav
402,192,33691,1,0,0:0:0:80:LR_Drum Rpd.wav
329,192,33785,1,0,0:0:0:80:LR_Drum Rpd.wav
402,192,33972,1,0,0:0:0:80:LR_Drum Rpd.wav
36,192,34160,1,0,0:0:0:0:
182,192,34160,1,0,0:0:0:80:LR_Drum Rpd.wav
329,192,34160,1,0,0:0:0:0:
256,192,34347,1,0,0:0:0:0:
182,192,34535,1,0,0:0:0:80:LR_Drum Rpd.wav
329,192,34535,1,0,0:0:0:0:
109,192,34722,1,0,0:0:0:80:LR_Drum Rpd.wav
256,192,34722,1,0,0:0:0:0:
182,192,34910,1,0,0:0:0:80:LR_Drum Rpd.wav
329,192,34910,1,0,0:0:0:0:
109,192,35097,1,0,0:0:0:80:LR_Drum Rpd.wav
256,192,35097,1,0,0:0:0:0:
329,192,35285,1,0,0:0:0:0:
36,192,35285,1,0,0:0:0:0:
182,192,35285,1,0,0:0:0:80:LR_Drum Rpd.wav
109,192,35660,1,0,0:0:0:80:LR_Drum Rpd.wav
182,192,35660,1,0,0:0:0:80:LR_Drum Rpd.wav
402,192,35660,1,0,0:0:0:0:
182,192,36035,1,0,0:0:0:80:LR_Drum Rpd.wav
475,192,36035,1,0,0:0:0:0:
109,192,36222,1,0,0:0:0:80:LR_Drum Rpd.wav
182,192,36410,1,0,0:0:0:0:
329,192,36410,1,0,0:0:0:80:LR_Drum Rpd.wav
475,192,36410,1,0,0:0:0:0:
402,192,36785,1,0,0:0:0:80:LR_Drum Rpd.wav
329,192,36972,1,0,0:0:0:80:LR_Drum Rpd.wav
402,192,37160,1,0,0:0:0:80:LR_Drum Rpd.wav
329,192,37347,1,0,0:0:0:80:LR_Drum Rpd.wav
475,192,37535,1,0,0:0:0:80:LR_Drum Rpd.wav
256,192,37535,1,0,0:0:0:0:
109,192,37535,1,0,0:0:0:0:
329,192,37910,1,0,0:0:0:80:LR_Drum Rpd.wav
402,192,38004,1,0,0:0:0:80:LR_Drum Rpd.wav
329,192,38097,1,0,0:0:0:80:LR_Drum Rpd.wav
402,192,38191,1,0,0:0:0:80:LR_Drum Rpd.wav
329,192,38285,1,0,0:0:0:80:LR_Drum Rpd.wav
402,192,38472,1,0,0:0:0:80:LR_Drum Rpd.wav
36,192,38660,1,0,0:0:0:0:
182,192,38660,1,0,0:0:0:80:LR_Drum Rpd.wav
329,192,38660,1,0,0:0:0:0:
256,192,38847,1,0,0:0:0:0:
182,192,39035,1,0,0:0:0:80:LR_Drum Rpd.wav
329,192,39035,1,0,0:0:0:0:
109,192,39222,1,0,0:0:0:80:LR_Drum Rpd.wav
256,192,39222,1,0,0:0:0:0:
182,192,39410,1,0,0:0:0:80:LR_Drum Rpd.wav
329,192,39410,1,0,0:0:0:0:
109,192,39597,1,0,0:0:0:80:LR_Drum Rpd.wav
256,192,39597,1,0,0:0:0:0:
329,192,39785,1,0,0:0:0:0:
182,192,39785,1,0,0:0:0:80:LR_Drum Rpd.wav
36,192,39785,1,0,0:0:0:0:
109,192,40160,1,0,0:0:0:80:LR_Drum Rpd.wav
182,192,40160,1,0,0:0:0:80:LR_Drum Rpd.wav
182,192,40535,1,0,0:0:0:80:LR_Drum Rpd.wav
109,192,40722,1,0,0:0:0:80:LR_Drum Rpd.wav
329,192,40910,1,0,0:0:0:80:LR_Drum Rpd.wav
475,192,40910,1,0,0:0:0:0:
182,192,40910,1,0,0:0:0:0:
256,192,41097,1,0,0:0:0:0:
329,192,41285,1,0,0:0:0:80:LR_Drum Rpd.wav
182,192,41285,1,0,0:0:0:0:
402,192,41472,1,0,0:0:0:80:LR_Drum Rpd.wav
109,192,41472,1,0,0:0:0:0:
329,192,41660,1,0,0:0:0:80:LR_Drum Rpd.wav
182,192,41660,1,0,0:0:0:0:
402,192,41847,1,0,0:0:0:80:LR_Drum Rpd.wav
256,192,41847,1,0,0:0:0:0:
182,192,42035,1,0,0:0:0:0:
329,192,42035,1,0,0:0:0:80:LR_Drum Rpd.wav
475,192,42035,1,0,0:0:0:0:
329,192,42410,1,0,0:0:0:80:LR_Drum Rpd.wav
109,192,42410,1,0,0:0:0:0:
402,192,42504,1,0,0:0:0:80:LR_Drum Rpd.wav
329,192,42597,1,0,0:0:0:80:LR_Drum Rpd.wav
402,192,42691,1,0,0:0:0:80:LR_Drum Rpd.wav
329,192,42785,1,0,0:0:0:80:LR_Drum Rpd.wav
36,192,42785,1,0,0:0:0:0:
402,192,42972,1,0,0:0:0:80:LR_Drum Rpd.wav
36,192,43160,1,0,0:0:0:70:crash.wav
182,192,43160,1,2,0:0:0:0:
329,192,43160,1,0,0:0:0:70:crash.wav
109,192,44328,1,0,0:0:0:0:
329,192,44358,1,0,0:0:0:0:
182,192,45960,1,0,0:0:0:0:
475,192,46000,1,0,0:0:0:0:
256,192,47387,128,0,48310:0:0:0:0:
36,192,48310,1,0,0:0:0:0:
329,192,48310,1,0,0:0:0:0:
475,192,48310,1,0,0:0:0:70:BaSS.wav
109,192,48440,1,0,0:0:0:0:
402,192,48570,1,0,0:0:0:70:Sub BaSS.wav
182,192,48570,1,0,0:0:0:0:
109,192,48701,1,0,0:0:0:0:
329,192,48831,1,0,0:0:0:70:Sub BaSS.wav
182,192,48831,1,0,0:0:0:0:
256,192,48962,1,0,0:0:0:0:
329,192,49092,1,0,0:0:0:0:
36,192,49092,1,0,0:0:0:50:Snare.wav
182,192,49092,1,0,0:0:0:8:BaSS.wav
402,192,49223,1,0,0:0:0:0:
475,192,49353,1,0,0:0:0:0:
109,192,49353,1,0,0:0:0:70:Sub BaSS.wav
402,192,49483,1,0,0:0:0:0:
329,192,49614,1,0,0:0:0:0:
182,192,49614,1,0,0:0:0:70:Sub BaSS.wav
256,192,49744,1,0,0:0:0:0:
329,192,49875,1,0,0:0:0:0:
475,192,49875,1,0,0:0:0:70:BaSS.wav
109,192,49875,1,0,0:0:0:0:
36,192,50005,1,0,0:0:0:0:
402,192,50136,1,0,0:0:0:70:Sub BaSS.wav
182,192,50136,1,0,0:0:0:0:
109,192,50266,1,0,0:0:0:0:
475,192,50396,1,0,0:0:0:70:Sub BaSS.wav
256,192,50396,1,0,0:0:0:0:
329,192,50527,1,0,0:0:0:0:
402,192,50592,1,0,0:0:0:0:
36,192,50657,1,0,0:0:0:8:BaSS.wav
182,192,50657,1,0,0:0:0:50:Snare.wav
329,192,50657,1,0,0:0:0:0:
256,192,50788,1,0,0:0:0:0:
109,192,50918,1,0,0:0:0:70:Sub BaSS.wav
329,192,50918,1,0,0:0:0:0:
402,192,51049,1,0,0:0:0:0:
36,192,51179,1,0,0:0:0:50:Snare.wav
329,192,51179,1,0,0:0:0:0:
256,192,51310,1,0,0:0:0:0:
109,192,51440,1,0,0:0:0:0:
329,192,51440,1,0,0:0:0:0:
475,192,51440,1,0,0:0:0:70:BaSS.wav
36,192,51505,1,0,0:0:0:0:
109,192,51570,1,0,0:0:0:0:
182,192,51636,1,0,0:0:0:0:
256,192,51701,1,0,0:0:0:0:
402,192,51701,1,0,0:0:0:70:Sub BaSS.wav
36,192,51766,1,0,0:0:0:0:
109,192,51831,1,0,0:0:0:0:
182,192,51896,1,0,0:0:0:0:
256,192,51962,1,0,0:0:0:0:
329,192,51962,1,0,0:0:0:70:Sub BaSS.wav
109,192,52027,1,0,0:0:0:0:
182,192,52092,1,0,0:0:0:0:
256,192,52157,1,0,0:0:0:0:
182,192,52223,1,0,0:0:0:8:BaSS.wav
36,192,52223,1,0,0:0:0:50:Snare.wav
329,192,52223,1,0,0:0:0:0:
402,192,52353,1,0,0:0:0:0:
109,192,52483,1,0,0:0:0:70:Sub BaSS.wav
475,192,52483,1,0,0:0:0:0:
402,192,52614,1,0,0:0:0:0:
182,192,52744,1,0,0:0:0:70:Sub BaSS.wav
329,192,52744,1,0,0:0:0:0:
256,192,52875,1,0,0:0:0:0:
329,192,53005,1,0,0:0:0:70:BaSS.wav
475,192,53005,1,0,0:0:0:0:
109,192,53005,1,0,0:0:0:0:
36,192,53136,1,0,0:0:0:0:
402,192,53266,1,0,0:0:0:70:Sub BaSS.wav
182,192,53266,1,0,0:0:0:0:
109,192,53396,1,0,0:0:0:0:
475,192,53527,1,0,0:0:0:70:Sub BaSS.wav
256,192,53527,1,0,0:0:0:0:
182,192,53657,1,0,0:0:0:0:
182,192,53788,1,0,0:0:0:50:Snare.wav
36,192,53788,1,0,0:0:0:8:BaSS.wav
329,192,53788,1,0,0:0:0:0:
256,192,53918,1,0,0:0:0:0:
109,192,54049,1,0,0:0:0:0:
182,192,54049,1,0,0:0:0:70:Sub BaSS.wav
402,192,54049,1,0,0:0:0:0:
329,192,54179,1,0,0:0:0:0:
109,192,54309,1,0,0:0:0:50:Snare.wav
182,192,54309,1,0,0:0:0:0:
475,192,54309,1,0,0:0:0:0:
402,192,54440,1,0,0:0:0:0:
329,192,54570,1,0,0:0:0:0:
475,192,54570,1,0,0:0:0:70:BaSS.wav
109,192,54570,1,0,0:0:0:0:
36,192,54701,1,0,0:0:0:0:
402,192,54831,1,0,0:0:0:70:Sub BaSS.wav
182,192,54831,1,0,0:0:0:0:
109,192,54962,1,0,0:0:0:0:
329,192,55092,1,0,0:0:0:70:Sub BaSS.wav
256,192,55092,1,0,0:0:0:0:
182,192,55223,1,0,0:0:0:0:
109,192,55288,1,0,0:0:0:0:
36,192,55353,1,0,0:0:0:8:BaSS.wav
182,192,55353,1,0,0:0:0:50:Snare.wav
256,192,55353,1,0,0:0:0:0:
329,192,55483,1,0,0:0:0:0:
109,192,55614,1,0,0:0:0:70:Sub BaSS.wav
402,192,55614,1,0,0:0:0:0:
329,192,55744,1,0,0:0:0:0:
182,192,55875,1,0,0:0:0:50:Snare.wav
475,192,55875,1,0,0:0:0:0:
402,192,56005,1,0,0:0:0:0:
329,192,56136,1,0,0:0:0:70:BaSS.wav
475,192,56136,1,0,0:0:0:0:
109,192,56136,1,0,0:0:0:0:
36,192,56266,1,0,0:0:0:0:
402,192,56396,1,0,0:0:0:70:Sub BaSS.wav
182,192,56396,1,0,0:0:0:0:
109,192,56527,1,0,0:0:0:0:
475,192,56657,1,0,0:0:0:70:Sub BaSS.wav
329,192,56657,1,0,0:0:0:0:
256,192,56788,1,0,0:0:0:50:Snare.wav
36,192,56918,1,0,0:0:0:8:BaSS.wav
182,192,56918,1,0,0:0:0:50:Snare.wav
402,192,56918,1,0,0:0:0:0:
256,192,57049,1,0,0:0:0:0:
109,192,57179,1,0,0:0:0:70:Sub BaSS.wav
475,192,57179,1,0,0:0:0:0:
329,192,57309,1,0,0:0:0:0:
36,192,57440,1,0,0:0:0:50:Snare.wav
475,192,57440,1,0,0:0:0:0:
402,192,57570,1,0,0:0:0:0:
182,192,57701,1,0,0:0:0:50:BaSS.wav
329,192,57701,1,0,0:0:0:50:A Chord.wav
475,192,57701,1,0,0:0:0:50:A Chord.wav
329,192,57831,1,0,0:0:0:50:A Chord.wav
475,192,57831,1,0,0:0:0:50:A Chord.wav
329,192,57962,1,0,0:0:0:50:A Chord.wav
475,192,57962,1,0,0:0:0:50:A Chord.wav
256,192,58223,1,0,0:0:0:50:Snare.wav
36,192,58483,1,0,0:0:0:50:A Chord.wav
182,192,58483,1,0,0:0:0:50:A Chord.wav
329,192,58483,1,0,0:0:0:50:BaSS.wav
182,192,58614,1,0,0:0:0:50:A Chord.wav
36,192,58614,1,0,0:0:0:50:A Chord.wav
36,192,58744,1,0,0:0:0:50:A Chord.wav
182,192,58744,1,0,0:0:0:50:A Chord.wav
256,192,59005,1,0,0:0:0:50:Snare.wav
475,192,59266,1,0,0:0:0:50:A Chord.wav
182,192,59266,1,0,0:0:0:50:BaSS.wav
329,192,59266,1,0,0:0:0:50:A Chord.wav
475,192,59396,1,0,0:0:0:50:A Chord.wav
329,192,59396,1,0,0:0:0:50:A Chord.wav
329,192,59527,1,0,0:0:0:50:A Chord.wav
475,192,59527,1,0,0:0:0:50:A Chord.wav
109,192,60049,1,0,0:0:0:50:Snare.wav
182,192,60049,1,0,0:0:0:50:BaSS.wav
36,192,60049,1,0,0:0:0:0:
329,192,60309,1,0,0:0:0:50:BaSS.wav
402,192,60309,1,0,0:0:0:50:BaSS.wav
109,192,60570,1,0,0:0:0:50:Snare.wav
182,192,60570,1,0,0:0:0:50:BaSS.wav
329,192,60831,1,0,0:0:0:50:A Chord.wav
475,192,60831,1,0,0:0:0:50:A Chord.wav
36,192,60831,1,0,0:0:0:50:BaSS.wav
329,192,60962,1,0,0:0:0:50:A Chord.wav
475,192,60962,1,0,0:0:0:50:A Chord.wav
475,192,61092,1,0,0:0:0:50:A Chord.wav
329,192,61092,1,0,0:0:0:50:A Chord.wav
256,192,61353,1,0,0:0:0:50:Snare.wav
182,192,61614,1,0,0:0:0:50:A Chord.wav
36,192,61614,1,0,0:0:0:50:A Chord.wav
475,192,61614,1,0,0:0:0:50:BaSS.wav
36,192,61744,1,0,0:0:0:50:A Chord.wav
182,192,61744,1,0,0:0:0:50:A Chord.wav
182,192,61875,1,0,0:0:0:50:A Chord.wav
36,192,61875,1,0,0:0:0:50:A Chord.wav
256,192,62136,1,0,0:0:0:50:Snare.wav
329,192,62396,1,0,0:0:0:50:A Chord.wav
475,192,62396,1,0,0:0:0:50:A Chord.wav
36,192,62396,1,0,0:0:0:50:BaSS.wav
475,192,62527,1,0,0:0:0:50:A Chord.wav
329,192,62527,1,0,0:0:0:50:A Chord.wav
329,192,62657,1,0,0:0:0:50:A Chord.wav
475,192,62657,1,0,0:0:0:50:A Chord.wav
256,192,62918,1,0,0:0:0:50:BaSS.wav
182,192,63179,1,0,0:0:0:50:crash.wav
36,192,63179,1,0,0:0:0:50:CrashS.wav
329,192,63179,1,0,0:0:0:50:A Chord.wav
109,192,63309,1,2,0:0:0:0:
182,192,63440,1,2,0:0:0:0:
109,192,63570,1,2,0:0:0:0:
182,192,63701,1,2,0:0:0:0:
256,192,63831,1,2,0:0:0:0:
182,192,63962,1,2,0:0:0:0:
256,192,64098,1,2,0:0:0:0:
329,192,64234,1,2,0:0:0:0:
256,192,64371,1,2,0:0:0:0:
329,192,64534,1,2,0:0:0:0:
402,192,64697,1,2,0:0:0:0:
329,192,64860,1,2,0:0:0:0:
402,192,65023,1,2,0:0:0:0:
475,192,65186,1,2,0:0:0:0:
36,192,65349,1,2,0:0:0:0:
182,192,65512,1,2,0:0:0:0:
329,192,65675,1,2,0:0:0:0:
109,192,65838,1,2,0:0:0:0:
256,192,66001,1,2,0:0:0:0:
402,192,66164,1,2,0:0:0:0:
182,192,66327,1,2,0:0:0:0:
329,192,66503,1,2,0:0:0:0:
475,192,66679,1,2,0:0:0:0:
329,192,66850,1,0,0:0:0:50:CrashS.wav
475,192,66850,1,0,0:0:0:0:
109,192,66850,1,0,0:0:0:50:crash.wav
182,192,67225,1,0,0:0:0:0:
402,192,67412,1,0,0:0:0:0:
182,192,67600,1,0,0:0:0:0:
329,192,67600,1,0,0:0:0:0:
256,192,67787,1,0,0:0:0:0:
36,192,67975,1,0,0:0:0:0:
329,192,67975,1,0,0:0:0:0:
182,192,68350,1,0,0:0:0:0:
182,192,68725,1,0,0:0:0:0:
109,192,69100,1,0,0:0:0:0:
329,192,69100,1,0,0:0:0:0:
475,192,69100,1,0,0:0:0:0:
182,192,69475,1,0,0:0:0:0:
402,192,69662,1,0,0:0:0:0:
182,192,69850,1,0,0:0:0:0:
329,192,69850,1,0,0:0:0:0:
256,192,70037,1,0,0:0:0:0:
36,192,70225,1,0,0:0:0:0:
329,192,70225,1,0,0:0:0:0:
182,192,70600,1,0,0:0:0:0:
182,192,70975,1,0,0:0:0:0:
402,192,70975,1,0,0:0:0:0:
329,192,71350,1,0,0:0:0:0:
475,192,71350,1,0,0:0:0:0:
109,192,71350,1,0,0:0:0:0:
182,192,71725,1,0,0:0:0:0:
182,192,72100,1,0,0:0:0:0:
36,192,72475,1,0,0:0:0:0:
182,192,72850,1,0,0:0:0:0:
182,192,73225,1,0,0:0:0:0:
109,192,73600,1,0,0:0:0:0:
256,192,73975,1,0,0:0:0:0:
256,192,74350,1,0,0:0:0:0:
402,192,74725,1,0,0:0:0:0:
256,192,75100,1,0,0:0:0:0:
256,192,75475,1,0,0:0:0:0:
36,192,75475,1,0,0:0:0:0:
36,192,75850,1,0,0:0:0:0:
182,192,75850,1,0,0:0:0:0:
402,192,75850,1,0,0:0:0:0:
329,192,76225,1,0,0:0:0:0:
109,192,76412,1,0,0:0:0:0:
329,192,76600,1,0,0:0:0:0:
182,192,76600,1,0,0:0:0:0:
256,192,76787,1,0,0:0:0:0:
475,192,76975,1,0,0:0:0:0:
182,192,76975,1,0,0:0:0:0:
329,192,77350,1,0,0:0:0:0:
329,192,77725,1,0,0:0:0:0:
402,192,78100,1,0,0:0:0:0:
36,192,78100,1,0,0:0:0:0:
182,192,78100,1,0,0:0:0:0:
329,192,78475,1,0,0:0:0:0:
109,192,78662,1,0,0:0:0:0:
329,192,78850,1,0,0:0:0:0:
182,192,78850,1,0,0:0:0:0:
256,192,79037,1,0,0:0:0:0:
182,192,79225,1,0,0:0:0:0:
475,192,79225,1,0,0:0:0:0:
109,192,79600,1,0,0:0:0:0:
329,192,79600,1,0,0:0:0:0:
36,192,79975,1,0,0:0:0:0:
329,192,79975,1,0,0:0:0:0:
402,192,80350,1,0,0:0:0:0:
109,192,80350,1,0,0:0:0:0:
182,192,80350,1,0,0:0:0:0:
329,192,80725,1,0,0:0:0:0:
329,192,81100,1,0,0:0:0:0:
475,192,81475,1,0,0:0:0:0:
329,192,81850,1,0,0:0:0:0:
256,192,82037,1,0,0:0:0:0:
329,192,82225,1,0,0:0:0:0:
182,192,82225,1,0,0:0:0:0:
109,192,82412,1,0,0:0:0:0:
182,192,82600,1,0,0:0:0:0:
36,192,82600,1,0,0:0:0:0:
475,192,82600,128,0,84850:0:0:0:0:
402,192,82975,128,0,84850:0:0:0:0:
329,192,83162,1,0,0:0:0:0:
256,192,83350,1,0,0:0:0:0:
182,192,83537,1,0,0:0:0:0:
109,192,83725,1,0,0:0:0:0:
182,192,84287,1,0,0:0:0:0:
256,192,84475,1,0,0:0:0:0:
182,192,84850,1,0,0:0:0:0:
36,192,84850,1,0,0:0:0:0:
329,192,84850,1,0,0:0:0:0:
256,192,85037,1,0,0:0:0:0:
182,192,85225,1,0,0:0:0:80:LR_Drum Rpd.wav
329,192,85225,1,0,0:0:0:0:
109,192,85412,1,0,0:0:0:80:LR_Drum Rpd.wav
256,192,85412,1,0,0:0:0:0:
182,192,85600,1,0,0:0:0:80:LR_Drum Rpd.wav
329,192,85600,1,0,0:0:0:0:
109,192,85787,1,0,0:0:0:80:LR_Drum Rpd.wav
256,192,85787,1,0,0:0:0:0:
329,192,85975,1,0,0:0:0:0:
182,192,85975,1,0,0:0:0:80:LR_Drum Rpd.wav
36,192,85975,1,0,0:0:0:0:
109,192,86350,1,0,0:0:0:80:LR_Drum Rpd.wav
182,192,86350,1,0,0:0:0:80:LR_Drum Rpd.wav
182,192,86725,1,0,0:0:0:80:LR_Drum Rpd.wav
109,192,86912,1,0,0:0:0:80:LR_Drum Rpd.wav
329,192,87100,1,0,0:0:0:80:LR_Drum Rpd.wav
475,192,87100,1,0,0:0:0:0:
182,192,87100,1,0,0:0:0:0:
256,192,87287,1,0,0:0:0:0:
329,192,87475,1,0,0:0:0:80:LR_Drum Rpd.wav
182,192,87475,1,0,0:0:0:0:
402,192,87662,1,0,0:0:0:80:LR_Drum Rpd.wav
109,192,87662,1,0,0:0:0:0:
329,192,87850,1,0,0:0:0:80:LR_Drum Rpd.wav
182,192,87850,1,0,0:0:0:0:
402,192,88037,1,0,0:0:0:80:LR_Drum Rpd.wav
256,192,88037,1,0,0:0:0:0:
182,192,88225,1,0,0:0:0:0:
329,192,88225,1,0,0:0:0:80:LR_Drum Rpd.wav
475,192,88225,1,0,0:0:0:0:
329,192,88600,1,0,0:0:0:80:LR_Drum Rpd.wav
402,192,88693,1,0,0:0:0:80:LR_Drum Rpd.wav
329,192,88787,1,0,0:0:0:80:LR_Drum Rpd.wav
402,192,88881,1,0,0:0:0:80:LR_Drum Rpd.wav
329,192,88975,1,0,0:0:0:80:LR_Drum Rpd.wav
402,192,89162,1,0,0:0:0:80:LR_Drum Rpd.wav
36,192,89350,1,0,0:0:0:0:
182,192,89350,1,0,0:0:0:80:LR_Drum Rpd.wav
329,192,89350,1,0,0:0:0:0:
256,192,89537,1,0,0:0:0:0:
182,192,89725,1,0,0:0:0:80:LR_Drum Rpd.wav
329,192,89725,1,0,0:0:0:0:
109,192,89912,1,0,0:0:0:80:LR_Drum Rpd.wav
256,192,89912,1,0,0:0:0:0:
182,192,90100,1,0,0:0:0:80:LR_Drum Rpd.wav
329,192,90100,1,0,0:0:0:0:
109,192,90287,1,0,0:0:0:80:LR_Drum Rpd.wav
256,192,90287,1,0,0:0:0:0:
36,192,90475,1,0,0:0:0:0:
182,192,90475,1,0,0:0:0:80:LR_Drum Rpd.wav
329,192,90475,1,0,0:0:0:0:
109,192,90850,1,0,0:0:0:80:LR_Drum Rpd.wav
182,192,90850,1,0,0:0:0:80:LR_Drum Rpd.wav
402,192,90850,1,0,0:0:0:0:
182,192,91225,1,0,0:0:0:80:LR_Drum Rpd.wav
475,192,91225,1,0,0:0:0:0:
109,192,91412,1,0,0:0:0:80:LR_Drum Rpd.wav
329,192,91600,1,0,0:0:0:80:LR_Drum Rpd.wav
475,192,91600,1,0,0:0:0:0:
182,192,91600,1,0,0:0:0:0:
402,192,91975,1,0,0:0:0:80:LR_Drum Rpd.wav
329,192,92162,1,0,0:0:0:80:LR_Drum Rpd.wav
402,192,92350,1,0,0:0:0:80:LR_Drum Rpd.wav
329,192,92537,1,0,0:0:0:80:LR_Drum Rpd.wav
475,192,92725,1,0,0:0:0:0:
109,192,92725,1,0,0:0:0:0:
329,192,93100,1,0,0:0:0:80:LR_Drum Rpd.wav
402,192,93193,1,0,0:0:0:80:LR_Drum Rpd.wav
329,192,93287,1,0,0:0:0:80:LR_Drum Rpd.wav
402,192,93381,1,0,0:0:0:80:LR_Drum Rpd.wav
329,192,93475,1,0,0:0:0:80:LR_Drum Rpd.wav
402,192,93662,1,0,0:0:0:80:LR_Drum Rpd.wav
36,192,93850,1,0,0:0:0:0:
182,192,93850,1,0,0:0:0:80:LR_Drum Rpd.wav
329,192,93850,1,0,0:0:0:0:
256,192,94037,1,0,0:0:0:0:
182,192,94225,1,0,0:0:0:80:LR_Drum Rpd.wav
329,192,94225,1,0,0:0:0:0:
109,192,94412,1,0,0:0:0:80:LR_Drum Rpd.wav
256,192,94412,1,0,0:0:0:0:
182,192,94600,1,0,0:0:0:80:LR_Drum Rpd.wav
329,192,94600,1,0,0:0:0:0:
109,192,94787,1,0,0:0:0:80:LR_Drum Rpd.wav
256,192,94787,1,0,0:0:0:0:
36,192,94975,1,0,0:0:0:0:
182,192,94975,1,0,0:0:0:80:LR_Drum Rpd.wav
329,192,94975,1,0,0:0:0:0:
109,192,95350,1,0,0:0:0:80:LR_Drum Rpd.wav
182,192,95350,1,0,0:0:0:80:LR_Drum Rpd.wav
182,192,95725,1,0,0:0:0:80:LR_Drum Rpd.wav
109,192,95912,1,0,0:0:0:80:LR_Drum Rpd.wav
329,192,96100,1,0,0:0:0:80:LR_Drum Rpd.wav
475,192,96100,1,0,0:0:0:0:
182,192,96100,1,0,0:0:0:0:
256,192,96287,1,0,0:0:0:0:
329,192,96475,1,0,0:0:0:80:LR_Drum Rpd.wav
182,192,96475,1,0,0:0:0:0:
402,192,96662,1,0,0:0:0:80:LR_Drum Rpd.wav
109,192,96662,1,0,0:0:0:0:
329,192,96850,1,0,0:0:0:80:LR_Drum Rpd.wav
182,192,96850,1,0,0:0:0:0:
402,192,97037,1,0,0:0:0:80:LR_Drum Rpd.wav
256,192,97037,1,0,0:0:0:0:
182,192,97225,1,0,0:0:0:0:
329,192,97225,1,0,0:0:0:80:LR_Drum Rpd.wav
475,192,97225,128,0,98350:0:0:0:0:
109,192,97600,1,0,0:0:0:0:
329,192,97600,1,0,0:0:0:80:LR_Drum Rpd.wav
402,192,97693,1,0,0:0:0:80:LR_Drum Rpd.wav
329,192,97787,1,0,0:0:0:80:LR_Drum Rpd.wav
402,192,97881,1,0,0:0:0:80:LR_Drum Rpd.wav
36,192,97975,1,0,0:0:0:0:
329,192,97975,1,0,0:0:0:80:LR_Drum Rpd.wav
402,192,98162,1,0,0:0:0:80:LR_Drum Rpd.wav
36,192,98350,1,0,0:0:0:50:crash.wav
182,192,98350,1,0,0:0:0:0:
329,192,98350,1,0,0:0:0:50:CrashS.wav
109,192,99635,1,2,0:0:0:0:
329,192,99669,1,2,0:0:0:0:
182,192,101286,128,2,105286:0:0:0:0:
475,192,101327,128,2,105286:0:0:0:0:
