osu file format v14

[General]
AudioFilename: audio.mp3
AudioLeadIn: 0
PreviewTime: 0
Countdown: 0
SampleSet: Soft
StackLeniency: 0.3
Mode: 0
LetterboxInBreaks: 0
WidescreenStoryboard: 1

[Editor]
Bookmarks: 29231
DistanceSpacing: 1
BeatDivisor: 4
GridSize: 8
TimelineZoom: 3.799999

[Metadata]
Title:Lv.0
TitleUnicode:Lv.0
Artist:I.O
ArtistUnicode:I.O
Creator:negusver
Version:Insane
Source:VOEZ
Tags:instrumental rhythm game piano carillon
BeatmapID:1545305
BeatmapSetID:732390

[Difficulty]
HPDrainRate:6
CircleSize:4
OverallDifficulty:8
ApproachRate:9
SliderMultiplier:0.999999933242799
SliderTickRate:1

[Events]
//Background and Video events
0,0,"Lv_0.jpg",0,0
//Break Periods
//Storyboard Layer 0 (Background)
//Storyboard Layer 1 (Fail)
//Storyboard Layer 2 (Pass)
//Storyboard Layer 3 (Foreground)
//Storyboard Sound Samples

[TimingPoints]
30,375,3,2,1,35,1,0
30,-111.111111111111,4,2,1,35,0,0
2280,-111.111111111111,3,2,1,35,0,0
7717,-111.111111111111,3,2,1,5,0,0
7905,-133.333333333333,3,2,1,35,0,0
8842,-133.333333333333,3,2,1,5,0,0
9030,-166.666666666667,3,2,1,35,0,0
11092,-166.666666666667,3,2,1,5,0,0
11280,-90.9090909090909,3,2,1,45,0,0
11561,-90.9090909090909,3,2,1,5,0,0
11655,-90.9090909090909,3,2,1,45,0,0
12030,-76.9230769230769,3,2,1,45,0,0
12405,-125,3,2,1,45,0,0
12686,-125,3,2,1,5,0,0
12780,-90.9090909090909,3,2,1,45,0,0
13811,-90.9090909090909,3,2,1,5,0,0
13905,-90.9090909090909,3,2,1,45,0,0
14280,-76.9230769230769,3,2,1,45,0,0
14655,-125,3,2,1,45,0,0
15217,-90.9090909090909,3,2,1,45,0,0
16061,-90.9090909090909,3,2,1,5,0,0
16155,-90.9090909090909,3,2,1,45,0,0
18030,-125,3,2,1,45,0,0
18311,-125,3,2,1,5,0,0
18405,-125,3,2,1,45,0,0
19436,-125,3,2,1,5,0,0
19530,-90.9090909090909,3,2,1,45,0,0
20561,-90.9090909090909,3,2,1,5,0,0
20655,-90.9090909090909,3,2,1,45,0,0
21030,-76.9230769230769,3,2,1,45,0,0
21405,-125,3,2,1,45,0,0
21686,-125,3,2,1,5,0,0
21780,-125,3,2,1,45,0,0
22530,-90.9090909090909,3,2,1,45,0,0
22811,-90.9090909090909,3,2,1,5,0,0
22905,-90.9090909090909,3,2,1,45,0,0
23280,-76.9230769230769,3,2,1,45,0,0
23655,-83.3333333333333,3,2,1,45,0,0
23936,-83.3333333333333,3,2,1,5,0,0
24030,-99.9999999999999,3,2,1,45,0,0
24311,-99.9999999999999,3,2,1,5,0,0
24405,-125,3,2,1,45,0,0
24686,-125,3,2,1,5,0,0
24780,-90.9090909090909,3,2,1,45,0,0
25061,-90.9090909090909,3,2,1,5,0,0
25155,-90.9090909090909,3,2,1,45,0,0
25905,-200,3,2,1,45,0,0
27030,-125,3,2,1,45,0,0
27498,-125,3,2,1,5,0,0
27592,-125,3,2,1,45,0,0
28436,-125,3,2,1,5,0,0
28530,-90.9090909090909,3,2,1,45,0,0
28811,-90.9090909090909,3,2,1,5,0,0
28905,-76.9230769230769,3,2,1,45,0,0
29186,-76.9230769230769,3,2,1,5,0,0
29280,-76.9230769230769,3,2,2,55,0,0
42780,407.055630936228,3,2,1,55,1,0
42805,-100,3,2,1,45,0,0
43492,-100,3,2,1,5,0,0
43594,-100,3,2,1,45,0,0
44001,502.092050209205,3,2,1,38,1,0
44001,-100.0101010101,3,2,1,38,0,0
45005,571.428571428571,3,2,1,38,1,0
45433,-100,3,2,1,5,0,0
45576,-118.647058823529,3,2,1,38,0,0
46147,444.444444444444,3,2,1,38,1,0
46591,413.793103448276,3,2,1,38,1,0
47004,352.941176470588,3,2,1,38,1,0
47356,383.386581469649,3,2,1,38,1,0
47835,-100,3,2,1,5,0,0
47931,260.869565217391,3,2,1,55,1,0
47931,-90.9090909090909,3,2,1,55,0,0
51322,-62.5,3,2,1,55,0,0
51583,-50,3,2,1,55,0,0
51844,-90.9090909090909,3,2,1,55,0,0
57061,-62.5,3,2,1,55,0,0
57322,-90.9090909090909,3,2,1,48,0,0
57387,-90.9090909090909,3,2,1,5,0,0
57452,-90.9090909090909,3,2,1,48,0,0
57517,-90.9090909090909,3,2,1,5,0,0
57583,-90.9090909090909,3,2,1,48,0,0
57648,-90.9090909090909,3,2,1,5,0,0
57844,-90.9090909090909,3,2,1,48,0,0
58170,-90.9090909090909,3,2,1,5,0,0
58235,-90.9090909090909,3,2,1,48,0,0
58300,-90.9090909090909,3,2,1,5,0,0
58365,-90.9090909090909,3,2,1,48,0,0
58952,-90.9090909090909,3,2,1,5,0,0
59017,-90.9090909090909,3,2,1,48,0,0
59083,-90.9090909090909,3,2,1,5,0,0
59148,-90.9090909090909,3,2,1,48,0,0
59213,-90.9090909090909,3,2,1,5,0,0
59278,-90.9090909090909,3,2,1,48,0,0
59670,-66.6666666666667,3,2,1,48,0,0
59887,-66.6666666666667,3,2,1,5,0,0
59930,-90.9090909090909,3,2,1,48,0,0
60517,-90.9090909090909,3,2,1,5,0,0
60583,-90.9090909090909,3,2,1,48,0,0
60648,-90.9090909090909,3,2,1,5,0,0
60713,-90.9090909090909,3,2,1,48,0,0
60778,-90.9090909090909,3,2,1,5,0,0
60974,-90.9090909090909,3,2,1,48,0,0
61300,-90.9090909090909,3,2,1,5,0,0
61365,-90.9090909090909,3,2,1,48,0,0
61430,-90.9090909090909,3,2,1,5,0,0
61496,-90.9090909090909,3,2,1,48,0,0
62083,-90.9090909090909,3,2,1,5,0,0
62148,-90.9090909090909,3,2,1,48,0,0
62213,-90.9090909090909,3,2,1,5,0,0
62278,-90.9090909090909,3,2,1,48,0,0
62344,-90.9090909090909,3,2,1,5,0,0
62409,-90.9090909090909,3,2,1,48,0,0
62800,248.96265560166,3,2,1,48,1,0
62800,-90.9090909090909,3,2,1,48,0,0
62815,-90.9090909090909,3,2,1,42,0,0
62924,270.27027027027,3,2,1,42,1,0
63059,270.27027027027,3,2,1,42,1,0
63059,-90.9090909090909,3,2,1,42,0,0
63464,279.06976744186,3,2,1,42,1,0
63603,289.855072463768,3,2,1,38,1,0
64182,297.029702970297,3,2,1,38,1,0
64479,315.789473684211,3,2,1,35,1,0
64479,-111.111111111111,3,2,1,35,0,0
64794,326.086956521739,3,2,1,35,1,0
64794,-111.111111111111,3,2,1,35,0,0
65120,331.491712707182,3,2,1,35,1,0
65120,-111.111111111111,3,2,1,35,0,0
65452,340.909090909091,3,2,1,32,1,0
65452,-125,3,2,1,32,0,0
65622,350.877192982456,3,2,1,32,1,0
65797,-125,3,2,1,32,0,0
65972,357.142857142857,3,2,1,32,1,0
66150,-125,3,2,1,32,0,0
66329,366.412213740458,3,2,1,32,1,0
66512,375,3,2,1,45,1,0
66512,-90.9090909090909,3,2,1,45,0,0
66793,-90.9090909090909,3,2,1,5,0,0
66887,-90.9090909090909,3,2,1,45,0,0
67262,-76.9230769230769,3,2,1,45,0,0
67637,-125,3,2,1,45,0,0
68012,-90.9090909090909,3,2,1,45,0,0
68387,-125,3,2,1,45,0,0
68668,-125,3,2,1,5,0,0
68762,-90.9090909090909,3,2,1,45,0,0
69043,-90.9090909090909,3,2,1,5,0,0
69137,-90.9090909090909,3,2,1,45,0,0
69512,-76.9230769230769,3,2,1,45,0,0
69887,-90.9090909090909,3,2,1,45,0,0
70262,-111.111111111111,3,2,1,45,0,0
70637,-142.857142857143,3,2,1,45,0,0
70918,-142.857142857143,3,2,1,5,0,0
71012,-90.9090909090909,3,2,1,45,0,0
71293,-90.9090909090909,3,2,1,5,0,0
71387,-90.9090909090909,3,2,1,45,0,0
72137,-125,3,2,1,45,0,0
72418,-125,3,2,1,5,0,0
72512,-90.9090909090909,3,2,1,45,0,0
72887,-125,3,2,1,45,0,0
73168,-125,3,2,1,5,0,0
73262,-90.9090909090909,3,2,1,45,0,0
73543,-90.9090909090909,3,2,1,5,0,0
73637,-90.9090909090909,3,2,1,45,0,0
75137,-125,3,2,1,45,0,0
75418,-90.9090909090909,3,2,1,5,0,0
75512,-90.9090909090909,3,2,1,45,0,0
75793,-90.9090909090909,3,2,1,5,0,0
75887,-90.9090909090909,3,2,1,45,0,0
76262,-76.9230769230769,3,2,1,45,0,0
76637,-125,3,2,1,45,0,0
77012,-90.9090909090909,3,2,1,45,0,0
77387,-125,3,2,1,45,0,0
77668,-125,3,2,1,5,0,0
77762,-90.9090909090909,3,2,1,45,0,0
78043,-90.9090909090909,3,2,1,5,0,0
78137,-90.9090909090909,3,2,1,45,0,0
78512,-76.9230769230769,3,2,1,45,0,0
78887,-83.3333333333333,3,2,1,45,0,0
79168,-83.3333333333333,3,2,1,5,0,0
79262,-100,3,2,1,45,0,0
79543,-100,3,2,1,5,0,0
79637,-125,3,2,1,45,0,0
79918,-125,3,2,1,5,0,0
80012,-90.9090909090909,3,2,1,45,0,0
80293,-90.9090909090909,3,2,1,5,0,0
80387,-90.9090909090909,3,2,1,45,0,0
81137,-200,3,2,1,45,0,0
81699,-153.846153846154,3,2,1,45,0,0
82824,-125,3,2,1,45,0,0
83387,-100,3,2,1,45,0,0
84512,-76.9230769230769,3,2,2,55,0,0
97637,-62.5,3,2,2,55,0,0
97918,-62.5,3,2,2,5,0,0
98012,410.958904109589,3,2,1,55,1,0
98037,-100,3,2,1,42,0,0
99039,-100,3,2,1,5,0,0
99244,560.747663551402,3,2,1,39,1,0
99244,-111.111111111111,3,2,1,39,0,0
100786,-111.111111111111,3,2,1,5,0,0
100926,-294.117647058824,3,2,1,35,0,0
104851,-294.117647058824,3,2,1,5,0,0

[Colours]
Combo1 : 255,0,0
Combo2 : 88,169,86
Combo3 : 139,198,138
Combo4 : 183,70,160
Combo5 : 13,122,255
Combo6 : 91,165,255
Combo7 : 241,148,254

[HitObjects]
193,245,30,6,0,P|138:269|94:267,1,89.9999912452702,2|0,0:0|0:0,0:0:0:0:
201,215,592,1,2,0:0:0:0:
197,230,780,1,2,0:0:0:0:
102,197,967,1,2,0:0:0:0:
91,162,1155,1,2,0:0:0:0:
91,162,1717,1,2,0:0:0:0:
171,135,1905,1,2,0:0:0:0:
281,247,2280,6,0,P|247:225|208:263,1,89.9999912452702,2|0,0:0|0:0,0:0:0:0:
299,357,2842,1,2,0:0:0:0:
308,321,3030,1,2,0:0:0:0:
216,335,3217,1,2,0:0:0:0:
220,349,3405,1,2,0:0:0:0:
220,349,3967,2,0,P|199:338|175:335,1,44.9999956226351,2|2,0:0|0:0,0:0:0:0:
225,360,4530,86,0,P|223:294|231:267,1,89.9999912452702,2|0,0:0|0:0,0:0:0:0:
319,237,5092,2,0,P|297:226|281:208,1,44.9999956226351,2|2,0:0|0:0,0:0:0:0:
332,244,5655,2,0,P|266:239|240:228,1,89.9999912452702,2|2,0:0|0:0,0:0:0:0:
413,229,6405,1,2,0:0:0:0:
258,137,6780,6,0,B|318:98|363:144|367:147|372:151|422:174|480:130,1,224.999978113175,2|0,0:0|0:0,0:0:0:0:
501,204,7905,2,0,P|488:98|413:81,1,187.499994635582,2|0,0:0|0:0,0:0:0:0:
439,3,9030,86,0,B|407:72|343:75|305:36|301:32|207:-7|129:32,1,329.999967899324,2|0,0:0|0:0,0:0:0:0:
82,89,11280,54,0,P|85:135|111:185,1,82.499997010231,6|0,0:0|0:0,0:0:0:0:
113,188,11655,1,8,0:0:0:0:
267,122,11842,1,2,0:0:0:0:
157,118,12030,2,0,P|176:142|205:158,1,64.9999926853184,10|2,0:0|0:0,0:0:0:0:
341,218,12405,2,0,P|306:223|279:242,1,59.9999959945679,2|0,0:0|0:0,0:0:0:0:
266,254,12780,1,8,0:0:0:0:
158,219,13155,1,8,0:0:0:0:
158,219,13530,6,0,P|191:181|237:160,1,82.499997010231,6|0,0:0|0:0,0:0:0:0:
246,166,13905,1,8,0:0:0:0:
147,55,14092,1,2,0:0:0:0:
265,26,14280,2,0,P|244:54|215:71,1,64.9999926853184,10|2,0:0|0:0,0:0:0:0:
358,189,14655,2,0,P|357:139|342:111,1,79.9999946594239,6|0,0:0|0:0,0:0:0:0:
323,103,15217,1,2,0:0:0:0:
376,27,15405,1,2,0:0:0:0:
376,27,15780,86,0,P|314:2|287:4,1,82.499997010231,6|0,0:0|0:0,0:0:0:0:
275,13,16155,1,8,0:0:0:0:
171,49,16530,1,8,0:0:0:0:
23,127,17280,1,8,0:0:0:0:
130,154,17655,1,8,0:0:0:0:
130,154,18030,6,0,P|126:187|135:218,1,59.9999959945679,4|0,0:0|0:0,0:0:0:0:
146,234,18405,1,8,0:0:0:0:
249,197,18780,1,8,0:0:0:0:
249,197,19155,2,0,P|282:187|315:193,1,59.9999959945679,6|0,0:0|0:0,0:0:0:0:
239,208,19530,2,0,P|248:174|242:141,1,54.9999980068207,0|0,0:0|0:0,0:0:0:0:
218,50,19905,1,2,0:0:0:0:
218,50,20280,86,0,P|165:46|116:59,1,82.499997010231,6|0,0:0|0:0,0:0:0:0:
116,67,20655,1,8,0:0:0:0:
64,205,20842,1,2,0:0:0:0:
0,105,21030,2,0,P|44:116|68:147,1,64.9999926853184,10|2,0:0|0:0,0:0:0:0:
141,220,21405,2,0,P|174:229|207:223,1,59.9999959945679,2|0,0:0|0:0,0:0:0:0:
222,213,21780,1,8,0:0:0:0:
320,188,22155,1,8,0:0:0:0:
320,187,22530,6,0,P|304:225|304:266,1,82.499997010231,6|0,0:0|0:0,0:0:0:0:
314,291,22905,1,8,0:0:0:0:
465,329,23092,1,2,0:0:0:0:
379,247,23280,2,0,P|392:276|392:308,1,64.9999926853184,10|2,0:0|0:0,0:0:0:0:
290,323,23655,2,0,P|250:300|206:292,1,89.9999912452701,2|0,0:0|0:0,0:0:0:0:
145,341,24030,2,0,P|179:325|216:322,1,74.9999949932099,10|0,0:0|0:0,0:0:0:0:
275,365,24405,2,0,P|234:346|205:344,1,59.9999959945679,10|0,0:0|0:0,0:0:0:0:
136,378,24780,86,0,P|126:344|90:309,1,82.499997010231,6|0,0:0|0:0,0:0:0:0:
69,303,25155,1,8,0:0:0:0:
137,213,25530,1,8,0:0:0:0:
137,213,25905,2,0,P|163:207|195:205,2,49.9999966621399,2|0|0,0:0|0:0|0:0,0:0:0:0:
267,147,27030,6,0,P|322:153|369:180,1,99.9999933242799,6|0,0:0|0:0,0:0:0:0:
379,191,27592,1,2,0:0:0:0:
346,259,27780,1,2,0:0:0:0:
387,301,27967,1,2,0:0:0:0:
426,295,28155,2,0,P|391:327|384:348,1,59.9999959945679,6|0,0:0|0:0,0:0:0:0:
375,363,28530,2,0,P|341:336|289:325,1,82.499997010231,6|0,0:0|0:0,0:0:0:0:
262,350,28905,2,0,P|198:361|162:353,1,97.4999890279776,6|0,0:0|0:0,0:0:0:0:
152,240,29280,70,0,P|192:258|213:276,1,64.9999926853184,6|2,3:1|0:0,0:0:0:0:
42,301,29655,1,6,1:2:0:0:
83,199,29842,1,6,1:2:0:0:
143,357,30030,1,6,1:2:0:0:
42,275,30217,1,6,1:2:0:0:
252,285,30405,86,0,L|261:349,1,64.9999926853184,2|0,3:1|0:0,0:0:0:0:
213,157,30780,2,0,L|210:135,5,21.6666642284395,0|0|0|0|0|0,3:0|3:0|3:0|3:0|3:0|3:0,0:0:0:0:
202,181,31155,1,4,1:2:0:0:
326,141,31342,1,4,1:2:0:0:
137,52,31530,6,0,P|111:86|101:112,1,64.9999926853184,2|2,3:1|0:0,0:0:0:0:
288,76,31905,1,6,1:2:0:0:
186,118,32092,1,6,1:2:0:0:
355,155,32280,1,6,1:2:0:0:
262,69,32467,1,6,1:2:0:0:
235,265,32655,86,0,L|232:287,5,21.6666642284395,2|0|0|0|0|0,3:1|3:0|3:0|3:0|3:0|3:0,0:0:0:0:
257,249,33030,2,0,P|276:253|304:278,1,32.4999963426592,4|4,1:2|1:2,0:0:0:0:
132,242,33217,2,0,P|146:235|162:232,1,32.4999963426592,4|4,1:2|1:2,0:0:0:0:
269,171,33405,1,4,1:2:0:0:
130,98,33592,1,4,1:2:0:0:
350,103,33780,6,0,P|360:60|356:32,1,64.9999926853184,2|2,3:1|0:0,0:0:0:0:
257,148,34155,1,6,1:2:0:0:
367,181,34342,1,6,1:2:0:0:
341,26,34530,1,6,1:2:0:0:
257,122,34717,1,6,1:2:0:0:
490,135,34905,86,0,L|409:124,1,64.9999926853184,2|0,3:1|0:0,0:0:0:0:
249,239,35280,2,0,L|227:242,5,21.6666642284395,0|0|0|0|0|0,3:0|3:0|3:0|3:0|3:0|3:0,0:0:0:0:
265,220,35655,1,4,1:2:0:0:
327,364,35842,1,4,1:2:0:0:
126,356,36030,6,0,P|159:329|186:320,1,64.9999926853184,2|0,3:1|0:0,0:0:0:0:
351,279,36405,1,6,1:2:0:0:
238,379,36592,1,6,1:2:0:0:
416,324,36780,1,6,1:2:0:0:
271,301,36967,1,6,1:2:0:0:
454,238,37155,86,0,L|476:235,5,21.6666642284395,2|0|0|0|0|0,3:1|3:0|3:0|3:0|3:0|3:0,0:0:0:0:
432,224,37530,2,0,P|411:220|377:221,1,32.4999963426592,4|4,1:2|1:2,0:0:0:0:
327,164,37717,2,0,P|338:151|351:142,1,32.4999963426592,4|4,1:2|1:2,0:0:0:0:
333,262,37905,1,4,1:2:0:0:
452,134,38092,1,4,1:2:0:0:
259,78,38280,6,0,P|301:65|329:67,1,64.9999926853184,2|2,3:1|0:0,0:0:0:0:
239,176,38655,1,6,1:2:0:0:
187,82,38842,1,6,1:2:0:0:
371,146,39030,1,6,1:2:0:0:
250,200,39217,1,6,1:2:0:0:
450,246,39405,86,0,L|461:327,1,64.9999926853184,2|0,3:1|0:0,0:0:0:0:
371,146,39780,2,0,L|368:168,5,21.6666642284395,0|0|0|0|0|0,3:0|3:0|3:0|3:0|3:0|3:0,0:0:0:0:
356,125,40155,1,4,1:2:0:0:
492,161,40342,1,4,1:2:0:0:
384,330,40530,6,0,P|371:300|367:268,1,64.9999926853184,2|2,3:1|0:0,0:0:0:0:
493,187,40905,1,6,1:2:0:0:
446,293,41092,1,6,1:2:0:0:
401,115,41280,1,6,1:2:0:0:
493,214,41467,1,6,1:2:0:0:
292,134,41655,86,0,L|270:131,5,21.6666642284395,2|0|0|0|0|0,3:1|3:0|3:0|3:0|3:0|3:0,0:0:0:0:
318,125,42030,2,0,P|325:106|344:77,1,32.4999963426592,4|4,1:2|1:2,0:0:0:0:
419,189,42217,2,0,P|411:170|406:136,1,32.4999963426592,4|4,1:2|1:2,0:0:0:0:
423,48,42405,1,4,1:2:0:0:
341,221,42592,1,4,1:2:0:0:
512,192,42780,70,0,B|469:215|428:193|427:192|424:190|384:168|342:192,1,174.99998831749,4|0,3:1|0:0,0:0:0:0:
341,221,43594,1,0,0:0:0:0:
265,178,43797,1,0,0:0:0:0:
233,98,44001,6,0,B|210:48|161:33|161:33|134:73|140:128|140:128|100:100|57:116,1,285.215376742047,2|0,0:0|0:0,0:0:0:0:
35,124,45576,2,0,B|-6:148|-5:193|-5:193|23:215|55:208|55:208|41:238|42:267|42:267|80:242|127:254|147:291,1,333.271081915699,2|0,0:0|0:0,0:0:0:0:
165,313,47931,22,0,P|192:304|219:305,1,54.9999980068207,2|2,3:2|0:0,0:0:0:0:
292,238,48191,2,0,P|310:264|317:300,1,54.9999980068207,10|2,0:0|0:0,0:0:0:0:
404,330,48452,2,0,P|414:304|415:277,1,54.9999980068207,10|2,0:0|3:2,0:0:0:0:
330,373,48713,6,0,B|305:361|305:361|267:370,1,54.9999980068207,8|2,2:1|0:0,0:0:0:0:
425,354,48974,2,0,L|460:364,2,27.4999990034103,10|0|2,0:0|0:0|0:0,0:0:0:0:
336,283,49235,1,10,0:0:0:0:
392,187,49365,2,0,L|390:165,2,13.7499995017052,2|0|0,3:2|3:0|3:0,0:0:0:0:
388,204,49496,70,0,L|329:198,1,54.9999980068207,2|2,3:2|0:0,0:0:0:0:
272,123,49757,1,10,0:0:0:0:
337,56,49887,1,2,0:0:0:0:
258,116,50017,1,10,0:0:0:0:
170,61,50148,2,0,L|142:66,1,27.4999990034103,2|2,0:0|0:0,0:0:0:0:
236,30,50278,38,0,B|215:22|215:22|172:27,1,54.9999980068207,8|2,2:1|0:0,0:0:0:0:
57,53,50539,2,0,P|73:81|77:117,1,54.9999980068207,10|2,0:0|0:0,0:0:0:0:
59,201,50800,2,0,L|23:198,1,27.4999990034103,8|8,2:1|2:1,0:0:0:0:
125,166,50931,2,0,L|161:169,1,27.4999990034103,8|8,2:1|2:1,0:0:0:0:
210,221,51061,70,0,P|226:234|253:240,3,27.4999990034103,2|2|2|2,3:2|0:0|3:2|0:0,0:0:0:0:
270,152,51322,2,0,P|277:172|298:190,3,39.999997329712,10|2|2|2,0:0|0:0|0:0|0:0,0:0:0:0:
370,116,51583,2,0,P|362:136|366:163,3,49.9999966621399,10|2|2|2,3:2|0:0|3:2|0:0,0:0:0:0:
486,173,51844,6,0,B|501:165|501:165|443:148,1,54.9999980068207,8|2,2:1|0:0,0:0:0:0:
412,242,52104,2,0,P|431:260|457:271,1,54.9999980068207,10|2,0:0|0:0,0:0:0:0:
439,149,52365,1,10,0:0:0:0:
360,99,52496,1,2,3:2:0:0:
344,99,52561,1,0,3:0:0:0:
330,96,52626,70,0,P|335:67|351:44,1,54.9999980068207,2|2,3:2|0:0,0:0:0:0:
266,158,52887,2,0,P|251:133|228:116,1,54.9999980068207,10|2,0:0|3:2,0:0:0:0:
356,192,53148,2,0,P|378:173|405:166,1,54.9999980068207,10|2,3:2|0:0,0:0:0:0:
252,240,53409,38,0,B|223:235|223:235|234:265,1,54.9999980068207,8|2,2:1|3:2,0:0:0:0:
349,278,53670,2,0,P|372:294|386:319,1,54.9999980068207,2|2,3:1|0:0,0:0:0:0:
252,359,53930,1,2,3:1:0:0:
238,361,53996,1,0,3:0:0:0:
224,361,54061,1,2,3:2:0:0:
210,358,54126,1,0,3:0:0:0:
197,351,54191,70,0,P|168:346|141:353,1,54.9999980068207,2|2,3:2|0:0,0:0:0:0:
73,294,54452,2,0,P|81:267|99:247,1,54.9999980068207,10|2,0:0|0:0,0:0:0:0:
203,236,54713,1,10,0:0:0:0:
142,158,54844,2,0,L|114:163,1,27.4999990034103,2|0,3:2|0:0,0:0:0:0:
208,127,54974,6,0,B|187:119|187:119|144:124,1,54.9999980068207,8|2,2:1|0:0,0:0:0:0:
297,111,55235,2,0,P|284:135|282:162,1,54.9999980068207,10|2,3:2|0:0,0:0:0:0:
359,230,55496,2,0,L|400:220,1,27.4999990034103,8|0,2:1|0:0,0:0:0:0:
386,145,55626,2,0,L|345:156,1,27.4999990034103,8|0,2:1|0:0,0:0:0:0:
470,168,55757,70,0,P|473:140|467:114,1,54.9999980068207,2|2,3:2|0:0,0:0:0:0:
384,59,56017,1,10,3:2:0:0:
478,90,56148,1,2,3:2:0:0:
383,44,56278,1,10,3:2:0:0:
289,77,56409,1,8,2:1:0:0:
288,88,56474,1,8,2:1:0:0:
291,99,56539,38,0,P|279:74|258:57,1,54.9999980068207,8|2,3:1|0:0,0:0:0:0:
147,83,56800,2,0,B|133:78|133:78|181:59,1,54.9999980068207,2|2,3:2|3:2,0:0:0:0:
220,167,57061,2,0,B|204:159|204:159|196:175|179:158|179:158|163:174|148:159|148:159|132:174|115:159|115:159,1,119.999991989136,8|0,1:0|0:0,0:0:0:0:
39,122,57322,70,0,L|-3:94,1,27.4999990034103,0|0,1:0|0:0,0:0:0:0:
39,122,57452,2,0,L|15:83,1,27.4999990034103,0|0,1:0|0:0,0:0:0:0:
39,122,57583,2,0,L|38:82,1,27.4999990034103,0|0,1:0|0:0,0:0:0:0:
39,122,57844,2,0,B|43:145|43:145|39:146|39:146|43:169|43:169|39:170|39:170|42:190|42:190|38:191|38:191|45:214,1,82.499997010231,10|8,0:0|0:0,0:0:0:0:
75,265,58104,86,0,L|86:222,1,27.4999990034103,0|0,1:0|0:0,0:0:0:0:
75,265,58235,2,0,L|105:241,1,27.4999990034103,0|0,1:0|0:0,0:0:0:0:
75,265,58365,2,0,L|137:265,1,54.9999980068207,0|2,1:0|3:2,0:0:0:0:
8,340,58626,2,0,B|38:340|38:340|38:344|38:344|76:344|76:344,1,54.9999980068207,8|2,2:1|0:0,0:0:0:0:
180,357,58887,6,0,L|149:311,1,27.4999990034103,0|0,1:0|0:0,0:0:0:0:
180,357,59017,2,0,L|137:329,1,27.4999990034103,0|0,1:0|0:0,0:0:0:0:
180,357,59148,2,0,L|136:353,1,27.4999990034103,0|0,1:0|0:0,0:0:0:0:
180,357,59278,2,0,L|260:357,2,54.9999980068207,2|2|2,3:2|3:2|3:2,0:0:0:0:
124,286,59670,86,0,B|100:253|100:253|131:255|131:255|132:250|132:250|164:253|164:253|165:250|165:250|189:252,1,124.999996423721,8|0,2:1|0:0,0:0:0:0:
189,229,59930,2,0,L|254:229,1,54.9999980068207,2|2,0:2|3:2,0:0:0:0:
166,152,60191,2,0,B|196:152|196:152|196:156|196:156|234:156|234:156,1,54.9999980068207,8|2,2:1|3:2,0:0:0:0:
320,220,60452,6,0,L|346:231,1,27.4999990034103,0|0,1:0|0:0,0:0:0:0:
320,220,60582,2,0,L|336:250,1,27.4999990034103,0|0,1:0|0:0,0:0:0:0:
320,220,60713,2,0,L|320:259,1,27.4999990034103,0|0,1:0|0:0,0:0:0:0:
320,220,60974,2,0,B|324:197|324:197|320:196|320:196|324:173|324:173|320:172|320:172|323:152|323:152|319:151|319:151|326:128,1,82.499997010231,10|8,0:0|0:0,0:0:0:0:
376,61,61235,86,0,L|346:19,1,27.4999990034103,0|0,1:0|0:0,0:0:0:0:
376,61,61365,2,0,L|336:38,1,27.4999990034103,0|0,1:0|0:0,0:0:0:0:
376,61,61496,2,0,L|320:63,1,54.9999980068207,0|2,1:0|3:2,0:0:0:0:
453,134,61757,2,0,B|423:134|423:134|423:138|423:138|385:138|385:138,1,54.9999980068207,8|2,2:1|0:0,0:0:0:0:
322,195,62017,6,0,L|275:165,1,27.4999990034103,0|0,1:0|0:0,0:0:0:0:
322,195,62147,2,0,L|292:153,1,27.4999990034103,0|0,1:0|0:0,0:0:0:0:
322,195,62278,2,0,L|316:151,1,27.4999990034103,0|0,1:0|0:0,0:0:0:0:
322,195,62409,2,0,L|322:275,2,54.9999980068207,2|4|0,3:2|3:1|3:1,0:0:0:0:
228,147,62800,54,0,P|207:164|189:197,1,54.9999980068207,4|2,1:0|0:0,0:0:0:0:
85,208,63059,2,0,P|91:233|114:267,1,54.9999980068207,2|2,0:0|0:0,0:0:0:0:
254,311,63329,2,0,P|228:288|197:279,1,54.9999980068207,2|2,0:0|0:0,0:0:0:0:
276,142,63603,6,0,P|251:140|227:146,1,49.9999966621399,2|2,0:0|0:0,0:0:0:0:
164,86,63892,2,0,P|147:103|137:126,1,49.9999966621399,2|2,0:0|0:0,0:0:0:0:
215,244,64182,2,0,P|198:224|175:213,1,49.9999966621399,2|2,0:0|0:0,0:0:0:0:
0,150,64479,102,0,P|22:149|44:145,1,44.9999956226351,2|2,0:0|0:0,0:0:0:0:
73,223,64794,2,0,P|90:209|106:192,1,44.9999956226351,2|2,0:0|0:0,0:0:0:0:
154,66,65120,2,0,P|156:88|163:109,1,44.9999956226351,2|2,0:0|0:0,0:0:0:0:
316,171,65452,86,0,P|344:162|364:148,1,39.999997329712,2|2,0:0|0:0,0:0:0:0:
301,99,65797,2,0,P|317:79|323:49,1,39.999997329712,2|2,0:0|0:0,0:0:0:0:
231,145,66150,2,0,P|241:170|239:200,1,39.999997329712,2|2,0:0|0:0,0:0:0:0:
198,315,66512,54,0,P|154:300|112:261,1,82.499997010231,6|0,0:0|0:0,0:0:0:0:
114,255,66887,1,8,0:0:0:0:
3,372,67074,1,2,0:0:0:0:
21,241,67262,2,0,P|31:274|27:306,1,64.9999926853184,10|2,0:0|0:0,0:0:0:0:
113,368,67637,2,0,P|89:361|57:365,1,39.999997329712,2|0,0:0|0:0,0:0:0:0:
102,241,68012,2,0,P|133:226|166:228,1,54.9999980068207,10|0,0:0|0:0,0:0:0:0:
240,258,68387,2,0,P|232:223|241:191,1,59.9999959945679,10|0,0:0|0:0,0:0:0:0:
250,178,68762,6,0,P|296:186|351:174,1,82.499997010231,6|0,0:0|0:0,0:0:0:0:
353,168,69137,1,8,0:0:0:0:
343,327,69324,1,2,0:0:0:0:
427,230,69512,2,0,P|393:238|369:261,1,64.9999926853184,10|2,0:0|0:0,0:0:0:0:
448,368,69887,2,0,P|439:334|447:302,1,54.9999980068207,2|0,0:0|0:0,0:0:0:0:
499,249,70262,2,0,P|512:220|509:191,1,44.9999956226351,2|0,0:0|0:0,0:0:0:0:
435,160,70637,2,0,P|414:131|411:98,1,52.4999948930742,2|0,0:0|0:0,0:0:0:0:
408,89,71012,86,0,P|400:134|359:178,1,82.499997010231,6|0,0:0|0:0,0:0:0:0:
359,181,71387,1,8,0:0:0:0:
261,135,71762,1,8,0:0:0:0:
261,135,72137,2,0,P|226:136|198:154,1,59.9999959945679,2|0,0:0|0:0,0:0:0:0:
253,207,72512,2,0,P|220:197|187:204,1,54.9999980068207,10|0,0:0|0:0,0:0:0:0:
73,262,72887,2,0,P|65:228|42:204,1,59.9999959945679,10|0,0:0|0:0,0:0:0:0:
27,196,73262,6,0,P|76:183|110:160,1,82.499997010231,4|0,0:0|0:0,0:0:0:0:
121,149,73637,1,8,0:0:0:0:
17,72,74012,2,0,P|50:66|82:77,1,54.9999980068207,10|0,0:0|0:0,0:0:0:0:
197,90,74387,2,0,P|165:75|145:49,1,54.9999980068207,6|0,0:0|0:0,0:0:0:0:
248,160,74762,1,0,0:0:0:0:
316,120,74949,1,0,0:0:0:0:
343,51,75137,2,0,P|372:33|405:32,1,59.9999959945679,2|0,0:0|0:0,0:0:0:0:
421,39,75512,86,0,P|404:87|411:129,1,82.499997010231,6|0,0:0|0:0,0:0:0:0:
417,143,75887,1,8,0:0:0:0:
492,283,76074,1,2,0:0:0:0:
512,173,76262,2,0,P|481:189|464:217,1,64.9999926853184,10|2,0:0|0:0,0:0:0:0:
429,357,76637,2,0,P|417:330|395:314,1,39.999997329712,2|0,0:0|0:0,0:0:0:0:
327,265,77012,2,0,P|315:232|321:199,1,54.9999980068207,10|0,0:0|0:0,0:0:0:0:
241,301,77387,2,0,P|209:285|177:287,1,59.9999959945679,10|0,0:0|0:0,0:0:0:0:
194,359,77762,6,0,P|169:333|114:313,1,82.499997010231,6|0,0:0|0:0,0:0:0:0:
102,315,78137,1,8,0:0:0:0:
30,173,78324,1,2,0:0:0:0:
157,216,78512,2,0,P|111:224|78:215,1,64.9999926853184,10|2,0:0|0:0,0:0:0:0:
103,99,78887,2,0,P|143:76|187:68,1,89.9999912452701,2|0,0:0|0:0,0:0:0:0:
248,117,79262,2,0,P|214:101|177:98,1,74.9999949932099,10|0,0:0|0:0,0:0:0:0:
118,141,79637,2,0,P|159:122|188:120,1,59.9999959945679,10|0,0:0|0:0,0:0:0:0:
251,137,80012,86,0,P|270:166|269:214,1,82.499997010231,6|0,0:0|0:0,0:0:0:0:
259,236,80387,1,8,0:0:0:0:
361,292,80762,1,8,0:0:0:0:
361,292,81137,6,0,P|387:286|423:292,1,62.4999958276749,2|0,0:0|0:0,0:0:0:0:
429,307,81699,1,2,0:0:0:0:
377,216,81887,1,2,0:0:0:0:
421,149,82074,1,2,0:0:0:0:
500,140,82262,86,0,P|465:151|416:147,1,81.249990856648,6|0,0:0|0:0,0:0:0:0:
412,133,82824,1,2,0:0:0:0:
323,98,83012,1,2,0:0:0:0:
245,118,83199,1,2,0:0:0:0:
208,181,83387,6,0,P|244:95|209:46,1,149.99998998642,6|0,0:0|0:0,0:0:0:0:
80,15,84137,1,6,0:0:0:0:
80,15,84512,70,0,P|94:66|88:99,1,64.9999926853184,2|2,3:1|0:0,0:0:0:0:
19,184,84887,1,6,1:2:0:0:
1,69,85074,1,6,1:2:0:0:
133,216,85262,1,6,1:2:0:0:
15,159,85449,1,6,1:2:0:0:
217,85,85637,86,0,L|291:96,1,64.9999926853184,2|0,3:1|0:0,0:0:0:0:
119,236,86012,2,0,L|97:239,5,21.6666642284395,0|0|0|0|0|0,3:0|3:0|3:0|3:0|3:0|3:0,0:0:0:0:
137,255,86387,1,4,1:2:0:0:
49,158,86574,1,4,1:2:0:0:
2,358,86762,6,0,P|53:343|86:349,1,64.9999926853184,2|2,3:1|0:0,0:0:0:0:
189,380,87137,1,6,1:2:0:0:
161,267,87324,1,6,1:2:0:0:
310,384,87512,1,6,1:2:0:0:
182,355,87699,1,6,1:2:0:0:
381,287,87887,86,0,L|403:290,5,21.6666642284395,2|0|0|0|0|0,3:1|3:0|3:0|3:0|3:0|3:0,0:0:0:0:
355,292,88262,2,0,P|337:299|315:330,1,32.4999963426592,4|4,1:2|1:2,0:0:0:0:
413,211,88449,2,0,P|428:217|441:228,1,32.4999963426592,4|4,1:2|1:2,0:0:0:0:
316,209,88637,1,4,1:2:0:0:
504,159,88824,1,4,1:2:0:0:
303,77,89012,6,0,P|323:105|333:140,1,64.9999926853184,2|2,3:1|0:0,0:0:0:0:
242,228,89387,1,6,1:2:0:0:
228,112,89574,1,6,1:2:0:0:
113,235,89762,1,6,1:2:0:0:
239,201,89949,1,6,1:2:0:0:
51,319,90137,86,0,L|38:240,1,64.9999926853184,2|0,3:1|0:0,0:0:0:0:
254,350,90512,2,0,L|276:353,5,21.6666642284395,0|0|0|0|0|0,3:0|3:0|3:0|3:0|3:0|3:0,0:0:0:0:
235,368,90887,1,4,1:2:0:0:
304,254,91074,1,4,1:2:0:0:
491,350,91262,6,0,L|426:340,1,64.9999926853184,2|0,3:1|0:0,0:0:0:0:
303,352,91637,1,6,1:2:0:0:
349,222,91824,1,6,1:2:0:0:
419,361,92012,1,6,1:2:0:0:
301,278,92199,1,6,1:2:0:0:
491,177,92387,86,0,L|513:180,5,21.6666642284395,2|0|0|0|0|0,3:1|3:0|3:0|3:0|3:0|3:0,0:0:0:0:
461,187,92762,2,0,P|450:203|450:241,1,32.4999963426592,4|4,1:2|1:2,0:0:0:0:
346,197,92949,2,0,P|342:182|344:166,1,32.4999963426592,4|4,1:2|1:2,0:0:0:0:
388,286,93137,1,4,1:2:0:0:
402,92,93324,1,4,1:2:0:0:
202,175,93512,6,0,P|173:159|141:153,1,64.9999926853184,2|2,3:1|0:0,0:0:0:0:
182,284,93887,1,6,1:2:0:0:
88,213,94074,1,6,1:2:0:0:
92,350,94262,1,6,1:2:0:0:
182,257,94449,1,6,1:2:0:0:
0,141,94637,86,0,L|64:131,1,64.9999926853184,2|0,3:1|0:0,0:0:0:0:
245,188,95012,2,0,L|242:210,5,21.6666642284395,0|0|0|0|0|0,3:0|3:0|3:0|3:0|3:0|3:0,0:0:0:0:
266,173,95387,1,4,1:2:0:0:
160,256,95574,1,4,1:2:0:0:
369,297,95762,6,0,P|340:281|308:275,1,64.9999926853184,2|2,3:1|0:0,0:0:0:0:
200,348,96137,1,6,1:2:0:0:
239,239,96324,1,6,1:2:0:0:
333,380,96512,1,6,1:2:0:0:
212,325,96699,1,6,1:2:0:0:
429,352,96887,86,0,L|451:349,5,21.6666642284395,2|0|0|0|0|0,3:1|3:0|3:0|3:0|3:0|3:0,0:0:0:0:
400,350,97262,2,0,P|400:330|381:298,1,32.4999963426592,4|4,1:2|1:2,0:0:0:0:
286,353,97449,2,0,P|303:344|321:311,1,32.4999963426592,4|4,1:2|1:2,0:0:0:0:
382,196,97637,2,0,P|333:234|264:203,1,119.999991989136,4|0,1:2|0:0,0:0:0:0:
366,247,98012,70,0,B|313:277|252:243|249:241|246:240|184:206|119:241,1,249.9999833107,4|0,3:1|0:0,0:0:0:0:
94,265,99244,6,0,B|122:281|153:293|167:229|213:253|240:283|228:335|214:342|171:368|132:328|148:308,1,247.499975924493,2|0,0:0|0:0,0:0:0:0:
152,244,100926,86,0,P|238:292|155:365,1,237.999985564423,2|0,0:0|0:0,0:0:0:0:
