osu file format v14

[General]
AudioFilename: audio.mp3
AudioLeadIn: 0
PreviewTime: 0
Countdown: 0
SampleSet: Soft
StackLeniency: 0.4
Mode: 0
LetterboxInBreaks: 0
WidescreenStoryboard: 0

[Editor]
Bookmarks: 11231,29231
DistanceSpacing: 1.6
BeatDivisor: 6
GridSize: 4
TimelineZoom: 2.599999

[Metadata]
Title:Lv.0
TitleUnicode:Lv.0
Artist:I.O
ArtistUnicode:I.O
Creator:negusver
Version:Hard
Source:VOEZ
Tags:instrumental rhythm game piano carillon
BeatmapID:1545304
BeatmapSetID:732390

[Difficulty]
HPDrainRate:6
CircleSize:3.5
OverallDifficulty:6
ApproachRate:8
SliderMultiplier:1
SliderTickRate:1

[Events]
//Background and Video events
0,0,"Lv_0.jpg",0,0
//Break Periods
//Storyboard Layer 0 (Background)
//Storyboard Layer 1 (Fail)
//Storyboard Layer 2 (Pass)
//Storyboard Layer 3 (Foreground)
//Storyboard Sound Samples

[TimingPoints]
30,375,3,2,1,35,1,0
30,-111.111111111111,3,2,1,35,0,0
2186,-111.111111111111,3,2,1,5,0,0
2280,-111.111111111111,3,2,1,35,0,0
4436,-111.111111111111,3,2,1,5,0,0
4530,-111.111111111111,3,2,1,35,0,0
7717,-111.111111111111,3,2,1,5,0,0
7905,-142.857142857143,3,2,1,35,0,0
8842,-142.857142857143,3,2,1,5,0,0
9030,-200,3,2,1,35,0,0
11092,-200,3,2,1,5,0,0
11280,-80,3,2,1,35,0,0
15780,-100,3,2,1,45,0,0
20280,-80,3,2,1,45,0,0
27030,-100,3,2,1,45,0,0
29280,-80,3,2,2,55,0,0
42780,407.055630936228,3,2,1,55,1,0
42805,-100,3,2,1,45,0,0
44001,502.092050209205,3,2,1,38,1,0
44001,-147.257142857143,3,2,1,38,0,0
45005,571.428571428571,3,2,1,38,1,0
45576,-155.246153846154,3,2,1,38,0,0
46147,444.444444444444,3,2,1,38,1,0
46591,413.793103448276,3,2,1,38,1,0
47004,352.941176470588,3,2,1,38,1,0
47356,383.386581469649,3,2,1,38,1,0
47739,-100,3,2,1,5,0,0
47931,260.869565217391,3,2,1,55,1,0
47931,-111.111111111111,3,2,1,55,0,0
57322,-111.111111111111,3,2,1,48,0,0
57583,-222.222222222222,3,2,1,48,0,0
59409,-153.846153846154,3,2,1,48,0,0
59670,-111.111111111111,3,2,1,48,0,0
60713,-222.222222222222,3,2,1,48,0,0
62539,-153.846153846154,3,2,1,48,0,0
62800,248.96265560166,3,2,1,48,1,0
62815,-100,3,2,1,42,0,0
62924,270.27027027027,3,2,1,42,1,0
63059,270.27027027027,3,2,1,42,1,0
63464,279.06976744186,3,2,1,42,1,0
63603,289.855072463768,3,2,1,38,1,0
64182,297.029702970297,3,2,1,38,1,0
64479,315.789473684211,3,2,1,35,1,0
64794,326.086956521739,3,2,1,35,1,0
65120,331.491712707182,3,2,1,35,1,0
65452,340.909090909091,3,2,1,32,1,0
65622,350.877192982456,3,2,1,32,1,0
65972,357.142857142857,3,2,1,32,1,0
66329,366.412213740458,3,2,1,32,1,0
66512,375,3,2,1,45,1,0
66512,-80,3,2,1,45,0,0
71012,-100,3,2,1,45,0,0
74668,-100,3,2,1,5,0,0
74762,-80,3,2,1,45,0,0
80012,-100,3,2,1,45,0,0
84512,-80,3,2,2,55,0,0
98012,410.958904109589,3,2,1,55,1,0
98012,-166.666666666667,3,2,1,55,0,0
98037,-166.666666666667,3,2,1,42,0,0
99039,-166.666666666667,3,2,1,5,0,0
99244,560.747663551402,3,2,1,39,1,0
99244,-151.515151515152,3,2,1,39,0,0
100645,-151.515151515152,3,2,1,5,0,0
100926,-256.410256410256,3,2,1,35,0,0
104851,-256.410256410256,3,2,1,5,0,0

[Colours]
Combo1 : 255,0,0
Combo2 : 88,169,86
Combo3 : 139,198,138
Combo4 : 183,70,160
Combo5 : 13,122,255
Combo6 : 91,165,255
Combo7 : 241,148,254

[HitObjects]
304,21,30,6,0,P|270:67|264:101,1,89.9999972534181,2|0,0:0|0:0,0:0:0:0:
335,153,592,2,0,P|349:126|352:100,1,44.999998626709,2|2,0:0|0:0,0:0:0:0:
270,217,967,2,0,P|253:194|246:166,1,44.999998626709,2|2,0:0|0:0,0:0:0:0:
247,178,1717,5,2,0:0:0:0:
174,140,1905,2,0,P|136:146|107:165,1,67.4999979400635,2|0,0:0|0:0,0:0:0:0:
166,219,2280,86,0,P|113:219|64:243,1,89.9999972534181,2|0,0:0|0:0,0:0:0:0:
58,338,2842,2,0,P|71:322|94:307,1,44.999998626709,2|2,0:0|0:0,0:0:0:0:
180,367,3217,2,0,P|157:368|136:375,1,44.999998626709,2|2,0:0|0:0,0:0:0:0:
137,375,3967,5,2,0:0:0:0:
167,290,4155,2,0,P|198:283|249:289,1,67.4999979400635,2|0,0:0|0:0,0:0:0:0:
302,318,4530,86,0,P|286:275|287:211,1,89.9999972534181,2|0,0:0|0:0,0:0:0:0:
343,163,5092,1,2,0:0:0:0:
355,171,5280,1,2,0:0:0:0:
355,171,5655,6,0,P|323:152|252:148,1,89.9999972534181,2|2,0:0|0:0,0:0:0:0:
116,274,6405,1,2,0:0:0:0:
291,220,6780,86,0,B|227:260|181:216|179:214|177:211|134:168|74:199,1,224.999993133545,2|0,0:0|0:0,0:0:0:0:
32,218,7905,2,0,P|76:134|29:77,1,174.999994659424,2|0,0:0|0:0,0:0:0:0:
1,61,9030,6,0,B|103:-7|160:82|166:80|173:80|222:106|252:60,1,275,2|0,0:0|0:0,0:0:0:0:
315,6,11280,38,0,P|297:65|297:128,1,125,6|8,0:0|0:0,0:0:0:0:
367,197,11842,1,2,0:0:0:0:
428,132,12030,2,0,P|400:148|372:184,1,62.5,10|2,0:0|0:0,0:0:0:0:
366,292,12405,2,0,P|306:270|244:266,1,125,2|8,0:0|0:0,0:0:0:0:
71,336,13155,1,8,0:0:0:0:
71,336,13530,6,0,P|46:280|40:217,1,125,6|8,0:0|0:0,0:0:0:0:
95,141,14092,1,2,0:0:0:0:
183,140,14280,2,0,P|153:149|122:148,1,62.5,10|2,0:0|0:0,0:0:0:0:
25,94,14655,1,6,0:0:0:0:
305,93,15217,85,2,0:0:0:0:
321,98,15405,1,2,0:0:0:0:
321,98,15780,6,0,P|294:140|254:174,2,100,6|8|8,0:0|0:0|0:0,0:0:0:0:
368,187,17280,2,0,P|317:183|267:195,1,100,8|8,0:0|0:0,0:0:0:0:
123,254,18030,86,0,P|119:203|130:152,2,100,4|8|8,0:0|0:0|0:0,0:0:0:0:
200,262,19155,2,0,P|176:217|165:169,1,100,6|0,0:0|0:0,0:0:0:0:
160,11,19905,1,2,0:0:0:0:
160,11,20280,6,0,P|125:62|107:123,1,125,6|8,0:0|0:0,0:0:0:0:
114,216,20842,1,2,0:0:0:0:
203,187,21030,2,0,P|171:188|130:208,1,62.5,10|2,0:0|0:0,0:0:0:0:
105,319,21405,2,0,P|166:324|225:348,1,125,2|8,0:0|0:0,0:0:0:0:
352,238,22155,1,8,0:0:0:0:
352,238,22530,86,0,P|377:181|384:117,1,125,6|8,0:0|0:0,0:0:0:0:
366,24,23092,1,2,0:0:0:0:
457,49,23280,2,0,P|424:49|382:33,1,62.5,10|2,0:0|0:0,0:0:0:0:
263,15,23655,2,0,P|202:19|143:43,2,125,2|10|10,0:0|0:0|0:0,0:0:0:0:
242,189,24780,6,0,P|187:158|125:144,1,125,6|8,0:0|0:0,0:0:0:0:
309,122,25530,1,8,0:0:0:0:
183,261,25905,1,2,0:0:0:0:
183,261,27030,86,0,P|228:281|277:288,1,100,6|0,0:0|0:0,0:0:0:0:
402,245,27592,2,0,P|377:244|353:251,1,50,2|2,0:0|0:0,0:0:0:0:
364,374,27967,2,0,P|372:350|387:330,1,50,2|6,0:0|0:0,0:0:0:0:
481,283,28530,1,6,0:0:0:0:
367,168,28905,1,6,0:0:0:0:
152,213,29280,70,0,P|171:188|197:171,1,62.5,6|2,3:1|0:0,0:0:0:0:
271,97,29655,2,0,B|240:88|240:88|209:89,1,62.5,6|6,1:2|1:2,0:0:0:0:
101,124,30030,2,0,B|117:97|117:97|124:67,1,62.5,6|6,1:2|1:2,0:0:0:0:
193,3,30405,1,2,3:1:0:0:
148,217,30780,6,0,L|150:240,4,20.8333333333333,0|0|0|0|0,3:0|3:0|3:0|3:0|3:0,0:0:0:0:
152,213,31155,2,0,B|183:215|183:215|211:227,1,62.5,4|4,1:2|1:2,0:0:0:0:
134,359,31530,86,0,P|153:334|179:317,1,62.5,2|2,3:1|0:0,0:0:0:0:
322,360,31905,2,0,B|303:335|303:335|277:318,1,62.5,6|6,1:2|1:2,0:0:0:0:
291,218,32280,2,0,B|310:243|310:243|336:260,1,62.5,6|6,1:2|1:2,0:0:0:0:
434,310,32655,6,0,L|429:332,4,20.8333333333333,2|0|0|0|0,3:1|3:0|3:0|3:0|3:0,0:0:0:0:
507,267,33030,2,0,L|512:298,3,31.25,4|4|4|4,1:2|1:2|1:2|1:2,0:0:0:0:
498,240,33405,2,0,B|467:229|467:229|437:228,1,62.5,4|4,1:2|1:2,0:0:0:0:
319,187,33780,86,0,P|333:159|356:137,1,62.5,2|2,3:1|0:0,0:0:0:0:
439,93,34155,2,0,B|417:70|417:70|404:41,1,62.5,6|6,1:2|1:2,0:0:0:0:
306,40,34530,2,0,B|284:62|284:62|271:91,1,62.5,6|6,1:2|1:2,0:0:0:0:
239,179,34905,1,2,3:1:0:0:
68,88,35280,6,0,L|45:85,4,20.8333333333333,0|0|0|0|0,3:0|3:0|3:0|3:0|3:0,0:0:0:0:
71,94,35655,2,0,B|66:124|66:124|73:155,1,62.5,4|4,1:2|1:2,0:0:0:0:
124,227,36030,86,0,P|152:214|184:212,1,62.5,2|0,3:1|0:0,0:0:0:0:
254,273,36405,1,6,1:2:0:0:
259,278,36592,1,6,1:2:0:0:
186,337,36780,1,6,1:2:0:0:
181,342,36967,1,6,1:2:0:0:
272,365,37155,6,0,L|298:362,4,20.8333333333333,2|0|0|0|0,3:1|3:0|3:0|3:0|3:0,0:0:0:0:
299,282,37530,2,0,L|350:287,3,31.25,4|4|4|4,1:2|1:2|1:2|1:2,0:0:0:0:
270,279,37905,2,0,B|238:279|238:279|208:289,1,62.5,4|4,1:2|1:2,0:0:0:0:
86,313,38280,86,0,P|77:281|60:256,1,62.5,2|2,3:1|0:0,0:0:0:0:
0,185,38655,2,0,B|26:166|26:166|56:158,1,62.5,6|6,1:2|1:2,0:0:0:0:
169,154,39030,2,0,B|141:137|141:137|121:112,1,62.5,6|6,1:2|1:2,0:0:0:0:
98,22,39405,1,2,3:1:0:0:
288,43,39780,6,0,L|314:40,4,20.8333333333333,0|0|0|0|0,3:0|3:0|3:0|3:0|3:0,0:0:0:0:
283,48,40155,2,0,B|272:76|272:76|271:108,1,62.5,4|4,1:2|1:2,0:0:0:0:
365,159,40530,86,0,P|386:136|414:122,1,62.5,2|2,3:1|0:0,0:0:0:0:
505,213,40905,2,0,B|473:212|473:212|444:201,1,62.5,6|6,1:2|1:2,0:0:0:0:
367,250,41280,2,0,B|396:262|396:262|419:282,1,62.5,6|6,1:2|1:2,0:0:0:0:
504,321,41655,6,0,L|499:346,4,20.8333333333333,2|0|0|0|0,3:1|3:0|3:0|3:0|3:0,0:0:0:0:
418,282,42030,2,0,L|425:313,3,31.25,4|4|4|4,1:2|1:2|1:2|1:2,0:0:0:0:
439,263,42405,2,0,B|445:230|445:230|442:200,1,62.5,4|4,1:2|1:2,0:0:0:0:
370,106,42780,70,0,B|320:80|272:104|270:106|268:107|220:130|171:106,1,200,4|0,3:1|0:0,0:0:0:0:
97,75,43797,1,0,0:0:0:0:
141,1,44001,86,0,P|176:9|205:28,2,67.908421448351,2|0|0,0:0|0:0|0:0,0:0:0:0:
0,43,45576,6,0,B|-24:91|0:139|27:153|32:155|37:158|64:171|88:219|64:267,1,243.749988842011,2|0,0:0|0:0,0:0:0:0:
19,335,47931,22,0,P|41:337|61:347,1,44.999998626709,2|2,3:2|0:0,0:0:0:0:
151,336,48191,2,0,P|142:315|141:293,1,44.999998626709,10|2,0:0|0:0,0:0:0:0:
196,233,48452,1,10,0:0:0:0:
268,270,48583,1,2,3:2:0:0:
343,240,48713,86,0,B|334:219|334:219|332:197,1,44.999998626709,8|2,2:1|0:0,0:0:0:0:
396,147,48974,2,0,L|434:159,2,22.4999993133545,10|0|2,0:0|0:0|0:0,0:0:0:0:
334,93,49235,1,10,0:0:0:0:
391,36,49365,1,2,3:2:0:0:
396,39,49496,6,0,P|414:50|426:68,2,44.999998626709,2|2|10,3:2|0:0|0:0,0:0:0:0:
314,12,49887,1,2,0:0:0:0:
245,54,50017,1,10,0:0:0:0:
165,35,50148,1,2,0:0:0:0:
160,31,50278,86,0,B|137:33|137:33|117:42,1,44.999998626709,8|2,2:1|0:0,0:0:0:0:
45,92,50539,2,0,P|63:103|76:120,1,44.999998626709,10|2,0:0|0:0,0:0:0:0:
100,200,50800,2,0,L|135:195,3,22.4999993133545,8|8|8|8,2:1|2:1|2:1|2:1,0:0:0:0:
97,206,51061,6,0,P|99:238|114:268,1,67.4999979400635,2|2,3:2|0:0,0:0:0:0:
142,299,51322,2,0,P|175:295|206:306,1,67.4999979400635,10|2,0:0|0:0,0:0:0:0:
237,333,51583,2,0,P|270:330|299:314,1,67.4999979400635,10|2,3:2|0:0,0:0:0:0:
331,287,51844,86,0,B|353:282|353:282|375:286,1,44.999998626709,8|2,2:1|0:0,0:0:0:0:
466,304,52104,2,0,P|455:283|452:262,1,44.999998626709,10|2,0:0|0:0,0:0:0:0:
483,187,52365,1,10,0:0:0:0:
435,121,52496,1,2,3:2:0:0:
430,117,52626,6,0,P|407:113|385:118,1,44.999998626709,2|2,3:2|0:0,0:0:0:0:
326,62,52887,2,0,P|311:79|305:100,1,44.999998626709,10|2,0:0|3:2,0:0:0:0:
229,129,53148,2,0,P|237:150|252:166,1,44.999998626709,10|2,3:2|0:0,0:0:0:0:
234,245,53409,86,0,B|212:240|212:240|190:244,1,44.999998626709,8|2,2:1|3:2,0:0:0:0:
104,265,53670,2,0,P|110:243|108:221,1,44.999998626709,2|2,3:1|0:0,0:0:0:0:
47,172,53930,2,0,L|51:142,3,22.4999993133545,2|0|2|0,3:1|3:0|3:2|3:0,0:0:0:0:
42,176,54191,6,0,P|18:172|0:163,1,44.999998626709,2|2,3:2|0:0,0:0:0:0:
0,82,54452,2,0,P|20:71|41:68,1,44.999998626709,10|2,0:0|0:0,0:0:0:0:
123,66,54713,1,10,0:0:0:0:
193,108,54844,1,2,3:2:0:0:
198,112,54974,86,0,B|220:117|220:117|242:113,1,44.999998626709,8|2,2:1|0:0,0:0:0:0:
311,57,55235,2,0,P|316:80|327:98,1,44.999998626709,10|2,3:2|0:0,0:0:0:0:
382,157,55496,1,8,2:1:0:0:
341,227,55626,1,8,2:1:0:0:
262,207,55757,6,0,P|238:207|218:215,1,44.999998626709,2|2,3:2|0:0,0:0:0:0:
216,296,56017,2,0,P|235:308|256:313,1,44.999998626709,10|2,3:2|3:2,0:0:0:0:
337,310,56278,1,10,3:2:0:0:
417,323,56409,1,8,2:1:0:0:
422,326,56539,86,0,B|444:331|444:331|466:327,1,44.999998626709,8|2,3:1|0:0,0:0:0:0:
488,248,56800,2,0,P|465:244|446:233,1,44.999998626709,2|2,3:2|3:2,0:0:0:0:
395,170,57061,1,8,1:0:0:0:
231,161,57322,5,0,1:0:0:0:
222,171,57452,1,0,1:0:0:0:
218,182,57583,2,0,L|215:214,1,22.4999993133545,0|2,1:0|0:0,0:0:0:0:
206,283,57844,2,0,L|203:315,1,22.4999993133545,10|10,0:0|0:0,0:0:0:0:
97,345,58104,85,0,1:0:0:0:
88,335,58234,1,0,1:0:0:0:
84,324,58365,2,0,L|81:292,1,22.4999993133545,0|2,1:0|3:2,0:0:0:0:
72,223,58626,2,0,L|69:191,1,22.4999993133545,8|2,2:1|0:0,0:0:0:0:
170,94,58887,5,0,1:0:0:0:
180,85,59017,1,0,1:0:0:0:
191,81,59148,2,0,L|223:78,1,22.4999993133545,0|2,1:0|3:2,0:0:0:0:
62,95,59409,2,0,L|94:92,1,32.4999985122681,2|2,3:2|3:2,0:0:0:0:
136,178,59670,86,0,B|158:172|158:172|158:176|158:176|193:169|193:169|193:172|193:172|219:167,1,89.9999972534181,8|2,2:1|0:2,0:0:0:0:
297,154,60061,1,2,3:2:0:0:
361,201,60191,2,0,B|383:206|383:206|405:202,1,44.999998626709,8|2,2:1|3:2,0:0:0:0:
484,144,60452,5,0,1:0:0:0:
493,154,60583,1,0,1:0:0:0:
497,165,60713,2,0,L|500:197,1,22.4999993133545,0|2,1:0|0:0,0:0:0:0:
405,201,60974,2,0,L|408:233,1,22.4999993133545,10|10,0:0|0:0,0:0:0:0:
327,279,61235,85,0,1:0:0:0:
318,289,61365,1,0,1:0:0:0:
314,300,61496,2,0,L|311:332,1,22.4999993133545,0|2,1:0|3:2,0:0:0:0:
227,257,61757,2,0,L|224:289,1,22.4999993133545,8|2,2:1|0:0,0:0:0:0:
145,332,62017,5,0,1:0:0:0:
135,323,62147,1,0,1:0:0:0:
124,319,62278,2,0,L|92:316,1,22.4999993133545,0|2,1:0|3:2,0:0:0:0:
67,232,62539,2,0,L|35:229,1,32.4999985122681,4|0,3:1|3:1,0:0:0:0:
98,128,62800,54,0,P|108:150|125:168,1,50,4|2,1:0|0:0,0:0:0:0:
196,97,63059,2,0,P|193:121|199:146,1,50,2|2,0:0|0:0,0:0:0:0:
299,113,63329,2,0,P|284:133|277:157,1,50,2|2,0:0|0:0,0:0:0:0:
369,172,63603,6,0,P|392:162|410:146,1,50,2|2,0:0|0:0,0:0:0:0:
432,223,63892,2,0,P|445:202|451:178,1,50,2|2,0:0|0:0,0:0:0:0:
512,230,64182,2,0,P|511:205|502:182,1,50,2|2,0:0|0:0,0:0:0:0:
463,90,64479,86,0,P|442:76|418:70,1,50,2|2,0:0|0:0,0:0:0:0:
410,146,64794,2,0,P|411:121|404:97,1,50,2|2,0:0|0:0,0:0:0:0:
335,127,65120,2,0,P|357:115|374:97,1,50,2|2,0:0|0:0,0:0:0:0:
261,35,65452,6,0,P|285:39|306:53,1,50,2|2,0:0|0:0,0:0:0:0:
253,107,65797,2,0,P|257:132|251:157,1,50,2|2,0:0|0:0,0:0:0:0:
180,127,66150,2,0,P|158:138|133:142,1,50,2|2,0:0|0:0,0:0:0:0:
4,126,66512,38,0,P|27:184|32:246,1,125,6|8,0:0|0:0,0:0:0:0:
17,334,67074,1,2,0:0:0:0:
104,355,67262,2,0,P|76:338|30:332,1,62.5,10|2,0:0|0:0,0:0:0:0:
147,264,67637,2,0,P|137:323|167:377,1,125,2|10,0:0|0:0,0:0:0:0:
365,376,68387,1,10,0:0:0:0:
365,376,68762,6,0,P|376:315|406:259,1,125,6|8,0:0|0:0,0:0:0:0:
506,224,69324,1,2,0:0:0:0:
422,163,69512,2,0,P|402:137|390:93,1,62.5,10|2,0:0|0:0,0:0:0:0:
338,188,69887,2,0,P|376:141|379:78,1,125,2|2,0:0|0:0,0:0:0:0:
176,10,70637,1,2,0:0:0:0:
176,10,71012,86,0,P|194:57|197:109,2,100,6|8|8,0:0|0:0|0:0,0:0:0:0:
106,91,72137,2,0,P|153:97|188:132,1,100,2|10,0:0|0:0,0:0:0:0:
257,249,72887,1,10,0:0:0:0:
257,249,73262,6,0,P|264:198|287:152,2,100,6|8|10,0:0|0:0|0:0,0:0:0:0:
201,151,74387,2,0,P|226:134|269:127,1,75,6|0,0:0|0:0,0:0:0:0:
286,154,74762,2,0,P|306:129|346:107,1,62.5,0|0,0:0|0:0,0:0:0:0:
421,60,75137,1,2,0:0:0:0:
421,60,75512,86,0,P|364:35|301:29,1,125,6|8,0:0|0:0,0:0:0:0:
225,99,76074,1,2,0:0:0:0:
199,11,76262,2,0,P|215:38|221:84,1,62.5,10|2,0:0|0:0,0:0:0:0:
96,108,76637,2,0,P|147:141|167:199,1,125,2|10,0:0|0:0,0:0:0:0:
136,382,77387,1,10,0:0:0:0:
136,382,77762,6,0,P|194:361|257:359,1,125,6|8,0:0|0:0,0:0:0:0:
348,380,78324,1,2,0:0:0:0:
292,276,78512,2,0,P|291:243|309:201,1,62.5,10|2,0:0|0:0,0:0:0:0:
373,185,78887,2,0,P|311:184|263:145,2,125,2|10|10,0:0|0:0|0:0,0:0:0:0:
438,42,80012,86,0,P|389:80|340:91,1,100,6|8,0:0|0:0,0:0:0:0:
175,36,80762,1,8,0:0:0:0:
175,36,81137,2,0,P|216:31|272:49,1,100,2|0,0:0|0:0,0:0:0:0:
291,136,81699,1,2,0:0:0:0:
317,159,81887,1,2,0:0:0:0:
351,169,82074,1,2,0:0:0:0:
421,141,82262,6,0,P|393:181|396:230,1,100,6|0,0:0|0:0,0:0:0:0:
492,276,82824,1,2,0:0:0:0:
457,282,83012,1,2,0:0:0:0:
429,303,83199,1,2,0:0:0:0:
432,380,83387,2,0,P|404:340|356:326,1,100,6|0,0:0|0:0,0:0:0:0:
195,350,84137,1,6,0:0:0:0:
292,188,84512,70,0,P|319:173|350:168,1,62.5,2|2,3:1|0:0,0:0:0:0:
288,95,84887,2,0,B|257:83|257:83|226:81,1,62.5,6|6,1:2|1:2,0:0:0:0:
148,148,85262,2,0,B|149:115|149:115|141:85,1,62.5,6|6,1:2|1:2,0:0:0:0:
89,8,85637,1,2,3:1:0:0:
20,182,86012,86,0,L|-2:178,4,20.8333333333333,0|0|0|0|0,3:0|3:0|3:0|3:0|3:0,0:0:0:0:
24,187,86387,2,0,B|55:193|55:193|82:209,1,62.5,4|4,1:2|1:2,0:0:0:0:
156,254,86762,6,0,P|158:222|171:194,1,62.5,2|2,3:1|0:0,0:0:0:0:
302,224,87137,2,0,B|270:228|270:228|242:242,1,62.5,6|6,1:2|1:2,0:0:0:0:
270,104,87512,2,0,B|290:129|290:129|316:146,1,62.5,6|6,1:2|1:2,0:0:0:0:
409,141,87887,86,0,L|431:136,4,20.8333333333333,2|0|0|0|0,3:1|3:0|3:0|3:0|3:0,0:0:0:0:
439,219,88262,2,0,L|469:225,3,31.25,4|4|4|4,1:2|1:2|1:2|1:2,0:0:0:0:
417,236,88637,2,0,B|386:228|386:228|355:229,1,62.5,4|4,1:2|1:2,0:0:0:0:
342,104,89012,6,0,P|364:80|392:67,1,62.5,2|2,3:1|0:0,0:0:0:0:
240,18,89387,2,0,B|257:45|257:45|265:74,1,62.5,6|6,1:2|1:2,0:0:0:0:
157,139,89762,2,0,B|174:111|174:111|182:82,1,62.5,6|6,1:2|1:2,0:0:0:0:
277,155,90137,1,2,3:1:0:0:
94,212,90512,86,0,L|71:214,4,20.8333333333333,0|0|0|0|0,3:0|3:0|3:0|3:0|3:0,0:0:0:0:
99,215,90887,2,0,B|131:213|131:213|161:221,1,62.5,4|4,1:2|1:2,0:0:0:0:
152,349,91262,6,0,P|141:319|121:295,1,62.5,2|0,3:1|0:0,0:0:0:0:
3,223,91637,2,0,B|33:235|33:235|64:236,1,62.5,6|6,1:2|1:2,0:0:0:0:
163,148,92012,2,0,B|132:160|132:160|101:161,1,62.5,6|6,1:2|1:2,0:0:0:0:
28,102,92387,86,0,L|5:99,4,20.8333333333333,2|0|0|0|0,3:1|3:0|3:0|3:0|3:0,0:0:0:0:
69,21,92762,2,0,L|11:28,3,31.25,4|4|4|4,1:2|1:2|1:2|1:2,0:0:0:0:
87,43,93137,2,0,B|118:37|118:37|149:40,1,62.5,4|4,1:2|1:2,0:0:0:0:
214,116,93512,6,0,P|221:86|239:60,1,62.5,2|2,3:1|0:0,0:0:0:0:
354,91,93887,2,0,B|324:101|324:101|299:120,1,62.5,6|6,1:2|1:2,0:0:0:0:
376,223,94262,2,0,B|347:207|347:207|317:201,1,62.5,6|6,1:2|1:2,0:0:0:0:
230,228,94637,85,2,3:1:0:0:
55,298,95012,2,0,L|32:295,4,20.8333333333333,0|0|0|0|0,3:0|3:0|3:0|3:0|3:0,0:0:0:0:
58,303,95387,2,0,B|88:312|88:312|114:330,1,62.5,4|4,1:2|1:2,0:0:0:0:
202,359,95762,6,0,P|208:328|203:298,1,62.5,2|2,3:1|0:0,0:0:0:0:
121,236,96137,2,0,B|144:216|144:216|174:204,1,62.5,6|6,1:2|1:2,0:0:0:0:
266,169,96512,2,0,B|239:153|239:153|217:129,1,62.5,6|6,1:2|1:2,0:0:0:0:
218,36,96887,86,0,L|223:14,4,20.8333333333333,2|0|0|0|0,3:1|3:0|3:0|3:0|3:0,0:0:0:0:
305,88,97262,2,0,L|299:58,3,31.25,4|4|4|4,1:2|1:2|1:2|1:2,0:0:0:0:
305,117,97637,2,0,P|274:124|243:121,1,62.5,4|4,1:2|1:2,0:0:0:0:
380,97,98012,70,0,P|317:137|243:139,1,149.999995422363,4|0,3:1|0:0,0:0:0:0:
216,140,99244,6,0,P|178:201|246:224,1,164.99999949646,2|0,0:0|0:0,0:0:0:0:
210,103,100926,86,0,P|148:206|260:252,1,273.000009164429,2|0,0:0|0:0,0:0:0:0:
