osu file format v14

[General]
AudioFilename: audio.mp3
AudioLeadIn: 0
PreviewTime: 0
Countdown: 0
SampleSet: Soft
StackLeniency: 0.3
Mode: 0
LetterboxInBreaks: 0
WidescreenStoryboard: 0

[Editor]
Bookmarks: 11231,29231,47931
DistanceSpacing: 1.3
BeatDivisor: 4
GridSize: 8
TimelineZoom: 1.4

[Metadata]
Title:Lv.0
TitleUnicode:Lv.0
Artist:I.O
ArtistUnicode:I.O
Creator:negusver
Version:Easy
Source:VOEZ
Tags:instrumental rhythm game piano carillon
BeatmapID:1545302
BeatmapSetID:732390

[Difficulty]
HPDrainRate:3
CircleSize:2.5
OverallDifficulty:3
ApproachRate:3
SliderMultiplier:0.85
SliderTickRate:1

[Events]
//Background and Video events
0,0,"Lv_0.jpg",0,0
//Break Periods
2,63000,65072
//Storyboard Layer 0 (Background)
//Storyboard Layer 1 (Fail)
//Storyboard Layer 2 (Pass)
//Storyboard Layer 3 (Foreground)
//Storyboard Sound Samples

[TimingPoints]
30,375,3,2,1,35,1,0
11280,-100,3,2,1,45,0,0
29280,-100,3,2,2,55,0,0
42780,407.055630936228,3,2,1,55,1,0
44001,502.092050209205,3,2,1,45,1,0
45005,571.428571428571,3,2,1,38,1,0
46147,444.444444444444,3,2,1,38,1,0
46591,413.793103448276,3,2,1,38,1,0
47004,352.941176470588,3,2,1,38,1,0
47356,383.386581469649,3,2,1,38,1,0
47931,260.869565217391,3,2,1,55,1,0
47931,-142.857142857143,3,2,1,55,0,0
57322,-142.857142857143,3,2,1,48,0,0
62800,248.96265560166,3,2,1,42,1,0
62924,270.27027027027,3,2,1,42,1,0
63059,270.27027027027,3,2,1,42,1,0
63464,279.06976744186,3,2,1,42,1,0
63603,289.855072463768,3,2,1,38,1,0
64182,297.029702970297,3,2,1,38,1,0
64479,315.789473684211,3,2,1,35,1,0
64794,326.086956521739,3,2,1,35,1,0
65120,331.491712707182,3,2,1,35,1,0
65452,340.909090909091,3,2,1,32,1,0
65622,350.877192982456,3,2,1,32,1,0
65972,357.142857142857,3,2,1,32,1,0
66329,366.412213740458,3,2,1,32,1,0
66512,375,3,2,1,45,1,0
84512,-100,3,2,2,55,0,0
98012,410.958904109589,3,2,1,55,1,0
98012,-117.047058823529,7,2,1,55,0,0
98037,-117.047058823529,7,2,1,45,0,0
99244,560.747663551402,3,2,1,39,1,0
100926,-100,3,2,1,35,0,0

[Colours]
Combo1 : 255,0,0
Combo2 : 88,169,86
Combo3 : 139,198,138
Combo4 : 183,70,160
Combo5 : 13,122,255
Combo6 : 91,165,255
Combo7 : 241,148,254

[HitObjects]
15,255,30,6,0,B|59:203|131:210|131:210|186:252|258:219,1,255,2|2,0:0|0:0,0:0:0:0:
388,123,1905,1,2,0:0:0:0:
334,56,2280,2,0,P|251:57|199:121,1,170,2|0,0:0|0:0,0:0:0:0:
200,206,3405,1,2,0:0:0:0:
369,189,4155,1,2,0:0:0:0:
452,207,4530,6,0,P|482:262|418:343,1,170,2|0,0:0|0:0,0:0:0:0:
341,328,5655,2,0,P|294:318|245:335,1,85,2|0,0:0|0:0,0:0:0:0:
180,359,6405,1,2,0:0:0:0:
97,335,6780,86,0,B|70:285|103:242|103:237|103:232|164:192|104:106|41:130,1,255,2|2,0:0|0:0,0:0:0:0:
302,40,9030,6,0,B|446:-7|552:78|518:149|514:159|475:226|381:176,1,425,2|0,0:0|0:0,0:0:0:0:
308,129,11280,38,0,P|252:128|207:147,1,85,6|8,0:0|0:0,0:0:0:0:
155,186,12030,1,10,0:0:0:0:
208,251,12405,2,0,P|218:324|149:383,1,170,2|8,0:0|0:0,0:0:0:0:
71,357,13530,6,0,P|50:315|58:261,1,85,6|8,0:0|0:0,0:0:0:0:
84,199,14280,1,10,0:0:0:0:
42,124,14655,2,0,P|28:53|111:48,1,170,6|2,0:0|0:0,0:0:0:0:
183,83,15780,86,0,B|200:26|263:-11|345:37|361:132|276:164|275:172|277:177|245:211|281:310|371:256,1,425,6|8,0:0|0:0,0:0:0:0:
420,196,18030,2,0,B|431:136|398:112|396:105|395:99|385:62|401:19|478:16|495:48|504:82,1,255,4|6,0:0|0:0,0:0:0:0:
503,242,19905,1,2,0:0:0:0:
452,310,20280,6,0,P|394:313|354:347,1,85,6|8,0:0|0:0,0:0:0:0:
297,368,21030,1,10,0:0:0:0:
212,361,21405,2,0,P|160:306|180:218,1,170,2|8,0:0|0:0,0:0:0:0:
225,149,22530,86,0,P|218:84|189:56,1,85,6|8,0:0|0:0,0:0:0:0:
124,47,23280,1,10,0:0:0:0:
82,121,23655,2,0,P|41:126|-16:113,2,85,2|10|10,0:0|0:0|0:0,0:0:0:0:
164,100,24780,6,0,B|207:87|248:107|250:109|252:110|292:130|335:109,1,170,6|8,0:0|0:0,0:0:0:0:
404,70,25905,1,2,0:0:0:0:
404,70,27030,86,0,B|493:142|424:261|362:245|336:243|336:243|370:252|387:284|385:315|367:343|343:350|322:354|304:346,1,425,6|6,0:0|0:0,0:0:0:0:
225,321,29280,70,0,P|171:314|138:331,1,85,6|6,3:1|1:2,0:0:0:0:
70,368,30030,1,6,1:2:0:0:
34,291,30405,1,2,3:1:0:0:
289,307,31530,6,0,P|333:316|382:307,2,85,2|6|6,3:1|1:2|1:2,0:0:0:0:
242,235,32655,1,2,3:1:0:0:
429,62,33780,86,0,P|460:97|471:141,1,85,2|6,3:1|1:2,0:0:0:0:
449,215,34530,1,6,1:2:0:0:
367,192,34905,2,0,P|327:192|254:227,2,85,2|0|4,3:1|3:0|1:2,0:0:0:0:
449,215,36030,5,2,3:1:0:0:
267,36,37155,2,0,B|229:-4|125:30|157:142|157:142,1,170,2|4,3:1|1:2,0:0:0:0:
184,190,38280,86,0,P|228:171|287:170,1,85,2|6,3:1|1:2,0:0:0:0:
345,193,39030,1,6,1:2:0:0:
426,169,39405,1,2,3:1:0:0:
213,310,40530,6,0,P|169:291|96:298,2,85,2|6|6,3:1|1:2|1:2,0:0:0:0:
270,372,41655,1,2,3:1:0:0:
354,378,42030,1,4,1:2:0:0:
409,312,42405,1,4,1:2:0:0:
399,228,42780,54,0,B|348:195|306:216|303:220|299:223|264:258|204:241|188:182|219:150|223:147,1,255,4|2,3:1|0:0,0:0:0:0:
29,278,45576,1,0,0:0:0:0:
347,255,47931,38,0,B|417:250|461:291,1,118.999996368408,2|10,3:2|0:0,0:0:0:0:
509,259,48713,2,0,P|495:230|495:192,1,59.4999981842042,8|10,2:1|0:0,0:0:0:0:
432,100,49496,86,0,P|416:127|328:164,1,118.999996368408,2|10,3:2|0:0,0:0:0:0:
285,139,50278,1,8,2:1:0:0:
165,136,50800,1,8,2:1:0:0:
107,153,51061,6,0,P|91:180|103:275,1,118.999996368408,2|10,3:2|3:2,0:0:0:0:
138,308,51844,2,0,P|169:288|196:280,1,59.4999981842042,8|10,2:1|0:0,0:0:0:0:
309,274,52626,86,0,P|363:293|400:339,1,118.999996368408,2|10,3:2|3:2,0:0:0:0:
460,334,53409,2,0,P|464:296|473:273,1,59.4999981842042,8|2,2:1|3:1,0:0:0:0:
510,163,54191,6,0,P|476:118|465:56,1,118.999996368408,2|10,3:2|0:0,0:0:0:0:
407,39,54974,2,0,P|386:59|348:76,1,59.4999981842042,8|10,2:1|3:2,0:0:0:0:
240,77,55757,86,0,P|184:84|132:120,1,118.999996368408,2|10,3:2|3:2,0:0:0:0:
160,171,56539,2,0,P|189:218|156:263,1,118.999996368408,8|8,3:1|1:0,0:0:0:0:
97,274,57322,5,0,1:0:0:0:
273,296,58104,1,0,1:0:0:0:
175,146,58887,1,0,1:0:0:0:
347,98,59670,2,0,B|377:112|390:138|390:138|382:169|387:196,1,118.999996368408,8|8,2:1|2:1,0:0:0:0:
413,250,60452,85,0,1:0:0:0:
498,93,61235,1,0,1:0:0:0:
319,87,62017,1,0,1:0:0:0:
321,266,62800,1,4,1:0:0:0:
253,127,66512,22,0,P|308:124|358:143,1,85,6|8,0:0|0:0,0:0:0:0:
400,187,67262,1,10,0:0:0:0:
418,270,67637,2,0,P|377:334|285:311,1,170,2|10,0:0|0:0,0:0:0:0:
235,259,68762,6,0,P|273:210|271:164,1,85,6|8,0:0|0:0,0:0:0:0:
253,107,69512,1,10,0:0:0:0:
182,59,69887,2,0,P|143:107|145:153,2,85,2|2|2,0:0|0:0|0:0,0:0:0:0:
259,23,71012,86,0,B|418:-25|524:60|490:130|486:141|447:208|360:180,1,425,6|10,0:0|0:0,0:0:0:0:
283,176,73262,2,0,B|202:175|183:214|175:213|167:216|135:321|16:307|-54:206|-7:118|46:101|63:100,1,425,6|2,0:0|0:0,0:0:0:0:
131,72,75512,6,0,P|184:65|225:71,1,85,6|8,0:0|0:0,0:0:0:0:
297,90,76262,1,10,0:0:0:0:
361,145,76637,2,0,P|442:173|503:112,1,170,2|10,0:0|0:0,0:0:0:0:
489,38,77762,86,0,P|457:14|403:10,2,85,6|8|10,0:0|0:0|0:0,0:0:0:0:
499,122,78887,1,2,0:0:0:0:
483,205,79262,1,10,0:0:0:0:
436,276,79637,1,10,0:0:0:0:
361,318,80012,6,0,B|285:346|255:320|246:315|189:287|114:337|114:337|71:279|132:209|180:201,1,425,6|2,0:0|0:0,0:0:0:0:
256,208,82262,2,0,B|334:233|373:166|377:155|411:85|305:0|146:48,1,425,6|6,0:0|0:0,0:0:0:0:
136,132,84512,70,0,P|123:163|78:195,1,85,2|6,3:1|1:2,0:0:0:0:
12,147,85262,1,6,1:2:0:0:
27,63,85637,1,2,3:1:0:0:
64,315,86762,86,0,P|12:287|-5:254,2,85,2|6|6,3:1|1:2|1:2,0:0:0:0:
148,320,87887,1,2,3:1:0:0:
388,250,89012,6,0,P|407:191|403:157,1,85,2|6,3:1|1:2,0:0:0:0:
359,97,89762,1,6,1:2:0:0:
280,130,90137,2,0,P|232:127|184:112,2,85,2|0|4,3:1|3:0|1:2,0:0:0:0:
359,97,91262,85,2,3:1:0:0:
155,251,92387,2,0,B|132:301|23:305|15:189|15:189,1,170,2|4,3:1|1:2,0:0:0:0:
15,135,93512,6,0,P|76:126|118:97,1,85,2|6,3:1|1:2,0:0:0:0:
150,50,94262,1,6,1:2:0:0:
234,40,94637,1,2,3:1:0:0:
459,159,95762,86,0,P|502:197|513:227,2,85,2|6|6,3:1|1:2|1:2,0:0:0:0:
375,173,96887,1,2,3:1:0:0:
294,145,97262,1,4,1:2:0:0:
236,82,97637,1,4,1:2:0:0:
171,22,98012,70,0,B|140:56|140:92|145:134|172:152|212:165|211:213|211:213|141:186|89:237|74:283|84:336|115:360|143:378|174:376|184:375,1,514.781259818673,4|2,3:1|0:0,0:0:0:0:
256,192,101486,12,0,104851,0:0:0:0:
