osu file format v14

[General]
AudioFilename: audio.mp3
AudioLeadIn: 0
PreviewTime: 30
Countdown: 0
SampleSet: Soft
StackLeniency: 0.7
Mode: 3
LetterboxInBreaks: 0
SpecialStyle: 0
WidescreenStoryboard: 1

[Editor]
DistanceSpacing: 0.8
BeatDivisor: 4
GridSize: 32
TimelineZoom: 2

[Metadata]
Title:Lv.0
TitleUnicode:Lv.0
Artist:I.O
ArtistUnicode:I.O
Creator:Unpredictable
Version:Easy
Source:VOEZ
Tags:1164530434 -mysticeyes keppsado rayark io instrumental mobile rhythm game piano carillon
BeatmapID:1968454
BeatmapSetID:861974

[Difficulty]
HPDrainRate:7
CircleSize:4
OverallDifficulty:7
ApproachRate:5
SliderMultiplier:1.4
SliderTickRate:1

[Events]
//Background and Video events
0,0,"hi.jpg",0,0
//Break Periods
//Storyboard Layer 0 (Background)
//Storyboard Layer 1 (Fail)
//Storyboard Layer 2 (Pass)
//Storyboard Layer 3 (Foreground)
//Storyboard Sound Samples
Sample,30,0,"A4S.wav",40
Sample,30,0,"E5S.wav",40
Sample,30,0,"C#5S_Db5S.wav",40
Sample,587,0,"F#5S_Gb5S.wav",30
Sample,773,0,"A5S.wav",30
Sample,959,0,"C#6S_Db6S.wav",30
Sample,959,0,"A5S.wav",20
Sample,1145,0,"E6S.wav",30
Sample,1889,0,"E6S.wav",20
Sample,2275,0,"B5S.wav",30
Sample,2275,0,"E4S.wav",30
Sample,2837,0,"A6S.wav",30
Sample,3025,0,"G#6S_Ab6S.wav",20
Sample,3212,0,"E6S.wav",30
Sample,3400,0,"B4S.wav",30
Sample,3400,0,"B5S.wav",50
Sample,4525,0,"E4S.wav",30
Sample,4525,0,"B5S.wav",30
Sample,4525,0,"B4S.wav",30
Sample,5650,0,"G#5S_Ab5S.wav",40
Sample,6025,0,"G#4S_Ab4S.wav",30
Sample,6400,0,"B5S.wav",25
Sample,6775,0,"A5S.wav",50
Sample,6775,0,"F#4S_Gb4S.wav",50
Sample,9025,0,"E6S.wav",15
Sample,9775,0,"Reverse.wav",30
Sample,10150,0,"Faded.wav",25
Sample,10525,0,"LR_RevCyRDWs.wav",30
Sample,11275,0,"A6S.wav",70
Sample,11275,0,"C#6S_Db6S.wav",70
Sample,11275,0,"D4S.wav",40
Sample,11837,0,"G#6S_Ab6S.wav",70
Sample,12025,0,"E6S.wav",70
Sample,12025,0,"C#6S_Db6S.wav",70
Sample,12212,0,"G#5S_Ab5S.wav",70
Sample,12400,0,"B5S.wav",70
Sample,13525,0,"A6S.wav",70
Sample,13525,0,"C#6S_Db6S.wav",70
Sample,14087,0,"G#6S_Ab6S.wav",70
Sample,14275,0,"C#6S_Db6S.wav",70
Sample,14275,0,"E6S.wav",70
Sample,14462,0,"G#5S_Ab5S.wav",70
Sample,14650,0,"E4S.wav",30
Sample,14650,0,"B5S.wav",35
Sample,15212,0,"E5S.wav",50
Sample,15400,0,"C#6S_Db6S.wav",35
Sample,15775,0,"G#5S_Ab5S.wav",40
Sample,15775,0,"E6S.wav",40
Sample,15775,0,"C#6S_Db6S.wav",40
Sample,19150,0,"F#3S_Gb3S.wav",30
Sample,19900,0,"C#6S_Db6S.wav",70
Sample,20275,0,"A6S.wav",70
Sample,20275,0,"C#6S_Db6S.wav",70
Sample,20837,0,"C#6S_Db6S.wav",70
Sample,21025,0,"C#6S_Db6S.wav",70
Sample,21025,0,"E6S.wav",70
Sample,21212,0,"C#6S_Db6S.wav",70
Sample,21400,0,"B5S.wav",70
Sample,22525,0,"C#6S_Db6S.wav",70
Sample,22525,0,"A6S.wav",70
Sample,23087,0,"G#6S_Ab6S.wav",70
Sample,23275,0,"A6S.wav",70
Sample,23275,0,"C#6S_Db6S.wav",70
Sample,23462,0,"B6S.wav",70
Sample,23650,0,"E6S.wav",70
Sample,23650,0,"C#7S_Db7S.wav",70
Sample,24025,0,"B6S.wav",70
Sample,24400,0,"C#6S_Db6S.wav",70
Sample,24775,0,"G#6S_Ab6S.wav",50
Sample,24775,0,"E7S.wav",50
Sample,24775,0,"B6S.wav",50
Sample,26275,0,"D5S.wav",70
Sample,26650,0,"C#5S_Db5S.wav",70
Sample,27587,0,"G#7S_Ab7S.wav",100
Sample,28150,0,"B6S.wav",50
Sample,29275,0,"C#7S_Db7S.wav",50
Sample,29275,0,"G3S.wav",40
Sample,29275,0,"G#6S_Ab6S.wav",50
Sample,29462,0,"F#6S_Gb6S.wav",40
Sample,29650,0,"C#7S_Db7S.wav",50
Sample,29650,0,"G#6S_Ab6S.wav",50
Sample,29837,0,"F#6S_Gb6S.wav",40
Sample,29837,0,"B6S.wav",40
Sample,30025,0,"C#7S_Db7S.wav",50
Sample,30025,0,"G#6S_Ab6S.wav",50
Sample,30212,0,"F#6S_Gb6S.wav",40
Sample,30212,0,"B6S.wav",40
Sample,30400,0,"G3S.wav",40
Sample,30400,0,"G#6S_Ab6S.wav",50
Sample,31525,0,"C#7S_Db7S.wav",50
Sample,31525,0,"A3S.wav",40
Sample,31712,0,"B6S.wav",40
Sample,31900,0,"C#7S_Db7S.wav",50
Sample,31900,0,"G#6S_Ab6S.wav",50
Sample,32087,0,"B6S.wav",40
Sample,32087,0,"E7S.wav",40
Sample,32275,0,"C#7S_Db7S.wav",50
Sample,32275,0,"G#6S_Ab6S.wav",50
Sample,32462,0,"F#6S_Gb6S.wav",40
Sample,32462,0,"B6S.wav",40
Sample,32650,0,"A3S.wav",40
Sample,32650,0,"G#6S_Ab6S.wav",50
Sample,32650,0,"C#7S_Db7S.wav",50
Sample,33025,0,"soft-hitclap.wav",15
Sample,33775,0,"G3S.wav",40
Sample,33775,0,"C#7S_Db7S.wav",50
Sample,33962,0,"F#6S_Gb6S.wav",40
Sample,34150,0,"C#7S_Db7S.wav",50
Sample,34150,0,"G#6S_Ab6S.wav",50
Sample,34337,0,"F#6S_Gb6S.wav",40
Sample,34337,0,"B6S.wav",40
Sample,34525,0,"C#7S_Db7S.wav",50
Sample,34525,0,"G#6S_Ab6S.wav",50
Sample,34712,0,"F#6S_Gb6S.wav",40
Sample,34712,0,"B6S.wav",40
Sample,34900,0,"G3S.wav",40
Sample,34900,0,"G#6S_Ab6S.wav",50
Sample,35650,0,"F#7S_Gb7S.wav",50
Sample,35650,0,"C#7S_Db7S.wav",50
Sample,36025,0,"E7S.wav",50
Sample,36025,0,"A3S.wav",30
Sample,37150,0,"A3S.wav",30
Sample,37150,0,"G#6S_Ab6S.wav",50
Sample,37150,0,"B6S.wav",50
Sample,38275,0,"G3S.wav",40
Sample,38275,0,"C#7S_Db7S.wav",50
Sample,38462,0,"F#6S_Gb6S.wav",40
Sample,38650,0,"C#7S_Db7S.wav",50
Sample,38650,0,"G#6S_Ab6S.wav",50
Sample,38837,0,"F#6S_Gb6S.wav",40
Sample,38837,0,"B6S.wav",40
Sample,39025,0,"C#7S_Db7S.wav",50
Sample,39025,0,"G#6S_Ab6S.wav",50
Sample,39212,0,"F#6S_Gb6S.wav",40
Sample,39212,0,"B6S.wav",40
Sample,39400,0,"C#7S_Db7S.wav",50
Sample,39400,0,"G#6S_Ab6S.wav",50
Sample,40525,0,"C#7S_Db7S.wav",50
Sample,40525,0,"A3S.wav",40
Sample,40712,0,"B6S.wav",40
Sample,40900,0,"C#7S_Db7S.wav",50
Sample,40900,0,"G#6S_Ab6S.wav",50
Sample,41087,0,"B6S.wav",40
Sample,41087,0,"E7S.wav",40
Sample,41275,0,"C#7S_Db7S.wav",50
Sample,41275,0,"G#6S_Ab6S.wav",50
Sample,41462,0,"F#6S_Gb6S.wav",40
Sample,41462,0,"B6S.wav",40
Sample,41650,0,"C#7S_Db7S.wav",50
Sample,41650,0,"A3S.wav",40
Sample,41650,0,"G#6S_Ab6S.wav",50
Sample,42025,0,"B6S.wav",60
Sample,42025,0,"E7S.wav",60
Sample,42400,0,"F#7S_Gb7S.wav",60
Sample,42400,0,"C#7S_Db7S.wav",60
Sample,42761,0,"F#7S_Gb7S.wav",70
Sample,42761,0,"G3S.wav",70
Sample,44505,0,"B7S.wav",50
Sample,45015,0,"B7S.wav",50
Sample,45586,0,"B7S.wav",70
Sample,46141,0,"B7S.wav",100
Sample,46589,0,"B7S.wav",100
Sample,46972,0,"LR_RevCyWSD.wav",50
Sample,46972,0,"B7S.wav",100
Sample,47935,0,"F#6S_Gb6S.wav",100
Sample,48195,0,"A6S.wav",50
Sample,48456,0,"C#7S_Db7S.wav",50
Sample,48587,0,"A6S.wav",100
Sample,48717,0,"Xnare.wav",70
Sample,48717,0,"F#6S_Gb6S.wav",50
Sample,48978,0,"F#6S_Gb6S.wav",50
Sample,49369,0,"D6S.wav",100
Sample,49500,0,"C#6S_Db6S.wav",100
Sample,49891,0,"E6S.wav",50
Sample,50021,0,"F#6S_Gb6S.wav",50
Sample,50282,0,"Xnare.wav",70
Sample,50282,0,"C#7S_Db7S.wav",100
Sample,50543,0,"F#6S_Gb6S.wav",100
Sample,50804,0,"C#6S_Db6S.wav",100
Sample,51065,0,"A5S_s.wav",60
Sample,51326,0,"A5S_s.wav",30
Sample,51587,0,"E6S.wav",60
Sample,51848,0,"Xnare.wav",70
Sample,51848,0,"C7S.wav",50
Sample,52108,0,"E6S.wav",50
Sample,52369,0,"C7S.wav",50
Sample,52500,0,"E7S.wav",100
Sample,52630,0,"F#7S_Gb7S.wav",100
Sample,52891,0,"D7S.wav",50
Sample,53152,0,"B6S.wav",100
Sample,53413,0,"F#6S_Gb6S.wav",50
Sample,53413,0,"Xnare.wav",70
Sample,53674,0,"D6S.wav",100
Sample,53934,0,"B5S.wav",100
Sample,54195,0,"A#5S_Bb5S.wav",100
Sample,54456,0,"D6S.wav",50
Sample,54717,0,"G6S.wav",35
Sample,54978,0,"D#6S_Eb6S.wav",50
Sample,54978,0,"D#6S_Eb6S.wav",50
Sample,55239,0,"A#6S_Bb6S.wav",100
Sample,55369,0,"G6S.wav",50
Sample,55500,0,"D7S.wav",100
Sample,55630,0,"Xnare.wav",70
Sample,55761,0,"A6S.wav",100
Sample,56021,0,"A6S.wav",100
Sample,56282,0,"E7S.wav",100
Sample,56413,0,"C7S.wav",100
Sample,56543,0,"D7S.wav",100
Sample,56804,0,"D7S.wav",100
Sample,56934,0,"E7S.wav",100
Sample,57065,0,"C8S.wav",50
Sample,57065,0,"Xnare.wav",70
Sample,57326,0,"G7S.wav",100
Sample,57456,0,"G7S.wav",100
Sample,57587,0,"G7S.wav",100
Sample,58108,0,"F7S.wav",100
Sample,58239,0,"F7S.wav",100
Sample,58369,0,"F7S.wav",100
Sample,58500,0,"D#7S_Eb7S.wav",100
Sample,58630,0,"Xnare.wav",70
Sample,58630,0,"F7S.wav",50
Sample,58891,0,"D#5S_Eb5S_s.wav",20
Sample,59021,0,"D#5S_Eb5S_s.wav",20
Sample,59152,0,"D#5S_Eb5S_s.wav",20
Sample,59282,0,"F6S.wav",100
Sample,59413,0,"G#6S_Ab6S.wav",100
Sample,59543,0,"C7S.wav",100
Sample,59674,0,"Xnare.wav",70
Sample,59674,0,"D#7S_Eb7S.wav",50
Sample,59934,0,"C8S.wav",50
Sample,60195,0,"G#7S_Ab7S.wav",50
Sample,60195,0,"G#7S_Ab7S.wav",50
Sample,60456,0,"G7S.wav",100
Sample,60587,0,"G7S.wav",100
Sample,60717,0,"G7S.wav",100
Sample,61239,0,"F7S.wav",100
Sample,61369,0,"F7S.wav",100
Sample,61500,0,"F7S.wav",100
Sample,61630,0,"F7S.wav",100
Sample,61761,0,"G7S.wav",50
Sample,61761,0,"G7S.wav",50
Sample,62021,0,"F7S.wav",100
Sample,62152,0,"F7S.wav",100
Sample,62282,0,"F7S.wav",100
Sample,62413,0,"G7S.wav",100
Sample,62543,0,"G5S.wav",30
Sample,62792,0,"B4S.wav",50
Sample,62792,0,"D5S.wav",50
Sample,62792,0,"G4S.wav",50
Sample,66497,0,"C7S.wav",70
Sample,66497,0,"C6S.wav",70
Sample,67059,0,"B6S.wav",70
Sample,67247,0,"G5S.wav",30
Sample,67247,0,"G6S.wav",70
Sample,67434,0,"B5S.wav",50
Sample,67622,0,"F3S.wav",30
Sample,67997,0,"F8S.wav",70
Sample,68372,0,"E8S.wav",70
Sample,68747,0,"C7S.wav",70
Sample,68747,0,"E6S.wav",70
Sample,69309,0,"B6S.wav",70
Sample,69497,0,"G6S.wav",70
Sample,69684,0,"B5S.wav",30
Sample,69872,0,"D6S.wav",70
Sample,69872,0,"G3S.wav",30
Sample,70622,0,"G5S_s.wav",50
Sample,70997,0,"B5S.wav",70
Sample,70997,0,"B7S.wav",70
Sample,73247,0,"A3S.wav",30
Sample,73247,0,"D8S.wav",70
Sample,74372,0,"B7S.wav",70
Sample,75122,0,"E6S.wav",70
Sample,75122,0,"C7S.wav",70
Sample,75497,0,"C7S.wav",70
Sample,75497,0,"G8S.wav",70
Sample,75497,0,"E6S.wav",70
Sample,76059,0,"B6S.wav",70
Sample,76247,0,"G5S.wav",30
Sample,76247,0,"G6S.wav",70
Sample,76434,0,"B5S.wav",50
Sample,76622,0,"D6S.wav",70
Sample,77747,0,"E6S.wav",70
Sample,77747,0,"D8S.wav",70
Sample,77747,0,"C7S.wav",70
Sample,78309,0,"B6S.wav",70
Sample,78497,0,"C7S.wav",70
Sample,78497,0,"B8S.wav",70
Sample,78684,0,"E6S.wav",50
Sample,78872,0,"C9.wav",50
Sample,78872,0,"E7S.wav",70
Sample,79247,0,"D7S.wav",70
Sample,79622,0,"C7S.wav",70
Sample,79997,0,"E3S.wav",50
Sample,79997,0,"G7S.wav",70
Sample,79997,0,"G8S.wav",70
Sample,81122,0,"G5S.wav",70
Sample,81684,0,"F7S.wav",70
Sample,81872,0,"E7S.wav",70
Sample,81872,0,"E5S.wav",70
Sample,82059,0,"F6S.wav",70
Sample,82247,0,"C7S.wav",70
Sample,82247,0,"C9.wav",50
Sample,82247,0,"E6S.wav",70
Sample,82809,0,"F6S.wav",70
Sample,82997,0,"E6S.wav",70
Sample,83184,0,"D6S.wav",70
Sample,83372,0,"A5S.wav",70
Sample,83372,0,"C6S.wav",70
Sample,84122,0,"G6S.wav",70
Sample,84497,0,"A#3S_Bb3S.wav",50
Sample,84497,0,"E6S.wav",70
Sample,84497,0,"B5S.wav",70
Sample,84684,0,"D6S.wav",70
Sample,84872,0,"B5S.wav",70
Sample,84872,0,"E6S.wav",70
Sample,85059,0,"A5S.wav",70
Sample,85059,0,"D6S.wav",70
Sample,85247,0,"E6S.wav",70
Sample,85247,0,"B5S.wav",70
Sample,85434,0,"A5S.wav",70
Sample,85434,0,"D6S.wav",70
Sample,85622,0,"A#3S_Bb3S.wav",50
Sample,85622,0,"E6S.wav",70
Sample,86747,0,"E6S.wav",70
Sample,86747,0,"C4S.wav",50
Sample,86934,0,"D6S.wav",70
Sample,87122,0,"B5S.wav",70
Sample,87122,0,"E6S.wav",70
Sample,87309,0,"A5S.wav",70
Sample,87309,0,"G6S.wav",70
Sample,87497,0,"B5S.wav",70
Sample,87497,0,"E6S.wav",70
Sample,87684,0,"D6S.wav",70
Sample,87684,0,"A5S.wav",70
Sample,87872,0,"E6S.wav",70
Sample,87872,0,"B5S.wav",70
Sample,87872,0,"C4S.wav",50
Sample,88997,0,"E6S.wav",70
Sample,88997,0,"B5S.wav",70
Sample,89184,0,"A5S.wav",70
Sample,89372,0,"E6S.wav",70
Sample,89372,0,"B5S.wav",70
Sample,89559,0,"D6S.wav",70
Sample,89559,0,"A5S.wav",70
Sample,89747,0,"B5S.wav",70
Sample,89747,0,"E6S.wav",70
Sample,89934,0,"A5S.wav",70
Sample,89934,0,"D6S.wav",70
Sample,90122,0,"B5S.wav",70
Sample,90122,0,"A#3S_Bb3S.wav",50
Sample,90497,0,"G6S.wav",70
Sample,90497,0,"C6S.wav",70
Sample,90872,0,"D6S.wav",70
Sample,90872,0,"A6S.wav",70
Sample,91247,0,"G6S.wav",70
Sample,91247,0,"C4S.wav",70
Sample,92372,0,"G5S.wav",70
Sample,92372,0,"C4S.wav",50
Sample,92372,0,"B5S.wav",70
Sample,93497,0,"E6S.wav",70
Sample,93497,0,"A#3S_Bb3S.wav",50
Sample,93684,0,"D6S.wav",70
Sample,93872,0,"B5S.wav",70
Sample,93872,0,"E6S.wav",70
Sample,94059,0,"A5S.wav",70
Sample,94059,0,"D6S.wav",70
Sample,94247,0,"B5S.wav",70
Sample,94247,0,"E6S.wav",70
Sample,94434,0,"A5S.wav",70
Sample,94434,0,"D6S.wav",70
Sample,94622,0,"B5S.wav",70
Sample,94622,0,"A#3S_Bb3S.wav",50
Sample,95747,0,"C4S.wav",50
Sample,95747,0,"E6S.wav",70
Sample,95934,0,"D6S.wav",70
Sample,96122,0,"B5S.wav",70
Sample,96122,0,"E6S.wav",70
Sample,96309,0,"A5S.wav",70
Sample,96309,0,"G6S.wav",70
Sample,96497,0,"E6S.wav",70
Sample,96497,0,"B5S.wav",70
Sample,96684,0,"D6S.wav",70
Sample,96684,0,"A5S.wav",70
Sample,96872,0,"E6S.wav",70
Sample,96872,0,"C4S.wav",50
Sample,96872,0,"B5S.wav",70
Sample,97247,0,"G6S.wav",70
Sample,97247,0,"D6S.wav",70
Sample,97622,0,"E6S.wav",70
Sample,97622,0,"A6S.wav",70
Sample,97997,0,"E6S.wav",70
Sample,97997,0,"A6S.wav",70
Sample,100911,0,"A#3S_Bb3S.wav",30

[TimingPoints]
30,371.97768133912,3,2,1,30,1,0
30,-101.010101010101,3,2,1,30,0,0
2275,375,3,2,1,30,1,0
42761,408.163265306122,3,2,1,30,1,0
42761,-91.743119266055,3,2,1,30,0,0
43985,480,3,2,1,30,1,0
43985,-78.1249999999999,3,2,1,30,0,0
44505,508.474576271186,3,2,1,30,1,0
44505,-73.5294117647059,3,2,1,30,0,0
45015,571.428571428571,3,2,1,30,1,0
45015,-65.7894736842105,3,2,1,30,0,0
46141,444.444444444444,3,2,1,30,1,0
46141,-84.0336134453781,3,2,1,30,0,0
46589,413.793103448276,3,2,1,30,1,0
46589,-90.9090909090909,3,2,1,30,0,0
46972,352.941176470588,3,2,1,30,1,0
46972,-106.382978723404,3,2,1,30,0,0
47324,383.386581469649,3,2,1,30,1,0
47324,-98.0392156862745,3,2,1,30,0,0
47935,260.869565217391,3,2,1,30,1,0
47935,-142.857142857143,3,2,1,30,0,1
56543,-142.857142857143,3,2,1,30,0,0
57326,-142.857142857143,3,2,1,30,0,1
62792,270.27027027027,3,2,1,30,1,0
62792,-138.888888888889,3,2,1,30,0,0
63466,279.06976744186,3,2,1,30,1,0
63466,-135.135135135135,3,2,1,30,0,0
63605,289.855072463768,3,2,1,30,1,0
63605,-129.87012987013,3,2,1,30,0,0
64184,297.029702970297,3,2,1,30,1,0
64184,-126.582278481013,3,2,1,30,0,0
64481,309.278350515464,3,2,1,30,1,0
64481,-121.951219512195,3,2,1,30,0,0
64635,322.58064516129,3,2,1,30,1,0
64635,-116.279069767442,3,2,1,30,0,0
64957,326.086956521739,3,2,1,30,1,0
64957,-114.942528735632,3,2,1,30,0,0
65446,340.909090909091,3,2,1,30,1,0
65446,-109.89010989011,3,2,1,30,0,0
65616,350.877192982456,3,2,1,30,1,0
65616,-106.382978723404,3,2,1,30,0,0
65966,366.412213740458,3,2,1,30,1,0
65966,-102.040816326531,3,2,1,30,0,0
66497,375,3,2,1,30,1,0
97997,410.958904109589,3,2,1,30,1,0
97997,-90.9090909090909,3,2,1,30,0,0
99229,560.747663551402,3,2,1,30,1,0
99229,-66.6666666666667,3,2,1,30,0,0

[HitObjects]
320,192,30,5,0,0:0:0:40:F#4S_Gb4S.wav
192,192,587,1,0,0:0:0:20:D5S.wav
320,192,773,1,0,0:0:0:20:C#5S_Db5S.wav
448,192,959,1,0,0:0:0:20:A4S.wav
64,192,1145,1,0,0:0:0:30:D4S.wav
320,192,1703,1,0,0:0:0:30:C#5S_Db5S.wav
192,192,1889,1,0,0:0:0:20:E6S.wav
448,192,2275,1,0,0:0:0:30:B4S.wav
320,192,2837,1,0,0:0:0:20:B4S.wav
192,192,3025,1,0,0:0:0:10:E5S.wav
64,192,3212,1,0,0:0:0:20:A4S.wav
448,192,3400,1,0,0:0:0:30:E4S.wav
64,192,3962,1,0,0:0:0:10:G#5S_Ab5S.wav
320,192,4150,1,0,0:0:0:20:A5S.wav
192,192,4525,1,0,0:0:0:30:C#4S_Db4S.wav
448,192,5087,1,0,0:0:0:30:E4S.wav
64,192,5275,1,0,0:0:0:30:G#4S_Ab4S.wav
320,192,5650,1,0,0:0:0:20:B4S.wav
192,192,6400,1,0,0:0:0:25:B5S.wav
64,192,6775,1,0,0:0:0:50:D4S.wav
320,192,7900,1,0,0:0:0:30:B5S.wav
448,192,9025,128,0,11275:0:0:0:15:E6S.wav
64,192,11275,1,4,0:0:0:0:
320,192,11837,1,0,0:0:0:70:C#6S_Db6S.wav
448,192,12025,1,0,0:0:0:30:E4S.wav
192,192,12212,1,0,0:0:0:70:C#6S_Db6S.wav
64,192,12400,1,0,0:0:0:30:D4S.wav
320,192,12775,1,0,0:0:0:40:E5S_s.wav
320,192,13150,1,0,0:0:0:40:E5S_s.wav
448,192,13525,1,0,0:0:0:30:E4S.wav
320,192,14087,1,0,0:0:0:70:C#6S_Db6S.wav
192,192,14275,1,0,0:0:0:30:B4S.wav
448,192,14462,1,0,0:0:0:70:C#6S_Db6S.wav
64,192,14650,1,0,0:0:0:35:B5S.wav
192,192,15400,1,0,0:0:0:35:C#6S_Db6S.wav
64,192,15775,1,0,0:0:0:30:C#4S_Db4S.wav
448,192,16150,1,0,0:0:0:40:E5S_s.wav
448,192,16525,1,0,0:0:0:40:E5S_s.wav
64,192,17275,1,0,0:0:0:40:E5S_s.wav
64,192,17650,1,0,0:0:0:40:E5S_s.wav
320,192,18400,1,0,0:0:0:40:E5S_s.wav
320,192,18775,1,0,0:0:0:40:E5S_s.wav
192,192,19150,1,0,0:0:0:30:F#3S_Gb3S.wav
448,192,19900,1,0,0:0:0:70:A6S.wav
192,192,20275,1,0,0:0:0:30:D4S.wav
192,192,20837,1,0,0:0:0:70:G#6S_Ab6S.wav
320,192,21025,1,0,0:0:0:30:E4S.wav
448,192,21212,1,0,0:0:0:70:G#5S_Ab5S.wav
64,192,21400,1,0,0:0:0:30:D4S.wav
192,192,21775,1,0,0:0:0:40:E5S_s.wav
192,192,22150,1,0,0:0:0:40:E5S_s.wav
320,192,22525,1,0,0:0:0:30:E4S.wav
64,192,23087,1,0,0:0:0:70:E6S.wav
448,192,23275,1,0,0:0:0:30:B4S.wav
192,192,23462,1,0,0:0:0:70:E6S.wav
320,192,23650,1,0,0:0:0:30:E4S.wav
64,192,24025,1,0,0:0:0:70:D6S.wav
448,192,24400,1,0,0:0:0:70:A6S.wav
192,192,24775,1,0,0:0:0:30:C#4S_Db4S.wav
320,192,25150,1,0,0:0:0:40:E5S_s.wav
320,192,25525,1,0,0:0:0:40:E5S_s.wav
448,192,25900,1,0,0:0:0:50:E7S.wav
192,192,27025,1,0,0:0:0:50:E7S.wav
64,192,27587,1,0,0:0:0:70:Reverse.wav
192,192,27775,1,0,0:0:0:100:E7S.wav
320,192,27962,1,0,0:0:0:100:C#7S_Db7S.wav
192,192,28150,1,0,0:0:0:50:B6S.wav
448,192,28525,1,0,0:0:0:100:A6S.wav
64,192,28900,1,0,0:0:0:100:B6S.wav
320,192,29275,1,4,0:0:0:0:
192,192,29462,1,0,0:0:0:40:B6S.wav
64,192,29650,1,8,0:0:0:0:
448,192,29837,1,8,0:0:0:0:
320,192,30025,1,8,0:0:0:0:
192,192,30212,1,8,0:0:0:0:
448,192,30400,1,0,0:0:0:50:C#7S_Db7S.wav
64,192,30775,128,8,31150:0:0:0:0:
448,192,31150,1,8,0:0:0:0:
192,192,31337,1,8,0:0:0:0:
320,192,31525,1,0,0:0:0:50:G#6S_Ab6S.wav
64,192,31712,1,0,0:0:0:40:F#6S_Gb6S.wav
320,192,31900,1,8,0:0:0:0:
192,192,32087,1,8,0:0:0:0:
448,192,32275,1,8,0:0:0:0:
64,192,32462,1,8,0:0:0:0:
320,192,32650,128,8,33025:0:0:0:0:
448,192,33025,128,8,33400:0:0:0:0:
192,192,33400,1,8,0:0:0:0:
64,192,33587,1,8,0:0:0:0:
320,192,33775,1,0,0:0:0:50:G#6S_Ab6S.wav
448,192,33962,1,0,0:0:0:40:B6S.wav
192,192,34150,1,8,0:0:0:0:
320,192,34337,1,8,0:0:0:0:
64,192,34525,1,8,0:0:0:0:
192,192,34712,1,8,0:0:0:0:
320,192,34900,1,0,0:0:0:50:C#7S_Db7S.wav
448,192,35275,128,8,35650:0:0:0:0:
192,192,35650,1,8,0:0:0:0:
64,192,35837,1,8,0:0:0:0:
320,192,36025,1,0,0:0:0:50:B6S.wav
64,192,36400,1,8,0:0:0:0:
448,192,36587,1,8,0:0:0:0:
64,192,36775,1,8,0:0:0:0:
448,192,36962,1,8,0:0:0:0:
192,192,37150,128,8,37525:0:0:0:0:
320,192,37525,128,8,37900:0:0:0:0:
448,192,37900,1,8,0:0:0:0:
64,192,38087,1,8,0:0:0:0:
192,192,38275,1,0,0:0:0:50:G#6S_Ab6S.wav
448,192,38462,1,0,0:0:0:40:B6S.wav
320,192,38650,1,8,0:0:0:0:
192,192,38837,1,8,0:0:0:0:
448,192,39025,1,8,0:0:0:0:
64,192,39212,1,8,0:0:0:0:
192,192,39400,1,0,0:0:0:40:G3S.wav
320,192,39775,128,8,40150:0:0:0:0:
64,192,40150,1,8,0:0:0:0:
192,192,40337,1,8,0:0:0:0:
448,192,40525,1,0,0:0:0:50:G#6S_Ab6S.wav
64,192,40712,1,0,0:0:0:40:F#6S_Gb6S.wav
320,192,40900,1,8,0:0:0:0:
448,192,41087,1,8,0:0:0:0:
192,192,41275,1,8,0:0:0:0:
320,192,41462,1,8,0:0:0:0:
64,192,41650,128,8,42025:0:0:0:0:
320,192,42025,128,8,42400:0:0:0:0:
192,192,42400,1,8,0:0:0:0:
448,192,42587,1,8,0:0:0:0:
64,192,42761,1,4,0:0:0:0:
192,192,42761,1,0,0:0:0:70:C#7S_Db7S.wav
448,192,43985,1,0,0:0:0:70:F#7S_Gb7S.wav
192,192,44505,1,0,0:0:0:20:G3S.wav
320,192,45015,1,0,0:0:0:20:G3S.wav
192,192,45586,1,0,0:0:0:40:G3S.wav
320,192,46141,1,0,0:0:0:20:G3S.wav
192,192,46589,1,0,0:0:0:30:G3S.wav
320,192,46972,128,0,47935:0:0:0:30:G3S.wav
64,192,47935,1,6,0:0:0:0:
448,192,48195,1,0,0:0:0:50:A6S.wav
192,192,48456,1,0,0:0:0:50:C#7S_Db7S.wav
320,192,48587,1,2,0:0:0:0:
64,192,48717,128,0,48978:0:0:0:50:F#6S_Gb6S.wav
448,192,48978,128,0,49500:0:0:0:50:F#6S_Gb6S.wav
192,192,49369,1,2,0:0:0:0:
64,192,49500,1,2,0:0:0:0:
320,192,49891,1,0,0:0:0:50:E6S.wav
64,192,50021,128,0,50282:0:0:0:50:F#6S_Gb6S.wav
448,192,50282,1,2,0:0:0:0:
192,192,50543,1,2,0:0:0:0:
320,192,50804,128,0,51065:0:0:0:40:Xnare.wav
64,192,51065,128,2,51326:0:0:0:0:
448,192,51326,128,0,51587:0:0:0:30:A5S_s.wav
320,192,51587,128,2,51848:0:0:0:0:
192,192,51848,1,0,0:0:0:50:C7S.wav
448,192,52108,1,0,0:0:0:50:E6S.wav
64,192,52239,1,0,0:0:0:100:A6S.wav
448,192,52369,1,0,0:0:0:50:C7S.wav
192,192,52500,1,2,0:0:0:0:
320,192,52630,1,2,0:0:0:0:
64,192,52891,1,0,0:0:0:50:D7S.wav
448,192,53152,1,2,0:0:0:0:
192,192,53413,1,0,0:0:0:50:F#6S_Gb6S.wav
320,192,53674,128,2,53934:0:0:0:0:
64,192,53934,128,2,54195:0:0:0:0:
448,192,54195,1,2,0:0:0:0:
192,192,54456,128,0,54717:0:0:0:50:D6S.wav
320,192,54717,128,0,54978:0:0:0:35:G6S.wav
64,192,54978,1,0,0:0:0:70:Xnare.wav
192,192,55239,1,2,0:0:0:0:
448,192,55369,1,0,0:0:0:50:G6S.wav
192,192,55500,1,0,0:0:0:70:Xnare.wav
320,192,55630,1,0,0:0:0:100:A#6S_Bb6S.wav
64,192,55761,1,2,0:0:0:0:
448,192,56021,128,2,56282:0:0:0:0:
320,192,56282,1,2,0:0:0:0:
64,192,56413,1,0,0:0:0:70:Xnare.wav
192,192,56543,1,0,0:0:0:70:Xnare.wav
448,192,56804,1,2,0:0:0:0:
64,192,56934,1,2,0:0:0:0:
320,192,57065,1,0,0:0:0:50:C8S.wav
192,192,57326,1,0,0:0:0:20:G5S_s.wav
320,192,57456,1,0,0:0:0:20:G5S_s.wav
192,192,57587,1,0,0:0:0:20:G5S_s.wav
448,192,57848,128,0,58108:0:0:0:50:A#7S_Bb7S.wav
64,192,58108,1,0,0:0:0:20:F5S_s.wav
320,192,58239,1,0,0:0:0:20:F5S_s.wav
64,192,58369,1,0,0:0:0:20:F5S_s.wav
448,192,58500,1,2,0:0:0:0:
192,192,58630,1,0,0:0:0:50:F7S.wav
320,192,58891,1,0,0:0:0:100:D#7S_Eb7S.wav
64,192,59021,1,0,0:0:0:100:D#7S_Eb7S.wav
320,192,59152,1,0,0:0:0:100:D#7S_Eb7S.wav
192,192,59282,1,2,0:0:0:0:
448,192,59413,1,2,0:0:0:0:
64,192,59543,1,2,0:0:0:0:
448,192,59674,1,0,0:0:0:50:D#7S_Eb7S.wav
192,192,59934,128,0,60195:0:0:0:50:C8S.wav
320,192,60195,1,0,0:0:0:70:Xnare.wav
64,192,60456,1,0,0:0:0:20:G5S_s.wav
448,192,60587,1,0,0:0:0:20:G5S_s.wav
64,192,60717,1,0,0:0:0:20:G5S_s.wav
448,192,60978,1,0,0:0:0:100:C8S.wav
192,192,61108,1,0,0:0:0:100:G7S.wav
320,192,61239,1,0,0:0:0:20:F5S_s.wav
64,192,61369,1,0,0:0:0:20:F5S_s.wav
320,192,61500,1,0,0:0:0:20:F5S_s.wav
192,192,61630,1,2,0:0:0:0:
448,192,61761,1,0,0:0:0:70:Xnare.wav
320,192,62021,1,0,0:0:0:20:F5S_s.wav
64,192,62152,1,0,0:0:0:20:F5S_s.wav
320,192,62282,1,0,0:0:0:20:F5S_s.wav
192,192,62413,1,2,0:0:0:0:
64,192,62543,1,2,0:0:0:0:
448,192,62792,1,2,0:0:0:0:
320,192,62927,1,0,0:0:0:30:G4S_s.wav
192,192,63062,1,0,0:0:0:30:B4S_s.wav
448,192,63197,1,0,0:0:0:40:G4S_s.wav
64,192,63332,1,0,0:0:0:40:B4S_s.wav
320,192,63466,1,0,0:0:0:40:D5S_s.wav
192,192,63605,1,0,0:0:0:40:B4S_s.wav
448,192,63749,1,0,0:0:0:40:D5S_s.wav
64,192,63894,1,0,0:0:0:40:G5S_s.wav
320,192,64039,1,0,0:0:0:40:D5S_s.wav
448,192,64184,1,0,0:0:0:40:G5S_s.wav
192,192,64332,1,0,0:0:0:40:B5S_s.wav
64,192,64481,1,0,0:0:0:50:D5S_s.wav
320,192,64635,1,0,0:0:0:50:G5S_s.wav
448,192,64796,1,0,0:0:0:50:B5S_s.wav
64,192,64957,1,0,0:0:0:50:G5S_s.wav
192,192,65120,1,0,0:0:0:50:B5S_s.wav
320,192,65283,1,0,0:0:0:60:D6S_s.wav
448,192,65446,1,0,0:0:0:60:B5S_s.wav
192,192,65616,1,0,0:0:0:60:D6S_s.wav
320,192,65791,1,0,0:0:0:60:G6S_s.wav
64,192,65966,1,0,0:0:0:60:D6S_s.wav
320,192,66149,1,0,0:0:0:60:G6S_s.wav
192,192,66332,1,0,0:0:0:60:B6S_s.wav
64,192,66497,1,0,0:0:0:70:F3S.wav
448,192,66497,1,0,0:0:0:70:E6S.wav
192,192,67059,1,0,0:0:0:70:D6S.wav
320,192,67247,1,0,0:0:0:70:D6S.wav
448,192,67434,1,0,0:0:0:70:E6S.wav
64,192,67622,1,0,0:0:0:70:D6S.wav
192,192,67997,1,0,0:0:0:50:G5S_s.wav
192,192,68372,1,0,0:0:0:50:G5S_s.wav
448,192,68747,1,0,0:0:0:70:G3S.wav
64,192,69309,1,0,0:0:0:70:D6S.wav
448,192,69497,1,0,0:0:0:70:D6S.wav
320,192,69684,1,0,0:0:0:70:E6S.wav
192,192,69872,1,0,0:0:0:70:C8S.wav
448,192,70247,1,0,0:0:0:70:D8S.wav
192,192,70622,1,0,0:0:0:70:E8S.wav
320,192,70997,1,0,0:0:0:70:E3S.wav
64,192,71372,1,0,0:0:0:50:G5S_s.wav
64,192,71747,1,0,0:0:0:50:G5S_s.wav
320,192,72497,1,0,0:0:0:70:F8S.wav
320,192,72872,1,0,0:0:0:70:E8S.wav
192,192,73247,1,0,0:0:0:30:A3S.wav
448,192,73622,1,0,0:0:0:70:E5S_s.wav
448,192,73997,1,0,0:0:0:70:C8S.wav
64,192,74372,1,0,0:0:0:30:A3S.wav
320,192,75122,1,0,0:0:0:70:C8S.wav
192,192,75497,1,0,0:0:0:50:F3S.wav
448,192,76059,1,0,0:0:0:70:D6S.wav
64,192,76247,1,0,0:0:0:70:D6S.wav
192,192,76434,1,0,0:0:0:70:E6S.wav
320,192,76622,1,0,0:0:0:30:F3S.wav
448,192,76997,1,0,0:0:0:70:F8S.wav
448,192,77372,1,0,0:0:0:70:E8S.wav
64,192,77747,1,0,0:0:0:50:G3S.wav
320,192,78309,1,0,0:0:0:70:D6S.wav
192,192,78497,1,0,0:0:0:50:E6S.wav
64,192,78684,1,0,0:0:0:70:D7S.wav
448,192,78872,1,0,0:0:0:70:G6S.wav
320,192,79247,1,0,0:0:0:70:B8S.wav
320,192,79622,1,0,0:0:0:50:C9.wav
192,192,79997,1,0,0:0:0:70:B6S.wav
64,192,80372,1,0,0:0:0:50:G5S_s.wav
64,192,80747,1,0,0:0:0:50:G5S_s.wav
448,192,81122,1,0,0:0:0:50:D9.wav
192,192,81684,1,0,0:0:0:70:A6S.wav
320,192,81872,1,0,0:0:0:70:G6S.wav
448,192,82059,1,0,0:0:0:70:D7S.wav
64,192,82247,1,0,0:0:0:30:G5S.wav
448,192,82809,1,0,0:0:0:70:C6S.wav
192,192,82997,1,0,0:0:0:70:A5S.wav
64,192,83184,1,0,0:0:0:70:G5S.wav
448,192,83372,1,0,0:0:0:70:F5S.wav
320,192,84122,1,0,0:0:0:70:C6S.wav
192,192,84497,1,4,0:0:0:0:
448,192,84684,1,0,0:0:0:70:A5S.wav
64,192,84872,1,8,0:0:0:0:
192,192,85059,1,8,0:0:0:0:
320,192,85247,1,8,0:0:0:0:
64,192,85434,1,8,0:0:0:0:
448,192,85622,1,0,0:0:0:70:B5S.wav
192,192,85997,128,8,86372:0:0:0:0:
320,192,86372,1,8,0:0:0:0:
448,192,86559,1,8,0:0:0:0:
64,192,86747,1,0,0:0:0:70:B5S.wav
192,192,86934,1,0,0:0:0:70:A5S.wav
448,192,87122,1,8,0:0:0:0:
64,192,87309,1,8,0:0:0:0:
320,192,87497,1,8,0:0:0:0:
192,192,87684,1,8,0:0:0:0:
64,192,87872,128,8,88247:0:0:0:0:
320,192,88247,128,8,88622:0:0:0:0:
192,192,88622,1,8,0:0:0:0:
64,192,88809,1,8,0:0:0:0:
448,192,88997,1,0,0:0:0:50:A#3S_Bb3S.wav
320,192,89184,1,0,0:0:0:70:D6S.wav
64,192,89372,1,8,0:0:0:0:
448,192,89559,1,8,0:0:0:0:
192,192,89747,1,8,0:0:0:0:
64,192,89934,1,8,0:0:0:0:
320,192,90122,1,0,0:0:0:70:E6S.wav
192,192,90497,128,8,90872:0:0:0:0:
320,192,90872,1,8,0:0:0:0:
448,192,91059,1,8,0:0:0:0:
64,192,91247,1,0,0:0:0:70:D6S.wav
320,192,91622,1,8,0:0:0:15:soft-hitclap.wav
192,192,91809,1,8,0:0:0:15:soft-hitclap.wav
320,192,91997,1,8,0:0:0:15:soft-hitclap.wav
192,192,92184,1,8,0:0:0:15:soft-hitclap.wav
448,192,92372,128,8,92747:0:0:0:0:
64,192,92747,128,8,93122:0:0:0:0:
192,192,93122,1,8,0:0:0:0:
320,192,93309,1,8,0:0:0:0:
448,192,93497,1,0,0:0:0:70:B5S.wav
64,192,93684,1,0,0:0:0:70:A5S.wav
320,192,93872,1,8,0:0:0:0:
192,192,94059,1,8,0:0:0:0:
448,192,94247,1,8,0:0:0:0:
64,192,94434,1,8,0:0:0:0:
320,192,94622,1,0,0:0:0:70:E6S.wav
192,192,94997,128,8,95372:0:0:0:0:
320,192,95372,1,8,0:0:0:0:
448,192,95559,1,8,0:0:0:0:
64,192,95747,1,0,0:0:0:70:B5S.wav
320,192,95934,1,0,0:0:0:70:A5S.wav
192,192,96122,1,8,0:0:0:0:
448,192,96309,1,8,0:0:0:0:
64,192,96497,1,8,0:0:0:0:
192,192,96684,1,8,0:0:0:0:
320,192,96872,128,8,97247:0:0:0:0:
448,192,97247,128,8,97622:0:0:0:0:
192,192,97622,1,8,0:0:0:0:
64,192,97809,1,8,0:0:0:0:
320,192,97997,1,4,0:0:0:0:
448,192,97997,1,0,0:0:0:50:A#3S_Bb3S.wav
64,192,99229,1,0,0:0:0:70:E6S.wav
320,192,100911,128,0,104836:0:0:0:70:C7S.wav
