osu file format v14

[General]
AudioFilename: audio.mp3
AudioLeadIn: 0
PreviewTime: -1
Countdown: 1
SampleSet: Soft
StackLeniency: 0.7
Mode: 3
LetterboxInBreaks: 0
SpecialStyle: 0
WidescreenStoryboard: 0

[Editor]
DistanceSpacing: 3.3
BeatDivisor: 4
GridSize: 8
TimelineZoom: 1.8

[Metadata]
Title:Lv.0
TitleUnicode:Lv.0
Artist:I.O
ArtistUnicode:I.O
Creator:Combistein
Version:MX
Source:
Tags:
BeatmapID:1719518
BeatmapSetID:820233

[Difficulty]
HPDrainRate:8
CircleSize:4
OverallDifficulty:8
ApproachRate:5
SliderMultiplier:1.4
SliderTickRate:1

[Events]
//Background and Video events
0,0,"lv 0.png",0,0
//Break Periods
//Storyboard Layer 0 (Background)
//Storyboard Layer 1 (Fail)
//Storyboard Layer 2 (Pass)
//Storyboard Layer 3 (Foreground)
//Storyboard Sound Samples

[TimingPoints]
30,375,3,2,1,35,1,0
11280,-100,3,2,1,35,0,0
29280,-100,3,2,1,35,0,0
47931,260.869565217391,3,2,1,35,1,0
47931,-142.857142857143,3,2,1,35,0,0
66512,375,3,2,1,35,1,0
84512,-100,3,2,1,35,0,0
98012,410.958904109589,3,2,1,35,1,0
99244,560.747663551402,3,2,1,35,1,0

[HitObjects]
64,192,30,5,0,0:0:0:70:soft-hitnormal2.wav
192,192,30,1,0,0:0:0:70:soft-hitnormal2.wav
448,192,30,1,0,0:0:0:70:soft-hitnormal2.wav
192,192,592,1,0,0:0:0:70:soft-hitnormal2.wav
448,192,780,1,0,0:0:0:70:soft-hitnormal2.wav
64,192,780,1,0,0:0:0:70:soft-hitnormal2.wav
320,192,967,1,0,0:0:0:70:soft-hitnormal2.wav
192,192,1155,1,0,0:0:0:70:soft-hitnormal2.wav
448,192,1155,1,0,0:0:0:70:soft-hitnormal2.wav
64,192,1717,1,0,0:0:0:70:soft-hitnormal2.wav
448,192,1905,1,0,0:0:0:70:soft-hitnormal2.wav
192,192,2280,1,0,0:0:0:70:soft-hitnormal2.wav
320,192,2280,1,0,0:0:0:70:soft-hitnormal2.wav
64,192,2280,1,0,0:0:0:70:soft-hitnormal2.wav
192,192,2655,1,0,0:0:0:70:soft-hitnormal2.wav
448,192,2842,1,0,0:0:0:70:soft-hitnormal2.wav
320,192,3030,1,0,0:0:0:70:soft-hitnormal2.wav
192,192,3217,1,0,0:0:0:70:soft-hitnormal2.wav
64,192,3405,1,0,0:0:0:70:soft-hitnormal2.wav
448,192,3405,1,0,0:0:0:70:soft-hitnormal2.wav
320,192,3405,1,0,0:0:0:70:soft-hitnormal2.wav
192,192,3967,1,0,0:0:0:70:soft-hitnormal2.wav
448,192,4155,1,0,0:0:0:70:soft-hitnormal2.wav
64,192,4530,1,0,0:0:0:70:soft-hitnormal2.wav
320,192,4530,1,0,0:0:0:70:soft-hitnormal2.wav
192,192,5092,1,0,0:0:0:70:soft-hitnormal2.wav
320,192,5280,1,0,0:0:0:70:soft-hitnormal2.wav
64,192,5655,1,0,0:0:0:70:soft-hitnormal2.wav
192,192,5655,1,0,0:0:0:70:soft-hitnormal2.wav
320,192,6030,1,0,0:0:0:70:soft-hitnormal2.wav
64,192,6405,1,0,0:0:0:70:soft-hitnormal2.wav
448,192,6405,128,0,6780:0:0:0:70:soft-hitnormal2.wav
192,192,6780,1,0,0:0:0:70:soft-hitnormal2.wav
320,192,6780,1,0,0:0:0:70:soft-hitnormal2.wav
64,192,6780,128,0,7905:0:0:0:70:soft-hitnormal2.wav
192,192,7858,1,0,0:0:0:70:soft-hitnormal2.wav
320,192,7905,1,0,0:0:0:70:soft-hitnormal2.wav
448,192,7905,128,0,9030:0:0:0:70:soft-hitnormal2.wav
320,192,8983,1,0,0:0:0:70:soft-hitnormal2.wav
64,192,9030,128,0,11280:0:0:0:70:soft-hitnormal2.wav
192,192,9030,1,0,0:0:0:70:soft-hitnormal2.wav
192,192,11280,1,0,0:0:0:70:soft-hitnormal2.wav
448,192,11280,1,0,0:0:0:70:soft-hitnormal2.wav
64,192,11655,128,0,11842:0:0:0:70:soft-hitnormal2.wav
448,192,11655,128,0,11842:0:0:0:70:soft-hitnormal2.wav
192,192,11842,1,0,0:0:0:70:soft-hitnormal2.wav
64,192,12030,128,0,12405:0:0:0:70:soft-hitnormal2.wav
448,192,12030,128,0,12405:0:0:0:70:soft-hitnormal2.wav
320,192,12030,1,0,0:0:0:70:soft-hitnormal2.wav
192,192,12217,1,0,0:0:0:70:soft-hitnormal2.wav
320,192,12405,128,0,12780:0:0:0:70:soft-hitnormal2.wav
192,192,12780,128,0,12967:0:0:0:70:soft-hitnormal2.wav
64,192,12780,128,0,12967:0:0:0:70:soft-hitnormal2.wav
64,192,13155,128,0,13530:0:0:0:70:soft-hitnormal2.wav
192,192,13155,128,0,13530:0:0:0:70:soft-hitnormal2.wav
320,192,13530,1,0,0:0:0:70:soft-hitnormal2.wav
448,192,13530,1,0,0:0:0:70:soft-hitnormal2.wav
320,192,13905,128,0,14092:0:0:0:70:soft-hitnormal2.wav
64,192,13905,128,0,14092:0:0:0:70:soft-hitnormal2.wav
192,192,14092,1,0,0:0:0:70:soft-hitnormal2.wav
320,192,14280,128,0,14655:0:0:0:70:soft-hitnormal2.wav
64,192,14280,128,0,14655:0:0:0:70:soft-hitnormal2.wav
448,192,14280,1,0,0:0:0:70:soft-hitnormal2.wav
192,192,14467,1,0,0:0:0:70:soft-hitnormal2.wav
448,192,14655,128,0,15217:0:0:0:70:soft-hitnormal2.wav
320,192,15217,1,0,0:0:0:70:soft-hitnormal2.wav
192,192,15405,128,0,15780:0:0:0:70:soft-hitnormal2.wav
64,192,15405,1,0,0:0:0:70:soft-hitnormal2.wav
448,192,15780,1,0,0:0:0:70:soft-hitnormal2.wav
64,192,15780,1,0,0:0:0:70:soft-hitnormal2.wav
192,192,16155,128,0,16342:0:0:0:70:soft-hitnormal2.wav
320,192,16155,128,0,16342:0:0:0:70:soft-hitnormal2.wav
192,192,16530,128,0,16905:0:0:0:70:soft-hitnormal2.wav
320,192,16530,128,0,16905:0:0:0:70:soft-hitnormal2.wav
448,192,16905,128,0,17280:0:0:0:70:soft-hitnormal2.wav
64,192,17280,128,0,17467:0:0:0:70:soft-hitnormal2.wav
192,192,17280,128,0,17467:0:0:0:70:soft-hitnormal2.wav
192,192,17655,128,0,18030:0:0:0:70:soft-hitnormal2.wav
64,192,17655,128,0,18030:0:0:0:70:soft-hitnormal2.wav
320,192,18030,128,0,18405:0:0:0:70:soft-hitnormal2.wav
64,192,18405,128,0,18592:0:0:0:70:soft-hitnormal2.wav
448,192,18405,128,0,18592:0:0:0:70:soft-hitnormal2.wav
64,192,18780,128,0,19155:0:0:0:70:soft-hitnormal2.wav
448,192,18780,128,0,19155:0:0:0:70:soft-hitnormal2.wav
192,192,19155,128,0,19530:0:0:0:70:soft-hitnormal2.wav
320,192,19155,1,0,0:0:0:70:soft-hitnormal2.wav
320,192,19530,1,0,0:0:0:70:soft-hitnormal2.wav
448,192,19717,1,0,0:0:0:70:soft-hitnormal2.wav
64,192,19905,1,0,0:0:0:70:soft-hitnormal2.wav
320,192,19905,1,0,0:0:0:70:soft-hitnormal2.wav
192,192,20092,1,0,0:0:0:70:soft-hitnormal2.wav
320,192,20280,1,0,0:0:0:70:soft-hitnormal2.wav
448,192,20280,1,0,0:0:0:70:soft-hitnormal2.wav
64,192,20655,128,0,20842:0:0:0:70:soft-hitnormal2.wav
320,192,20655,128,0,20842:0:0:0:70:soft-hitnormal2.wav
192,192,20842,1,0,0:0:0:70:soft-hitnormal2.wav
192,192,21030,128,0,21405:0:0:0:70:soft-hitnormal2.wav
448,192,21030,128,0,21405:0:0:0:70:soft-hitnormal2.wav
320,192,21030,1,0,0:0:0:70:soft-hitnormal2.wav
64,192,21217,1,0,0:0:0:70:soft-hitnormal2.wav
320,192,21405,128,0,21780:0:0:0:70:soft-hitnormal2.wav
64,192,21780,128,0,21967:0:0:0:70:soft-hitnormal2.wav
448,192,21780,128,0,21967:0:0:0:70:soft-hitnormal2.wav
64,192,22155,128,0,22530:0:0:0:70:soft-hitnormal2.wav
448,192,22155,128,0,22530:0:0:0:70:soft-hitnormal2.wav
192,192,22530,1,0,0:0:0:70:soft-hitnormal2.wav
320,192,22530,1,0,0:0:0:70:soft-hitnormal2.wav
320,192,22905,128,0,23092:0:0:0:70:soft-hitnormal2.wav
192,192,22905,128,0,23092:0:0:0:70:soft-hitnormal2.wav
64,192,23092,1,0,0:0:0:70:soft-hitnormal2.wav
448,192,23280,128,0,23655:0:0:0:70:soft-hitnormal2.wav
64,192,23280,128,0,23655:0:0:0:70:soft-hitnormal2.wav
320,192,23280,1,0,0:0:0:70:soft-hitnormal2.wav
192,192,23467,1,0,0:0:0:70:soft-hitnormal2.wav
320,192,23655,128,0,24030:0:0:0:70:soft-hitnormal2.wav
64,192,24030,1,0,0:0:0:70:soft-hitnormal2.wav
192,192,24030,128,0,24405:0:0:0:70:soft-hitnormal2.wav
64,192,24405,128,0,24780:0:0:0:70:soft-hitnormal2.wav
448,192,24405,1,0,0:0:0:70:soft-hitnormal2.wav
192,192,24780,1,0,0:0:0:70:soft-hitnormal2.wav
320,192,24780,128,0,25155:0:0:0:70:soft-hitnormal2.wav
448,192,25155,128,0,25342:0:0:0:70:soft-hitnormal2.wav
192,192,25155,128,0,25342:0:0:0:70:soft-hitnormal2.wav
192,192,25530,128,0,25905:0:0:0:70:soft-hitnormal2.wav
448,192,25530,128,0,25905:0:0:0:70:soft-hitnormal2.wav
64,192,25881,1,0,0:0:0:70:soft-hitnormal2.wav
320,192,25905,1,0,0:0:0:70:soft-hitnormal2.wav
448,192,26280,128,0,26467:0:0:0:70:soft-hitnormal2.wav
192,192,26280,128,0,26467:0:0:0:70:soft-hitnormal2.wav
320,192,26655,128,0,27030:0:0:0:70:soft-hitnormal2.wav
64,192,26655,128,0,27030:0:0:0:70:soft-hitnormal2.wav
448,192,27006,1,0,0:0:0:70:soft-hitnormal2.wav
192,192,27030,128,0,27592:0:0:0:70:soft-hitnormal2.wav
64,192,27592,1,0,0:0:0:70:soft-hitnormal2.wav
448,192,27592,1,0,0:0:0:70:soft-hitnormal2.wav
320,192,27780,1,0,0:0:0:70:soft-hitnormal2.wav
192,192,27967,1,0,0:0:0:70:soft-hitnormal2.wav
448,192,27967,1,0,0:0:0:70:soft-hitnormal2.wav
64,192,28155,1,0,0:0:0:70:soft-hitnormal2.wav
320,192,28155,128,0,28530:0:0:0:70:soft-hitnormal2.wav
64,192,28530,128,0,28905:0:0:0:70:soft-hitnormal2.wav
192,192,28530,1,0,0:0:0:70:soft-hitnormal2.wav
448,192,28905,128,0,29280:0:0:0:70:soft-hitnormal2.wav
320,192,28905,1,0,0:0:0:70:soft-hitnormal2.wav
64,192,29280,1,0,0:0:0:70:soft-hitnormal2.wav
192,192,29280,1,0,0:0:0:70:soft-hitnormal2.wav
320,192,29467,1,0,0:0:0:70:soft-hitnormal2.wav
192,192,29655,1,0,0:0:0:70:soft-hitnormal2.wav
448,192,29655,1,0,0:0:0:70:soft-hitnormal2.wav
320,192,29842,1,0,0:0:0:70:soft-hitnormal2.wav
448,192,29842,1,0,0:0:0:70:soft-hitnormal2.wav
64,192,30030,1,0,0:0:0:70:soft-hitnormal2.wav
320,192,30030,1,0,0:0:0:70:soft-hitnormal2.wav
64,192,30217,1,0,0:0:0:70:soft-hitnormal2.wav
192,192,30217,1,0,0:0:0:70:soft-hitnormal2.wav
320,192,30405,1,0,0:0:0:70:soft-hitnormal2.wav
448,192,30405,128,0,30780:0:0:0:70:soft-hitnormal2.wav
64,192,30780,1,0,0:0:0:70:soft-hitnormal2.wav
192,192,30826,1,0,0:0:0:70:soft-hitnormal2.wav
320,192,30873,1,0,0:0:0:70:soft-hitnormal2.wav
448,192,30920,1,0,0:0:0:70:soft-hitnormal2.wav
64,192,30967,1,0,0:0:0:70:soft-hitnormal2.wav
192,192,31014,1,0,0:0:0:70:soft-hitnormal2.wav
320,192,31061,1,0,0:0:0:70:soft-hitnormal2.wav
448,192,31108,1,0,0:0:0:70:soft-hitnormal2.wav
64,192,31155,1,0,0:0:0:70:soft-hitnormal2.wav
192,192,31155,1,0,0:0:0:70:soft-hitnormal2.wav
192,192,31342,1,0,0:0:0:70:soft-hitnormal2.wav
320,192,31342,1,0,0:0:0:70:soft-hitnormal2.wav
320,192,31530,1,0,0:0:0:70:soft-hitnormal2.wav
448,192,31530,1,0,0:0:0:70:soft-hitnormal2.wav
192,192,31717,1,0,0:0:0:70:soft-hitnormal2.wav
320,192,31905,1,0,0:0:0:70:soft-hitnormal2.wav
64,192,31905,1,0,0:0:0:70:soft-hitnormal2.wav
64,192,32092,1,0,0:0:0:70:soft-hitnormal2.wav
192,192,32092,1,0,0:0:0:70:soft-hitnormal2.wav
448,192,32280,1,0,0:0:0:70:soft-hitnormal2.wav
192,192,32280,1,0,0:0:0:70:soft-hitnormal2.wav
320,192,32467,1,0,0:0:0:70:soft-hitnormal2.wav
448,192,32467,1,0,0:0:0:70:soft-hitnormal2.wav
64,192,32655,1,0,0:0:0:70:soft-hitnormal2.wav
192,192,32701,1,0,0:0:0:70:soft-hitnormal2.wav
320,192,32748,1,0,0:0:0:70:soft-hitnormal2.wav
448,192,32795,1,0,0:0:0:70:soft-hitnormal2.wav
64,192,32842,1,0,0:0:0:70:soft-hitnormal2.wav
192,192,32889,1,0,0:0:0:70:soft-hitnormal2.wav
448,192,32936,1,0,0:0:0:70:soft-hitnormal2.wav
320,192,32983,1,0,0:0:0:70:soft-hitnormal2.wav
64,192,33030,1,0,0:0:0:70:soft-hitnormal2.wav
192,192,33030,1,0,0:0:0:70:soft-hitnormal2.wav
448,192,33123,1,0,0:0:0:70:soft-hitnormal2.wav
64,192,33217,1,0,0:0:0:70:soft-hitnormal2.wav
320,192,33217,1,0,0:0:0:70:soft-hitnormal2.wav
448,192,33311,1,0,0:0:0:70:soft-hitnormal2.wav
64,192,33405,1,0,0:0:0:70:soft-hitnormal2.wav
192,192,33405,1,0,0:0:0:70:soft-hitnormal2.wav
320,192,33592,1,0,0:0:0:70:soft-hitnormal2.wav
192,192,33592,1,0,0:0:0:70:soft-hitnormal2.wav
448,192,33780,1,0,0:0:0:70:soft-hitnormal2.wav
64,192,33780,1,0,0:0:0:70:soft-hitnormal2.wav
320,192,33967,1,0,0:0:0:70:soft-hitnormal2.wav
64,192,34155,1,0,0:0:0:70:soft-hitnormal2.wav
192,192,34155,1,0,0:0:0:70:soft-hitnormal2.wav
64,192,34342,1,0,0:0:0:70:soft-hitnormal2.wav
320,192,34342,1,0,0:0:0:70:soft-hitnormal2.wav
320,192,34530,1,0,0:0:0:70:soft-hitnormal2.wav
192,192,34530,1,0,0:0:0:70:soft-hitnormal2.wav
192,192,34717,1,0,0:0:0:70:soft-hitnormal2.wav
448,192,34717,1,0,0:0:0:70:soft-hitnormal2.wav
448,192,34905,128,0,35280:0:0:0:70:soft-hitnormal2.wav
320,192,34905,1,0,0:0:0:70:soft-hitnormal2.wav
64,192,35280,1,0,0:0:0:70:soft-hitnormal2.wav
192,192,35326,1,0,0:0:0:70:soft-hitnormal2.wav
320,192,35373,1,0,0:0:0:70:soft-hitnormal2.wav
448,192,35420,1,0,0:0:0:70:soft-hitnormal2.wav
64,192,35467,1,0,0:0:0:70:soft-hitnormal2.wav
192,192,35514,1,0,0:0:0:70:soft-hitnormal2.wav
320,192,35561,1,0,0:0:0:70:soft-hitnormal2.wav
448,192,35608,1,0,0:0:0:70:soft-hitnormal2.wav
192,192,35655,1,0,0:0:0:70:soft-hitnormal2.wav
64,192,35655,1,0,0:0:0:70:soft-hitnormal2.wav
192,192,35842,1,0,0:0:0:70:soft-hitnormal2.wav
448,192,35842,1,0,0:0:0:70:soft-hitnormal2.wav
448,192,36030,1,0,0:0:0:70:soft-hitnormal2.wav
320,192,36030,1,0,0:0:0:70:soft-hitnormal2.wav
64,192,36030,128,0,36217:0:0:0:70:soft-hitnormal2.wav
192,192,36217,128,0,36405:0:0:0:70:soft-hitnormal2.wav
448,192,36405,128,0,36592:0:0:0:70:soft-hitnormal2.wav
320,192,36405,1,0,0:0:0:70:soft-hitnormal2.wav
320,192,36592,128,0,36780:0:0:0:70:soft-hitnormal2.wav
64,192,36592,1,0,0:0:0:70:soft-hitnormal2.wav
448,192,36780,1,0,0:0:0:70:soft-hitnormal2.wav
192,192,36780,128,0,36967:0:0:0:70:soft-hitnormal2.wav
64,192,36967,128,0,37155:0:0:0:70:soft-hitnormal2.wav
320,192,36967,1,0,0:0:0:70:soft-hitnormal2.wav
448,192,37155,1,0,0:0:0:70:soft-hitnormal2.wav
320,192,37201,1,0,0:0:0:70:soft-hitnormal2.wav
64,192,37248,1,0,0:0:0:70:soft-hitnormal2.wav
192,192,37295,1,0,0:0:0:70:soft-hitnormal2.wav
448,192,37342,1,0,0:0:0:70:soft-hitnormal2.wav
320,192,37389,1,0,0:0:0:70:soft-hitnormal2.wav
64,192,37436,1,0,0:0:0:70:soft-hitnormal2.wav
192,192,37483,1,0,0:0:0:70:soft-hitnormal2.wav
320,192,37530,1,0,0:0:0:70:soft-hitnormal2.wav
448,192,37530,1,0,0:0:0:70:soft-hitnormal2.wav
64,192,37623,1,0,0:0:0:70:soft-hitnormal2.wav
192,192,37623,1,0,0:0:0:70:soft-hitnormal2.wav
320,192,37717,1,0,0:0:0:70:soft-hitnormal2.wav
448,192,37811,1,0,0:0:0:70:soft-hitnormal2.wav
64,192,37811,1,0,0:0:0:70:soft-hitnormal2.wav
192,192,37905,1,0,0:0:0:70:soft-hitnormal2.wav
320,192,37905,1,0,0:0:0:70:soft-hitnormal2.wav
192,192,38092,1,0,0:0:0:70:soft-hitnormal2.wav
448,192,38092,1,0,0:0:0:70:soft-hitnormal2.wav
320,192,38280,1,0,0:0:0:70:soft-hitnormal2.wav
64,192,38280,1,0,0:0:0:70:soft-hitnormal2.wav
192,192,38467,1,0,0:0:0:70:soft-hitnormal2.wav
320,192,38655,1,0,0:0:0:70:soft-hitnormal2.wav
448,192,38655,1,0,0:0:0:70:soft-hitnormal2.wav
448,192,38842,1,0,0:0:0:70:soft-hitnormal2.wav
192,192,38842,1,0,0:0:0:70:soft-hitnormal2.wav
64,192,39030,1,0,0:0:0:70:soft-hitnormal2.wav
192,192,39030,1,0,0:0:0:70:soft-hitnormal2.wav
64,192,39217,1,0,0:0:0:70:soft-hitnormal2.wav
448,192,39217,1,0,0:0:0:70:soft-hitnormal2.wav
320,192,39405,1,0,0:0:0:70:soft-hitnormal2.wav
192,192,39405,128,0,39780:0:0:0:70:soft-hitnormal2.wav
448,192,39780,1,0,0:0:0:70:soft-hitnormal2.wav
320,192,39826,1,0,0:0:0:70:soft-hitnormal2.wav
64,192,39873,1,0,0:0:0:70:soft-hitnormal2.wav
192,192,39920,1,0,0:0:0:70:soft-hitnormal2.wav
448,192,39967,1,0,0:0:0:70:soft-hitnormal2.wav
320,192,40014,1,0,0:0:0:70:soft-hitnormal2.wav
192,192,40061,1,0,0:0:0:70:soft-hitnormal2.wav
64,192,40108,1,0,0:0:0:70:soft-hitnormal2.wav
448,192,40155,1,0,0:0:0:70:soft-hitnormal2.wav
320,192,40155,1,0,0:0:0:70:soft-hitnormal2.wav
448,192,40342,1,0,0:0:0:70:soft-hitnormal2.wav
192,192,40342,1,0,0:0:0:70:soft-hitnormal2.wav
192,192,40530,1,0,0:0:0:70:soft-hitnormal2.wav
320,192,40530,1,0,0:0:0:70:soft-hitnormal2.wav
64,192,40717,1,0,0:0:0:70:soft-hitnormal2.wav
448,192,40717,1,0,0:0:0:70:soft-hitnormal2.wav
192,192,40905,1,0,0:0:0:70:soft-hitnormal2.wav
320,192,40905,1,0,0:0:0:70:soft-hitnormal2.wav
192,192,41092,1,0,0:0:0:70:soft-hitnormal2.wav
320,192,41092,1,0,0:0:0:70:soft-hitnormal2.wav
64,192,41280,1,0,0:0:0:70:soft-hitnormal2.wav
448,192,41280,1,0,0:0:0:70:soft-hitnormal2.wav
448,192,41467,1,0,0:0:0:70:soft-hitnormal2.wav
64,192,41467,1,0,0:0:0:70:soft-hitnormal2.wav
320,192,41655,1,0,0:0:0:70:soft-hitnormal2.wav
448,192,41701,1,0,0:0:0:70:soft-hitnormal2.wav
192,192,41748,1,0,0:0:0:70:soft-hitnormal2.wav
64,192,41795,1,0,0:0:0:70:soft-hitnormal2.wav
320,192,41842,1,0,0:0:0:70:soft-hitnormal2.wav
448,192,41889,1,0,0:0:0:70:soft-hitnormal2.wav
192,192,41936,1,0,0:0:0:70:soft-hitnormal2.wav
64,192,41983,1,0,0:0:0:70:soft-hitnormal2.wav
320,192,42030,1,0,0:0:0:70:soft-hitnormal2.wav
448,192,42030,1,0,0:0:0:70:soft-hitnormal2.wav
192,192,42123,1,0,0:0:0:70:soft-hitnormal2.wav
64,192,42123,1,0,0:0:0:70:soft-hitnormal2.wav
320,192,42217,1,0,0:0:0:70:soft-hitnormal2.wav
448,192,42217,1,0,0:0:0:70:soft-hitnormal2.wav
64,192,42311,1,0,0:0:0:70:soft-hitnormal2.wav
192,192,42311,1,0,0:0:0:70:soft-hitnormal2.wav
448,192,42405,1,0,0:0:0:70:soft-hitnormal2.wav
320,192,42405,1,0,0:0:0:70:soft-hitnormal2.wav
192,192,42592,1,0,0:0:0:70:soft-hitnormal2.wav
320,192,42592,1,0,0:0:0:70:soft-hitnormal2.wav
64,192,42780,128,0,43998:0:0:0:70:soft-hitnormal2.wav
448,192,42780,128,0,43998:0:0:0:70:soft-hitnormal2.wav
320,192,42780,128,0,42826:0:0:0:70:soft-hitnormal2.wav
192,192,42780,128,0,42826:0:0:0:70:soft-hitnormal2.wav
192,192,43998,128,0,44498:0:0:0:70:soft-hitnormal2.wav
320,192,43998,1,0,0:0:0:70:soft-hitnormal2.wav
320,192,44498,128,0,45006:0:0:0:70:soft-hitnormal2.wav
448,192,45006,128,0,45569:0:0:0:70:soft-hitnormal2.wav
64,192,45569,128,0,46155:0:0:0:70:soft-hitnormal2.wav
320,192,45569,1,0,0:0:0:70:soft-hitnormal2.wav
192,192,46155,128,0,46592:0:0:0:70:soft-hitnormal2.wav
448,192,46365,128,0,46592:0:0:0:70:soft-hitnormal2.wav
320,192,46592,128,0,46998:0:0:0:70:soft-hitnormal2.wav
448,192,46998,128,0,47186:0:0:0:70:soft-hitnormal2.wav
320,192,47186,128,0,47350:0:0:0:70:soft-hitnormal2.wav
192,192,47350,128,0,47537:0:0:0:70:soft-hitnormal2.wav
320,192,47537,128,0,47842:0:0:0:70:soft-hitnormal2.wav
448,192,47537,128,0,47842:0:0:0:70:soft-hitnormal2.wav
64,192,47931,1,0,0:0:0:70:soft-hitnormal2.wav
192,192,47931,1,0,0:0:0:70:soft-hitnormal2.wav
192,192,48061,1,0,0:0:0:70:soft-hitnormal2.wav
448,192,48191,1,0,0:0:0:70:soft-hitnormal2.wav
320,192,48191,1,0,0:0:0:70:soft-hitnormal2.wav
64,192,48322,1,0,0:0:0:70:soft-hitnormal2.wav
192,192,48452,1,0,0:0:0:70:soft-hitnormal2.wav
448,192,48452,1,0,0:0:0:70:soft-hitnormal2.wav
320,192,48583,1,0,0:0:0:70:soft-hitnormal2.wav
64,192,48713,1,0,0:0:0:70:soft-hitnormal2.wav
192,192,48713,1,0,0:0:0:70:soft-hitnormal2.wav
448,192,48713,1,0,0:0:0:70:soft-hitnormal2.wav
320,192,48844,1,0,0:0:0:70:soft-hitnormal2.wav
192,192,48974,1,0,0:0:0:70:soft-hitnormal2.wav
64,192,49039,1,0,0:0:0:70:soft-hitnormal2.wav
320,192,49104,1,0,0:0:0:70:soft-hitnormal2.wav
448,192,49170,1,0,0:0:0:70:soft-hitnormal2.wav
64,192,49235,1,0,0:0:0:70:soft-hitnormal2.wav
192,192,49300,1,0,0:0:0:70:soft-hitnormal2.wav
320,192,49365,1,0,0:0:0:70:soft-hitnormal2.wav
448,192,49365,1,0,0:0:0:70:soft-hitnormal2.wav
192,192,49496,1,0,0:0:0:70:soft-hitnormal2.wav
320,192,49496,1,0,0:0:0:70:soft-hitnormal2.wav
64,192,49626,1,0,0:0:0:70:soft-hitnormal2.wav
320,192,49757,1,0,0:0:0:70:soft-hitnormal2.wav
448,192,49757,1,0,0:0:0:70:soft-hitnormal2.wav
192,192,49887,1,0,0:0:0:70:soft-hitnormal2.wav
64,192,50017,1,0,0:0:0:70:soft-hitnormal2.wav
448,192,50017,1,0,0:0:0:70:soft-hitnormal2.wav
320,192,50148,1,0,0:0:0:70:soft-hitnormal2.wav
192,192,50213,1,0,0:0:0:70:soft-hitnormal2.wav
64,192,50278,1,0,0:0:0:70:soft-hitnormal2.wav
448,192,50278,1,0,0:0:0:70:soft-hitnormal2.wav
320,192,50278,1,0,0:0:0:70:soft-hitnormal2.wav
192,192,50409,1,0,0:0:0:70:soft-hitnormal2.wav
320,192,50539,1,0,0:0:0:70:soft-hitnormal2.wav
448,192,50539,1,0,0:0:0:70:soft-hitnormal2.wav
64,192,50670,1,0,0:0:0:70:soft-hitnormal2.wav
320,192,50800,1,0,0:0:0:70:soft-hitnormal2.wav
448,192,50800,1,0,0:0:0:70:soft-hitnormal2.wav
192,192,50865,1,0,0:0:0:70:soft-hitnormal2.wav
64,192,50931,1,0,0:0:0:70:soft-hitnormal2.wav
448,192,50996,1,0,0:0:0:70:soft-hitnormal2.wav
320,192,51061,1,0,0:0:0:70:soft-hitnormal2.wav
192,192,51061,1,0,0:0:0:70:soft-hitnormal2.wav
64,192,51126,1,0,0:0:0:70:soft-hitnormal2.wav
192,192,51191,1,0,0:0:0:70:soft-hitnormal2.wav
320,192,51257,1,0,0:0:0:70:soft-hitnormal2.wav
448,192,51322,1,0,0:0:0:70:soft-hitnormal2.wav
320,192,51387,1,0,0:0:0:70:soft-hitnormal2.wav
192,192,51452,1,0,0:0:0:70:soft-hitnormal2.wav
320,192,51517,1,0,0:0:0:70:soft-hitnormal2.wav
192,192,51583,1,0,0:0:0:70:soft-hitnormal2.wav
64,192,51648,1,0,0:0:0:70:soft-hitnormal2.wav
192,192,51713,1,0,0:0:0:70:soft-hitnormal2.wav
320,192,51778,1,0,0:0:0:70:soft-hitnormal2.wav
448,192,51844,1,0,0:0:0:70:soft-hitnormal2.wav
64,192,51844,1,0,0:0:0:70:soft-hitnormal2.wav
192,192,51844,1,0,0:0:0:70:soft-hitnormal2.wav
448,192,51974,1,0,0:0:0:70:soft-hitnormal2.wav
320,192,52104,1,0,0:0:0:70:soft-hitnormal2.wav
64,192,52104,1,0,0:0:0:70:soft-hitnormal2.wav
192,192,52235,1,0,0:0:0:70:soft-hitnormal2.wav
320,192,52365,1,0,0:0:0:70:soft-hitnormal2.wav
448,192,52365,1,0,0:0:0:70:soft-hitnormal2.wav
192,192,52496,1,0,0:0:0:70:soft-hitnormal2.wav
64,192,52496,1,0,0:0:0:70:soft-hitnormal2.wav
320,192,52561,1,0,0:0:0:70:soft-hitnormal2.wav
448,192,52626,1,0,0:0:0:70:soft-hitnormal2.wav
64,192,52626,1,0,0:0:0:70:soft-hitnormal2.wav
192,192,52757,1,0,0:0:0:70:soft-hitnormal2.wav
192,192,52887,1,0,0:0:0:70:soft-hitnormal2.wav
320,192,53017,1,0,0:0:0:70:soft-hitnormal2.wav
320,192,53148,1,0,0:0:0:70:soft-hitnormal2.wav
448,192,53278,1,0,0:0:0:70:soft-hitnormal2.wav
320,192,53409,1,0,0:0:0:70:soft-hitnormal2.wav
192,192,53409,1,0,0:0:0:70:soft-hitnormal2.wav
64,192,53409,1,0,0:0:0:70:soft-hitnormal2.wav
448,192,53539,1,0,0:0:0:70:soft-hitnormal2.wav
448,192,53670,1,0,0:0:0:70:soft-hitnormal2.wav
320,192,53800,1,0,0:0:0:70:soft-hitnormal2.wav
320,192,53930,1,0,0:0:0:70:soft-hitnormal2.wav
192,192,53996,1,0,0:0:0:70:soft-hitnormal2.wav
64,192,54061,1,0,0:0:0:70:soft-hitnormal2.wav
192,192,54126,1,0,0:0:0:70:soft-hitnormal2.wav
320,192,54191,1,0,0:0:0:70:soft-hitnormal2.wav
448,192,54191,1,0,0:0:0:70:soft-hitnormal2.wav
64,192,54322,1,0,0:0:0:70:soft-hitnormal2.wav
320,192,54452,1,0,0:0:0:70:soft-hitnormal2.wav
448,192,54452,128,0,54583:0:0:0:70:soft-hitnormal2.wav
192,192,54583,1,0,0:0:0:70:soft-hitnormal2.wav
64,192,54713,1,0,0:0:0:70:soft-hitnormal2.wav
320,192,54713,1,0,0:0:0:70:soft-hitnormal2.wav
448,192,54844,1,0,0:0:0:70:soft-hitnormal2.wav
320,192,54909,1,0,0:0:0:70:soft-hitnormal2.wav
192,192,54974,1,0,0:0:0:70:soft-hitnormal2.wav
64,192,54974,1,0,0:0:0:70:soft-hitnormal2.wav
448,192,55104,1,0,0:0:0:70:soft-hitnormal2.wav
320,192,55235,1,0,0:0:0:70:soft-hitnormal2.wav
64,192,55235,1,0,0:0:0:70:soft-hitnormal2.wav
192,192,55365,1,0,0:0:0:70:soft-hitnormal2.wav
320,192,55496,1,0,0:0:0:70:soft-hitnormal2.wav
448,192,55496,1,0,0:0:0:70:soft-hitnormal2.wav
64,192,55496,1,0,0:0:0:70:soft-hitnormal2.wav
192,192,55626,1,0,0:0:0:70:soft-hitnormal2.wav
320,192,55626,1,0,0:0:0:70:soft-hitnormal2.wav
64,192,55757,1,0,0:0:0:70:soft-hitnormal2.wav
448,192,55757,1,0,0:0:0:70:soft-hitnormal2.wav
320,192,55887,1,0,0:0:0:70:soft-hitnormal2.wav
448,192,56017,1,0,0:0:0:70:soft-hitnormal2.wav
192,192,56017,1,0,0:0:0:70:soft-hitnormal2.wav
320,192,56148,1,0,0:0:0:70:soft-hitnormal2.wav
192,192,56278,1,0,0:0:0:70:soft-hitnormal2.wav
64,192,56278,1,0,0:0:0:70:soft-hitnormal2.wav
448,192,56409,1,0,0:0:0:70:soft-hitnormal2.wav
320,192,56474,1,0,0:0:0:70:soft-hitnormal2.wav
192,192,56539,1,0,0:0:0:70:soft-hitnormal2.wav
64,192,56539,1,0,0:0:0:70:soft-hitnormal2.wav
320,192,56670,1,0,0:0:0:70:soft-hitnormal2.wav
64,192,56800,1,0,0:0:0:70:soft-hitnormal2.wav
448,192,56800,1,0,0:0:0:70:soft-hitnormal2.wav
448,192,56930,1,0,0:0:0:70:soft-hitnormal2.wav
64,192,57061,1,0,0:0:0:70:soft-hitnormal2.wav
192,192,57061,128,0,57191:0:0:0:70:soft-hitnormal2.wav
320,192,57061,128,0,57257:0:0:0:70:soft-hitnormal2.wav
64,192,57322,1,0,0:0:0:70:soft-hitnormal2.wav
448,192,57322,1,0,0:0:0:70:soft-hitnormal2.wav
448,192,57452,1,0,0:0:0:70:soft-hitnormal2.wav
64,192,57452,1,0,0:0:0:70:soft-hitnormal2.wav
64,192,57583,1,0,0:0:0:70:soft-hitnormal2.wav
448,192,57583,1,0,0:0:0:70:soft-hitnormal2.wav
192,192,57713,1,0,0:0:0:70:soft-hitnormal2.wav
448,192,57844,1,0,0:0:0:70:soft-hitnormal2.wav
320,192,57909,1,0,0:0:0:70:soft-hitnormal2.wav
192,192,57974,1,0,0:0:0:70:soft-hitnormal2.wav
64,192,58039,1,0,0:0:0:70:soft-hitnormal2.wav
192,192,58104,1,0,0:0:0:70:soft-hitnormal2.wav
320,192,58104,1,0,0:0:0:70:soft-hitnormal2.wav
192,192,58235,1,0,0:0:0:70:soft-hitnormal2.wav
320,192,58235,1,0,0:0:0:70:soft-hitnormal2.wav
320,192,58365,1,0,0:0:0:70:soft-hitnormal2.wav
192,192,58365,1,0,0:0:0:70:soft-hitnormal2.wav
448,192,58496,1,0,0:0:0:70:soft-hitnormal2.wav
64,192,58496,1,0,0:0:0:70:soft-hitnormal2.wav
192,192,58626,1,0,0:0:0:70:soft-hitnormal2.wav
320,192,58626,1,0,0:0:0:70:soft-hitnormal2.wav
448,192,58757,1,0,0:0:0:70:soft-hitnormal2.wav
320,192,58887,1,0,0:0:0:70:soft-hitnormal2.wav
64,192,58887,1,0,0:0:0:70:soft-hitnormal2.wav
64,192,59017,1,0,0:0:0:70:soft-hitnormal2.wav
320,192,59017,1,0,0:0:0:70:soft-hitnormal2.wav
320,192,59148,1,0,0:0:0:70:soft-hitnormal2.wav
64,192,59148,1,0,0:0:0:70:soft-hitnormal2.wav
192,192,59278,1,0,0:0:0:70:soft-hitnormal2.wav
320,192,59409,1,0,0:0:0:70:soft-hitnormal2.wav
448,192,59409,1,0,0:0:0:70:soft-hitnormal2.wav
64,192,59539,1,0,0:0:0:70:soft-hitnormal2.wav
192,192,59670,1,0,0:0:0:70:soft-hitnormal2.wav
320,192,59670,1,0,0:0:0:70:soft-hitnormal2.wav
448,192,59670,128,0,59800:0:0:0:70:soft-hitnormal2.wav
320,192,59800,128,0,59930:0:0:0:70:soft-hitnormal2.wav
64,192,59800,128,0,59930:0:0:0:70:soft-hitnormal2.wav
192,192,59930,128,0,60061:0:0:0:70:soft-hitnormal2.wav
320,192,60061,1,0,0:0:0:70:soft-hitnormal2.wav
448,192,60061,1,0,0:0:0:70:soft-hitnormal2.wav
64,192,60191,1,0,0:0:0:70:soft-hitnormal2.wav
192,192,60191,1,0,0:0:0:70:soft-hitnormal2.wav
320,192,60191,1,0,0:0:0:70:soft-hitnormal2.wav
448,192,60322,1,0,0:0:0:70:soft-hitnormal2.wav
320,192,60452,1,0,0:0:0:70:soft-hitnormal2.wav
64,192,60452,1,0,0:0:0:70:soft-hitnormal2.wav
64,192,60583,1,0,0:0:0:70:soft-hitnormal2.wav
320,192,60583,1,0,0:0:0:70:soft-hitnormal2.wav
320,192,60713,1,0,0:0:0:70:soft-hitnormal2.wav
64,192,60713,1,0,0:0:0:70:soft-hitnormal2.wav
192,192,60844,1,0,0:0:0:70:soft-hitnormal2.wav
448,192,60974,1,0,0:0:0:70:soft-hitnormal2.wav
320,192,61039,1,0,0:0:0:70:soft-hitnormal2.wav
192,192,61104,1,0,0:0:0:70:soft-hitnormal2.wav
64,192,61170,1,0,0:0:0:70:soft-hitnormal2.wav
192,192,61235,1,0,0:0:0:70:soft-hitnormal2.wav
320,192,61235,1,0,0:0:0:70:soft-hitnormal2.wav
320,192,61365,1,0,0:0:0:70:soft-hitnormal2.wav
192,192,61365,1,0,0:0:0:70:soft-hitnormal2.wav
192,192,61496,1,0,0:0:0:70:soft-hitnormal2.wav
320,192,61496,1,0,0:0:0:70:soft-hitnormal2.wav
448,192,61626,1,0,0:0:0:70:soft-hitnormal2.wav
64,192,61757,1,0,0:0:0:70:soft-hitnormal2.wav
192,192,61757,1,0,0:0:0:70:soft-hitnormal2.wav
320,192,61887,1,0,0:0:0:70:soft-hitnormal2.wav
448,192,62017,1,0,0:0:0:70:soft-hitnormal2.wav
64,192,62017,1,0,0:0:0:70:soft-hitnormal2.wav
448,192,62148,1,0,0:0:0:70:soft-hitnormal2.wav
64,192,62148,1,0,0:0:0:70:soft-hitnormal2.wav
448,192,62278,1,0,0:0:0:70:soft-hitnormal2.wav
64,192,62278,1,0,0:0:0:70:soft-hitnormal2.wav
192,192,62409,1,0,0:0:0:70:soft-hitnormal2.wav
320,192,62539,1,0,0:0:0:70:soft-hitnormal2.wav
448,192,62539,1,0,0:0:0:70:soft-hitnormal2.wav
64,192,62670,1,0,0:0:0:70:soft-hitnormal2.wav
192,192,62735,1,0,0:0:0:70:soft-hitnormal2.wav
320,192,62800,1,0,0:0:0:70:soft-hitnormal2.wav
448,192,62800,128,0,66512:0:0:0:70:soft-hitnormal2.wav
64,192,62930,1,0,0:0:0:70:soft-hitnormal2.wav
192,192,63061,1,0,0:0:0:70:soft-hitnormal2.wav
320,192,63208,1,0,0:0:0:70:soft-hitnormal2.wav
64,192,63338,1,0,0:0:0:70:soft-hitnormal2.wav
192,192,63469,1,0,0:0:0:70:soft-hitnormal2.wav
64,192,63615,1,0,0:0:0:70:soft-hitnormal2.wav
320,192,63746,1,0,0:0:0:70:soft-hitnormal2.wav
192,192,63892,1,0,0:0:0:70:soft-hitnormal2.wav
64,192,64039,1,0,0:0:0:70:soft-hitnormal2.wav
192,192,64186,1,0,0:0:0:70:soft-hitnormal2.wav
64,192,64333,1,0,0:0:0:70:soft-hitnormal2.wav
320,192,64479,1,0,0:0:0:70:soft-hitnormal2.wav
192,192,64642,1,0,0:0:0:70:soft-hitnormal2.wav
320,192,64805,1,0,0:0:0:70:soft-hitnormal2.wav
64,192,64969,1,0,0:0:0:70:soft-hitnormal2.wav
192,192,65132,1,0,0:0:0:70:soft-hitnormal2.wav
320,192,65295,1,0,0:0:0:70:soft-hitnormal2.wav
192,192,65458,1,0,0:0:0:70:soft-hitnormal2.wav
320,192,65621,1,0,0:0:0:70:soft-hitnormal2.wav
64,192,65800,1,0,0:0:0:70:soft-hitnormal2.wav
192,192,65979,1,0,0:0:0:70:soft-hitnormal2.wav
64,192,66159,1,0,0:0:0:70:soft-hitnormal2.wav
320,192,66338,1,0,0:0:0:70:soft-hitnormal2.wav
192,192,66512,1,0,0:0:0:70:soft-hitnormal2.wav
64,192,66512,1,0,0:0:0:70:soft-hitnormal2.wav
448,192,66887,128,0,67074:0:0:0:70:soft-hitnormal2.wav
64,192,66887,128,0,67074:0:0:0:70:soft-hitnormal2.wav
320,192,67074,1,0,0:0:0:70:soft-hitnormal2.wav
448,192,67262,128,0,67637:0:0:0:70:soft-hitnormal2.wav
64,192,67262,128,0,67637:0:0:0:70:soft-hitnormal2.wav
192,192,67262,1,0,0:0:0:70:soft-hitnormal2.wav
320,192,67449,1,0,0:0:0:70:soft-hitnormal2.wav
192,192,67637,128,0,68012:0:0:0:70:soft-hitnormal2.wav
448,192,68012,128,0,68199:0:0:0:70:soft-hitnormal2.wav
64,192,68012,1,0,0:0:0:70:soft-hitnormal2.wav
448,192,68387,128,0,68762:0:0:0:70:soft-hitnormal2.wav
320,192,68387,1,0,0:0:0:70:soft-hitnormal2.wav
192,192,68762,1,0,0:0:0:70:soft-hitnormal2.wav
64,192,68762,128,0,69137:0:0:0:70:soft-hitnormal2.wav
192,192,69137,128,0,69324:0:0:0:70:soft-hitnormal2.wav
448,192,69137,128,0,69324:0:0:0:70:soft-hitnormal2.wav
320,192,69324,1,0,0:0:0:70:soft-hitnormal2.wav
448,192,69512,128,0,69887:0:0:0:70:soft-hitnormal2.wav
64,192,69512,1,0,0:0:0:70:soft-hitnormal2.wav
320,192,69699,1,0,0:0:0:70:soft-hitnormal2.wav
64,192,69887,128,0,70637:0:0:0:70:soft-hitnormal2.wav
192,192,69887,1,0,0:0:0:70:soft-hitnormal2.wav
448,192,70262,1,0,0:0:0:70:soft-hitnormal2.wav
192,192,70262,128,0,70637:0:0:0:70:soft-hitnormal2.wav
320,192,70637,128,0,71012:0:0:0:70:soft-hitnormal2.wav
448,192,70637,1,0,0:0:0:70:soft-hitnormal2.wav
64,192,71012,1,0,0:0:0:70:soft-hitnormal2.wav
448,192,71012,1,0,0:0:0:70:soft-hitnormal2.wav
320,192,71387,128,0,71574:0:0:0:70:soft-hitnormal2.wav
192,192,71387,128,0,71574:0:0:0:70:soft-hitnormal2.wav
320,192,71762,128,0,72137:0:0:0:70:soft-hitnormal2.wav
192,192,71762,128,0,72137:0:0:0:70:soft-hitnormal2.wav
64,192,72137,128,0,72512:0:0:0:70:soft-hitnormal2.wav
448,192,72512,128,0,72699:0:0:0:70:soft-hitnormal2.wav
192,192,72512,1,0,0:0:0:70:soft-hitnormal2.wav
448,192,72887,128,0,73262:0:0:0:70:soft-hitnormal2.wav
320,192,72887,1,0,0:0:0:70:soft-hitnormal2.wav
192,192,73262,128,0,73637:0:0:0:70:soft-hitnormal2.wav
64,192,73262,1,0,0:0:0:70:soft-hitnormal2.wav
448,192,73637,128,0,73824:0:0:0:70:soft-hitnormal2.wav
64,192,73637,128,0,73824:0:0:0:70:soft-hitnormal2.wav
448,192,74012,128,0,74387:0:0:0:70:soft-hitnormal2.wav
64,192,74012,128,0,74387:0:0:0:70:soft-hitnormal2.wav
320,192,74012,1,0,0:0:0:70:soft-hitnormal2.wav
320,192,74387,128,0,74762:0:0:0:70:soft-hitnormal2.wav
192,192,74387,1,0,0:0:0:70:soft-hitnormal2.wav
192,192,74762,1,0,0:0:0:70:soft-hitnormal2.wav
64,192,74949,1,0,0:0:0:70:soft-hitnormal2.wav
192,192,75137,1,0,0:0:0:70:soft-hitnormal2.wav
448,192,75137,128,0,75324:0:0:0:70:soft-hitnormal2.wav
320,192,75324,1,0,0:0:0:70:soft-hitnormal2.wav
192,192,75512,1,0,0:0:0:70:soft-hitnormal2.wav
64,192,75512,1,0,0:0:0:70:soft-hitnormal2.wav
448,192,75512,128,0,75887:0:0:0:70:soft-hitnormal2.wav
192,192,75887,128,0,76074:0:0:0:70:soft-hitnormal2.wav
64,192,75887,128,0,76074:0:0:0:70:soft-hitnormal2.wav
320,192,76074,1,0,0:0:0:70:soft-hitnormal2.wav
320,192,76262,128,0,76637:0:0:0:70:soft-hitnormal2.wav
64,192,76262,128,0,76637:0:0:0:70:soft-hitnormal2.wav
192,192,76262,1,0,0:0:0:70:soft-hitnormal2.wav
448,192,76449,1,0,0:0:0:70:soft-hitnormal2.wav
192,192,76637,128,0,77012:0:0:0:70:soft-hitnormal2.wav
64,192,77012,128,0,77199:0:0:0:70:soft-hitnormal2.wav
448,192,77012,1,0,0:0:0:70:soft-hitnormal2.wav
448,192,77387,128,0,77762:0:0:0:70:soft-hitnormal2.wav
64,192,77387,1,0,0:0:0:70:soft-hitnormal2.wav
320,192,77762,1,0,0:0:0:70:soft-hitnormal2.wav
192,192,77762,1,0,0:0:0:70:soft-hitnormal2.wav
192,192,78137,128,0,78324:0:0:0:70:soft-hitnormal2.wav
320,192,78137,128,0,78324:0:0:0:70:soft-hitnormal2.wav
448,192,78324,1,0,0:0:0:70:soft-hitnormal2.wav
64,192,78512,128,0,78887:0:0:0:70:soft-hitnormal2.wav
448,192,78512,128,0,78887:0:0:0:70:soft-hitnormal2.wav
320,192,78512,1,0,0:0:0:70:soft-hitnormal2.wav
192,192,78699,1,0,0:0:0:70:soft-hitnormal2.wav
192,192,78887,128,0,79262:0:0:0:70:soft-hitnormal2.wav
320,192,78887,1,0,0:0:0:70:soft-hitnormal2.wav
448,192,79262,1,0,0:0:0:70:soft-hitnormal2.wav
320,192,79262,128,0,79637:0:0:0:70:soft-hitnormal2.wav
448,192,79637,128,0,80012:0:0:0:70:soft-hitnormal2.wav
64,192,79637,1,0,0:0:0:70:soft-hitnormal2.wav
192,192,80012,1,0,0:0:0:70:soft-hitnormal2.wav
64,192,80012,128,0,80387:0:0:0:70:soft-hitnormal2.wav
320,192,80012,128,0,80387:0:0:0:70:soft-hitnormal2.wav
448,192,80387,128,0,80574:0:0:0:70:soft-hitnormal2.wav
64,192,80762,128,0,81137:0:0:0:70:soft-hitnormal2.wav
448,192,80762,128,0,81137:0:0:0:70:soft-hitnormal2.wav
192,192,81137,1,0,0:0:0:70:soft-hitnormal2.wav
320,192,81137,128,0,81512:0:0:0:70:soft-hitnormal2.wav
64,192,81512,128,0,81887:0:0:0:70:soft-hitnormal2.wav
192,192,81699,1,0,0:0:0:70:soft-hitnormal2.wav
192,192,81887,128,0,82262:0:0:0:70:soft-hitnormal2.wav
448,192,81887,128,0,82262:0:0:0:70:soft-hitnormal2.wav
320,192,81887,1,0,0:0:0:70:soft-hitnormal2.wav
64,192,82074,1,0,0:0:0:70:soft-hitnormal2.wav
64,192,82262,128,0,82824:0:0:0:70:soft-hitnormal2.wav
320,192,82262,1,0,0:0:0:70:soft-hitnormal2.wav
192,192,82449,128,0,82824:0:0:0:70:soft-hitnormal2.wav
320,192,82637,128,0,82824:0:0:0:70:soft-hitnormal2.wav
448,192,82824,1,0,0:0:0:70:soft-hitnormal2.wav
192,192,83012,1,0,0:0:0:70:soft-hitnormal2.wav
320,192,83199,1,0,0:0:0:70:soft-hitnormal2.wav
64,192,83199,1,0,0:0:0:70:soft-hitnormal2.wav
448,192,83387,1,0,0:0:0:70:soft-hitnormal2.wav
192,192,83387,128,0,83762:0:0:0:70:soft-hitnormal2.wav
64,192,83574,128,0,83762:0:0:0:70:soft-hitnormal2.wav
448,192,83762,128,0,84137:0:0:0:70:soft-hitnormal2.wav
320,192,83762,1,0,0:0:0:70:soft-hitnormal2.wav
64,192,83949,1,0,0:0:0:70:soft-hitnormal2.wav
192,192,84137,128,0,84512:0:0:0:70:soft-hitnormal2.wav
320,192,84137,1,0,0:0:0:70:soft-hitnormal2.wav
64,192,84324,1,0,0:0:0:70:soft-hitnormal2.wav
320,192,84512,1,0,0:0:0:70:soft-hitnormal2.wav
448,192,84512,128,0,84699:0:0:0:70:soft-hitnormal2.wav
192,192,84699,1,0,0:0:0:70:soft-hitnormal2.wav
320,192,84887,1,0,0:0:0:70:soft-hitnormal2.wav
64,192,84887,1,0,0:0:0:70:soft-hitnormal2.wav
192,192,85074,1,0,0:0:0:70:soft-hitnormal2.wav
64,192,85074,1,0,0:0:0:70:soft-hitnormal2.wav
448,192,85262,1,0,0:0:0:70:soft-hitnormal2.wav
192,192,85262,1,0,0:0:0:70:soft-hitnormal2.wav
448,192,85449,1,0,0:0:0:70:soft-hitnormal2.wav
320,192,85449,1,0,0:0:0:70:soft-hitnormal2.wav
192,192,85637,1,0,0:0:0:70:soft-hitnormal2.wav
64,192,85637,128,0,86012:0:0:0:70:soft-hitnormal2.wav
192,192,86012,128,0,86387:0:0:0:70:soft-hitnormal2.wav
448,192,86012,1,0,0:0:0:70:soft-hitnormal2.wav
448,192,86387,1,0,0:0:0:70:soft-hitnormal2.wav
320,192,86387,1,0,0:0:0:70:soft-hitnormal2.wav
64,192,86387,128,0,86762:0:0:0:70:soft-hitnormal2.wav
320,192,86574,1,0,0:0:0:70:soft-hitnormal2.wav
192,192,86574,1,0,0:0:0:70:soft-hitnormal2.wav
192,192,86762,1,0,0:0:0:70:soft-hitnormal2.wav
448,192,86762,1,0,0:0:0:70:soft-hitnormal2.wav
320,192,86949,1,0,0:0:0:70:soft-hitnormal2.wav
192,192,87137,1,0,0:0:0:70:soft-hitnormal2.wav
448,192,87137,1,0,0:0:0:70:soft-hitnormal2.wav
448,192,87324,1,0,0:0:0:70:soft-hitnormal2.wav
320,192,87324,1,0,0:0:0:70:soft-hitnormal2.wav
64,192,87512,1,0,0:0:0:70:soft-hitnormal2.wav
320,192,87512,1,0,0:0:0:70:soft-hitnormal2.wav
192,192,87699,1,0,0:0:0:70:soft-hitnormal2.wav
64,192,87699,1,0,0:0:0:70:soft-hitnormal2.wav
192,192,87887,128,0,88262:0:0:0:70:soft-hitnormal2.wav
448,192,87887,1,0,0:0:0:70:soft-hitnormal2.wav
448,192,88262,1,0,0:0:0:70:soft-hitnormal2.wav
320,192,88262,1,0,0:0:0:70:soft-hitnormal2.wav
192,192,88355,1,0,0:0:0:70:soft-hitnormal2.wav
64,192,88355,1,0,0:0:0:70:soft-hitnormal2.wav
320,192,88449,1,0,0:0:0:70:soft-hitnormal2.wav
448,192,88449,1,0,0:0:0:70:soft-hitnormal2.wav
192,192,88543,1,0,0:0:0:70:soft-hitnormal2.wav
64,192,88543,1,0,0:0:0:70:soft-hitnormal2.wav
320,192,88637,1,0,0:0:0:70:soft-hitnormal2.wav
448,192,88637,1,0,0:0:0:70:soft-hitnormal2.wav
192,192,88824,1,0,0:0:0:70:soft-hitnormal2.wav
320,192,88824,1,0,0:0:0:70:soft-hitnormal2.wav
64,192,89012,1,0,0:0:0:70:soft-hitnormal2.wav
448,192,89012,1,0,0:0:0:70:soft-hitnormal2.wav
320,192,89012,128,0,89387:0:0:0:70:soft-hitnormal2.wav
192,192,89199,1,0,0:0:0:70:soft-hitnormal2.wav
448,192,89387,1,0,0:0:0:70:soft-hitnormal2.wav
64,192,89387,1,0,0:0:0:70:soft-hitnormal2.wav
320,192,89574,1,0,0:0:0:70:soft-hitnormal2.wav
64,192,89574,1,0,0:0:0:70:soft-hitnormal2.wav
192,192,89762,1,0,0:0:0:70:soft-hitnormal2.wav
64,192,89762,1,0,0:0:0:70:soft-hitnormal2.wav
448,192,89949,1,0,0:0:0:70:soft-hitnormal2.wav
192,192,89949,1,0,0:0:0:70:soft-hitnormal2.wav
320,192,90137,1,0,0:0:0:70:soft-hitnormal2.wav
64,192,90137,128,0,90512:0:0:0:70:soft-hitnormal2.wav
448,192,90324,1,0,0:0:0:70:soft-hitnormal2.wav
320,192,90512,128,0,90887:0:0:0:70:soft-hitnormal2.wav
192,192,90512,1,0,0:0:0:70:soft-hitnormal2.wav
448,192,90887,1,0,0:0:0:70:soft-hitnormal2.wav
192,192,90887,1,0,0:0:0:70:soft-hitnormal2.wav
320,192,91074,1,0,0:0:0:70:soft-hitnormal2.wav
64,192,91074,1,0,0:0:0:70:soft-hitnormal2.wav
64,192,91262,1,0,0:0:0:70:soft-hitnormal2.wav
192,192,91262,1,0,0:0:0:70:soft-hitnormal2.wav
448,192,91262,128,0,91637:0:0:0:70:soft-hitnormal2.wav
320,192,91449,128,0,91637:0:0:0:70:soft-hitnormal2.wav
192,192,91637,1,0,0:0:0:70:soft-hitnormal2.wav
64,192,91637,1,0,0:0:0:70:soft-hitnormal2.wav
448,192,91824,1,0,0:0:0:70:soft-hitnormal2.wav
64,192,91824,1,0,0:0:0:70:soft-hitnormal2.wav
448,192,92012,1,0,0:0:0:70:soft-hitnormal2.wav
192,192,92012,1,0,0:0:0:70:soft-hitnormal2.wav
448,192,92199,128,0,92387:0:0:0:70:soft-hitnormal2.wav
64,192,92199,1,0,0:0:0:70:soft-hitnormal2.wav
320,192,92199,1,0,0:0:0:70:soft-hitnormal2.wav
192,192,92387,128,0,92762:0:0:0:70:soft-hitnormal2.wav
320,192,92387,1,0,0:0:0:70:soft-hitnormal2.wav
448,192,92574,1,0,0:0:0:0:
64,192,92762,1,0,0:0:0:70:soft-hitnormal2.wav
320,192,92762,1,0,0:0:0:0:
448,192,92855,1,0,0:0:0:70:soft-hitnormal2.wav
192,192,92949,1,0,0:0:0:70:soft-hitnormal2.wav
320,192,92949,1,0,0:0:0:0:
64,192,93043,1,0,0:0:0:70:soft-hitnormal2.wav
448,192,93043,1,0,0:0:0:70:soft-hitnormal2.wav
320,192,93137,1,0,0:0:0:70:soft-hitnormal2.wav
192,192,93137,1,0,0:0:0:70:soft-hitnormal2.wav
320,192,93324,1,0,0:0:0:70:soft-hitnormal2.wav
64,192,93324,1,0,0:0:0:70:soft-hitnormal2.wav
192,192,93512,1,0,0:0:0:70:soft-hitnormal2.wav
448,192,93512,128,0,93887:0:0:0:70:soft-hitnormal2.wav
320,192,93699,1,0,0:0:0:70:soft-hitnormal2.wav
192,192,93887,1,0,0:0:0:70:soft-hitnormal2.wav
64,192,93887,1,0,0:0:0:70:soft-hitnormal2.wav
64,192,94074,1,0,0:0:0:70:soft-hitnormal2.wav
320,192,94074,1,0,0:0:0:70:soft-hitnormal2.wav
448,192,94262,1,0,0:0:0:70:soft-hitnormal2.wav
320,192,94262,1,0,0:0:0:70:soft-hitnormal2.wav
448,192,94449,1,0,0:0:0:70:soft-hitnormal2.wav
64,192,94449,1,0,0:0:0:70:soft-hitnormal2.wav
192,192,94637,1,0,0:0:0:70:soft-hitnormal2.wav
320,192,94637,128,0,95012:0:0:0:70:soft-hitnormal2.wav
64,192,95012,1,0,0:0:0:70:soft-hitnormal2.wav
448,192,95012,1,0,0:0:0:70:soft-hitnormal2.wav
192,192,95012,128,0,95387:0:0:0:70:soft-hitnormal2.wav
64,192,95387,1,0,0:0:0:70:soft-hitnormal2.wav
320,192,95387,1,0,0:0:0:70:soft-hitnormal2.wav
64,192,95574,1,0,0:0:0:70:soft-hitnormal2.wav
320,192,95574,1,0,0:0:0:70:soft-hitnormal2.wav
192,192,95762,1,0,0:0:0:70:soft-hitnormal2.wav
448,192,95762,128,0,96137:0:0:0:70:soft-hitnormal2.wav
64,192,95949,1,0,0:0:0:70:soft-hitnormal2.wav
320,192,96137,1,0,0:0:0:70:soft-hitnormal2.wav
192,192,96137,1,0,0:0:0:70:soft-hitnormal2.wav
320,192,96324,1,0,0:0:0:70:soft-hitnormal2.wav
192,192,96324,1,0,0:0:0:70:soft-hitnormal2.wav
448,192,96512,1,0,0:0:0:70:soft-hitnormal2.wav
64,192,96512,1,0,0:0:0:70:soft-hitnormal2.wav
64,192,96699,1,0,0:0:0:70:soft-hitnormal2.wav
448,192,96699,1,0,0:0:0:70:soft-hitnormal2.wav
192,192,96887,128,0,97262:0:0:0:70:soft-hitnormal2.wav
320,192,96887,1,0,0:0:0:70:soft-hitnormal2.wav
320,192,97262,1,0,0:0:0:70:soft-hitnormal2.wav
64,192,97355,1,0,0:0:0:70:soft-hitnormal2.wav
448,192,97355,1,0,0:0:0:70:soft-hitnormal2.wav
320,192,97449,1,0,0:0:0:70:soft-hitnormal2.wav
192,192,97449,1,0,0:0:0:70:soft-hitnormal2.wav
448,192,97543,1,0,0:0:0:70:soft-hitnormal2.wav
64,192,97543,1,0,0:0:0:70:soft-hitnormal2.wav
320,192,97637,1,0,0:0:0:70:soft-hitnormal2.wav
192,192,97637,1,0,0:0:0:70:soft-hitnormal2.wav
320,192,97824,1,0,0:0:0:70:soft-hitnormal2.wav
192,192,97824,1,0,0:0:0:70:soft-hitnormal2.wav
448,192,98012,128,0,99244:0:0:0:70:soft-hitnormal2.wav
64,192,98012,128,0,104944:0:0:0:70:soft-hitnormal2.wav
320,192,99244,1,0,0:0:0:70:soft-hitnormal2.wav
192,192,99290,128,0,100879:0:0:0:70:soft-hitnormal2.wav
320,192,100879,1,0,0:0:0:70:soft-hitnormal2.wav
448,192,100926,128,0,104944:0:0:0:70:soft-hitnormal2.wav
