osu file format v14

[General]
AudioFilename: audio.mp3
AudioLeadIn: 0
PreviewTime: 307292
Countdown: 0
SampleSet: Soft
StackLeniency: 0.5
Mode: 0
LetterboxInBreaks: 0
WidescreenStoryboard: 1

[Editor]
Bookmarks: 46726,124351,124651,124951,191245,297107,307307,345707,350507,355307,360107,364907,369707,374507
DistanceSpacing: 0.7
BeatDivisor: 4
GridSize: 8
TimelineZoom: 1.8

[Metadata]
Title:Sayonara wo Oshiete ~Comment Te Dire Adieu~
TitleUnicode:さよならを教えて 〜Comment Te Dire Adieu〜
Artist:I've
ArtistUnicode:I've
Creator:Nanabi
Version:2009 mapping style
Source:さよならを教えて
Tags:eroge galgame adv avg op opening denpa kyouki utsu 2001 CRAFTWORK
BeatmapID:2111252
BeatmapSetID:1008548

[Difficulty]
HPDrainRate:5
CircleSize:5
OverallDifficulty:7
ApproachRate:8
SliderMultiplier:2.3
SliderTickRate:2

[Events]
//Background and Video events
0,0,"77.jpg",0,0
//Break Periods
//Storyboard Layer 0 (Background)
//Storyboard Layer 1 (Fail)
//Storyboard Layer 2 (Pass)
//Storyboard Layer 3 (Foreground)
//Storyboard Layer 4 (Overlay)
//Storyboard Sound Samples

[TimingPoints]
226,600,4,2,1,100,1,0
226,-100,4,2,1,10,0,0
4501,-100,4,2,1,10,0,0
19426,-66.6666666666667,4,2,1,30,0,0
24226,-66.6666666666667,4,2,1,17,0,0
26626,-66.6666666666667,4,2,1,25,0,0
28126,-66.6666666666667,4,2,1,30,0,0
30826,-66.6666666666667,4,2,1,20,0,0
35326,-66.6666666666667,4,2,1,25,0,0
36226,-66.6666666666667,4,2,1,30,0,0
38626,-66.6666666666667,4,2,1,30,0,0
40126,-66.6666666666667,4,2,1,20,0,0
56326,-200,4,2,1,17,0,0
56926,-200,4,2,1,15,0,0
57804,600,4,2,1,100,1,0
57804,-66.6666666666667,4,2,1,30,0,0
71004,-50,4,2,1,30,0,0
73104,-66.6666666666667,4,2,1,30,0,0
74604,-66.6666666666667,4,2,1,35,0,0
76987,600,4,2,1,100,1,0
76987,-66.6666666666667,4,2,1,25,0,0
96187,-133.333333333333,4,2,1,30,0,0
98587,-66.6666666666667,4,2,1,30,0,0
110287,-50,4,2,1,30,0,0
111487,-66.6666666666667,4,2,1,30,0,0
115372,600,4,2,1,100,1,0
115372,-50,4,2,1,40,0,1
117172,-47.6190476190476,4,2,1,40,0,1
120172,-50,4,2,1,40,0,1
121972,-47.6190476190476,4,2,1,40,0,1
124372,-66.6666666666667,4,2,1,40,0,1
129772,-50,4,2,1,40,0,1
134562,600,4,2,1,40,1,1
134562,-50,4,2,1,40,0,1
136362,-47.6190476190476,4,2,1,40,0,1
143862,-66.6666666666667,4,2,1,40,0,1
147762,-58.8235294117647,4,2,1,40,0,1
152562,-58.8235294117647,4,2,1,43,0,1
153162,-58.8235294117647,4,2,1,48,0,1
153752,600,4,2,1,100,1,0
153752,-58.8235294117647,4,2,1,40,0,0
153902,-58.8235294117647,4,2,1,55,0,0
161402,-58.8235294117647,4,2,1,25,0,0
161852,-58.8235294117647,4,2,1,50,0,0
162452,-58.8235294117647,4,2,1,55,0,0
162602,-58.8235294117647,4,2,1,43,0,0
163052,-58.8235294117647,4,2,1,50,0,0
163352,-58.8235294117647,4,2,1,55,0,0
164252,-58.8235294117647,4,2,1,25,0,0
164402,-58.8235294117647,4,2,1,55,0,0
165152,-58.8235294117647,4,2,1,25,0,0
165752,-58.8235294117647,4,2,1,55,0,0
166352,-58.8235294117647,4,2,1,25,0,0
166802,-58.8235294117647,4,2,1,55,0,0
167852,-58.8235294117647,4,2,1,25,0,0
168152,-58.8235294117647,4,2,1,55,0,0
169052,-58.8235294117647,4,2,1,15,0,0
169202,-58.8235294117647,4,2,1,50,0,0
170252,-58.8235294117647,4,2,1,15,0,0
170402,-58.8235294117647,4,2,1,40,0,0
170545,600,4,2,1,100,1,0
170545,-58.8235294117647,4,2,1,40,0,0
173245,-58.8235294117647,4,2,1,30,0,0
192145,-66.6666666666667,4,2,1,30,0,0
201736,600,4,2,1,100,1,0
201736,-66.6666666666667,4,2,1,30,0,0
209836,-200,4,2,1,17,0,0
211336,-66.6666666666667,4,2,1,30,0,0
230524,600,4,2,1,100,1,0
230524,-66.6666666666667,4,2,1,25,0,0
249724,-133.333333333333,4,2,1,30,0,0
252124,-66.6666666666667,4,2,1,30,0,0
263824,-50,4,2,1,30,0,0
265024,-66.6666666666667,4,2,1,30,0,0
268907,600,4,2,1,100,1,0
268907,-43.4782608695652,4,2,1,40,0,1
270707,-41.6666666666667,4,2,1,40,0,1
273707,-43.4782608695652,4,2,1,40,0,1
279107,-66.6666666666667,4,2,1,40,0,1
282107,-57.1428571428571,4,2,1,40,0,1
283307,-43.4782608695652,4,2,1,40,0,1
289907,-41.6666666666667,4,2,1,40,0,1
292897,600,4,2,1,100,1,1
292897,-43.4782608695652,4,2,1,40,0,1
294697,-41.6666666666667,4,2,1,40,0,1
297397,-57.1428571428571,4,2,1,40,0,1
301297,-50,4,2,1,40,0,1
302492,600,4,2,1,100,1,1
302492,-50,4,2,1,40,0,1
307292,-40,4,2,1,50,0,1
309092,-50,4,2,1,50,0,1
312092,-40,4,2,1,50,0,1
313892,-50,4,2,1,50,0,1
316887,600,4,2,1,100,1,1
316887,-50,4,2,1,50,0,1
321687,-40,4,2,1,50,0,1
322887,-50,4,2,1,50,0,1
326482,600,4,2,1,100,1,1
326482,-40,4,2,1,50,0,1
328282,-50,4,2,1,50,0,1
331282,-40,4,2,1,50,0,1
333082,-50,4,2,1,50,0,1
336077,600,4,2,1,100,1,1
336077,-50,4,2,1,50,0,1
340877,-40,4,2,1,50,0,1
343272,600,4,2,1,100,1,1
343272,-40,4,2,1,50,0,1
345667,600,4,2,1,100,1,1
345667,-50,4,2,1,50,0,0
348067,-50,4,2,1,45,0,0
349267,-40,4,2,1,45,0,0
350467,-55.5555555555556,4,2,1,40,0,0
355262,600,4,2,1,100,1,0
355262,-62.5,4,2,1,35,0,0
360062,-66.6666666666667,4,2,1,30,0,0
364857,600,4,2,1,100,1,0
364857,-71.4285714285714,4,2,1,25,0,0
367257,-83.3333333333333,4,2,1,20,0,0
368457,-83.3333333333333,4,2,1,15,0,0
369657,-100,4,2,1,10,0,0
372348,600,4,2,1,100,1,0
372348,-100,4,2,1,18,0,0
372948,-100,4,2,1,28,0,0
374448,-100,4,2,1,37,0,0
376248,-100,4,2,1,25,0,0
376398,-100,4,2,1,12,0,0
376698,-100,4,2,1,15,0,0
376848,-100,4,2,1,22,0,0
377748,-100,4,2,1,15,0,0
381941,600,4,2,1,20,1,0
388841,-100,4,2,1,25,0,0
388991,-100,4,2,1,15,0,0
390341,-100,4,2,1,30,0,0
390491,-100,4,2,1,20,0,0
391841,-100,4,2,1,10,0,0

[HitObjects]
88,64,226,5,0,0:0:0:0:
88,208,526,1,0,0:0:0:0:
88,136,826,2,0,L|168:136,4,57.5
216,136,1726,1,0,0:0:0:0:
216,136,2026,6,0,L|216:208,2,57.5
216,72,2476,1,0,0:0:0:0:
216,72,2626,2,0,L|216:0,2,57.5
280,96,3226,1,0,0:0:0:0:
344,216,3526,2,0,L|344:288,4,57.5
280,192,4276,1,0,0:0:0:0:
280,192,4426,2,0,L|280:136,6,28.75
264,256,5026,6,0,B|232:352|160:304|160:304,4,115
272,96,6526,1,0,0:0:0:0:
272,176,6826,1,0,0:0:0:0:
456,336,7426,5,0,0:0:0:0:
456,256,7726,2,0,B|472:192|400:168|400:168,2,115
160,128,8776,5,0,0:0:0:0:
344,128,9076,1,0,0:0:0:0:
32,168,9676,5,0,0:0:0:0:
32,168,9826,1,0,0:0:0:0:
32,304,10126,2,0,L|32:368,4,57.5
192,216,11326,2,0,L|192:158,4,57.5
192,304,12226,5,0,0:0:0:0:
192,158,12526,2,0,L|192:96,4,57.5
280,320,13576,1,0,0:0:0:0:
456,320,14026,1,0,0:0:0:0:
256,160,14476,5,0,0:0:0:0:
256,160,14626,1,0,0:0:0:0:
256,40,14926,2,0,L|256:104,6,57.5
256,40,16126,1,0,0:0:0:0:
88,64,16876,1,0,0:0:0:0:
88,64,17026,2,0,L|88:128,4,57.5
136,168,17926,5,0,0:0:0:0:
136,296,18376,5,0,0:0:0:0:
136,232,18826,6,0,B|224:240|208:320|208:320,1,115
352,328,19426,2,0,B|432:368|480:296|464:216|464:216,1,172.500006580353
464,224,19876,1,0,0:0:0:0:
464,208,20026,1,0,0:0:0:0:
464,192,20176,2,0,L|496:104,3,86.2500032901765
496,80,20776,1,0,0:0:0:0:
424,80,20926,1,0,0:0:0:0:
368,32,21226,5,0,0:0:0:0:
184,80,21826,1,0,0:0:0:0:
160,80,21976,1,0,0:0:0:0:
136,80,22126,1,0,0:0:0:0:
112,80,22276,1,0,0:0:0:0:
88,80,22426,2,0,P|64:136|88:168,3,86.2500032901765
80,176,23026,1,0,0:0:0:0:
80,200,23176,1,0,0:0:0:0:
80,224,23326,1,0,0:0:0:0:
80,248,23476,1,0,0:0:0:0:
136,280,23626,5,0,0:0:0:0:
152,296,23776,1,0,0:0:0:0:
176,280,23926,1,0,0:0:0:0:
192,296,24076,1,0,0:0:0:0:
216,280,24226,5,0,0:0:0:0:
272,64,24826,1,0,0:0:0:0:
432,224,25426,1,0,0:0:0:0:
504,224,25726,1,0,0:0:0:0:
360,224,26026,1,0,0:0:0:0:
8,312,26626,1,0,0:0:0:0:
80,336,27226,6,0,L|80:184,3,86.2500032901765
80,184,27826,1,0,0:0:0:0:
120,128,27976,1,0,0:0:0:0:
160,184,28126,1,0,0:0:0:0:
200,128,28276,1,0,0:0:0:0:
240,184,28426,2,0,B|240:240|288:248|288:248,1,86.2500032901765
344,280,28726,2,0,B|360:344|408:320|408:320,1,86.2500032901765
464,280,29026,5,0,0:0:0:0:
56,280,29626,2,0,L|144:280,3,86.2500032901765
168,280,30226,1,0,0:0:0:0:
192,280,30376,1,0,0:0:0:0:
216,280,30526,1,0,0:0:0:0:
240,280,30676,1,0,0:0:0:0:
304,280,30826,5,0,0:0:0:0:
304,248,30976,1,0,0:0:0:0:
328,216,31126,1,0,0:0:0:0:
328,184,31276,1,0,0:0:0:0:
328,152,31426,2,0,L|328:56,3,86.2500032901765
224,128,32026,2,0,L|224:32,3,86.2500032901765
224,192,32626,5,0,0:0:0:0:
224,192,32776,1,0,0:0:0:0:
224,192,32926,1,0,0:0:0:0:
224,192,33076,1,0,0:0:0:0:
224,192,33226,5,0,0:0:0:0:
408,56,33826,1,0,0:0:0:0:
40,320,34426,1,0,0:0:0:0:
40,56,34876,1,0,0:0:0:0:
40,56,35026,1,0,0:0:0:0:
112,56,35326,1,0,0:0:0:0:
184,56,35626,1,0,0:0:0:0:
208,56,35776,1,0,0:0:0:0:
232,56,35926,1,0,0:0:0:0:
256,56,36076,1,0,0:0:0:0:
320,56,36226,5,0,0:0:0:0:
320,120,36376,1,0,0:0:0:0:
384,120,36526,1,0,0:0:0:0:
384,184,36676,1,0,0:0:0:0:
416,241,36826,5,0,0:0:0:0:
352,241,36976,1,0,0:0:0:0:
352,305,37126,1,0,0:0:0:0:
288,305,37276,1,0,0:0:0:0:
224,305,37426,5,0,0:0:0:0:
288,129,37726,1,0,0:0:0:0:
112,49,38026,1,0,0:0:0:0:
40,217,38326,1,0,0:0:0:0:
170,172,38626,5,0,0:0:0:0:
168,304,39076,1,0,0:0:0:0:
168,304,39226,1,0,0:0:0:0:
240,304,39526,1,0,0:0:0:0:
328,168,40126,1,0,0:0:0:0:
328,168,40276,1,0,0:0:0:0:
400,168,40726,6,0,L|400:256,1,86.2500032901765
384,328,41026,2,0,B|352:376|288:344|288:344,1,86.2500032901765
328,280,41326,2,0,B|272:224|200:216|128:248|96:312|96:312,1,258.75000987053
48,360,41926,2,0,B|-8:304|-8:144|72:112|72:112,1,258.75000987053
0,80,42526,1,0,0:0:0:0:
160,160,42826,1,0,0:0:0:0:
232,160,43126,2,0,B|234:144|234:144|230:126|230:126|232:111|232:111|230:95|230:95|235:75|235:75|229:59,1,86.2500032901765
296,128,43426,6,0,B|304:192|344:192|344:192,1,86.2500032901765
400,152,43726,2,0,B|480:176|448:232|448:232|440:248|440:248|448:264|448:264|480:328|400:352|400:352,1,258.75000987053
352,296,44326,2,0,B|304:256|256:232|128:248|104:360|104:360,1,258.75000987053
88,88,45226,1,0,0:0:0:0:
88,160,45526,1,0,0:0:0:0:
288,120,45826,2,0,P|312:128|336:72,5,86.2500032901765
424,64,46726,6,0,B|400:136|384:288|512:304|512:304,1,258.75000987053
440,352,47326,2,0,B|376:376|356:308|356:308,1,86.2500032901765
320,200,47626,2,0,L|216:200,1,86.2500032901765
160,200,47926,2,0,L|56:200,1,86.2500032901765
0,200,48226,5,0,0:0:0:0:
160,56,48526,1,0,0:0:0:0:
88,56,48826,1,0,0:0:0:0:
232,56,49126,1,0,0:0:0:0:
304,56,49426,1,0,0:0:0:0:
16,56,49726,1,0,0:0:0:0:
16,56,49876,1,0,0:0:0:0:
16,128,50326,6,0,B|0:200|40:216|40:216,1,86.2500032901765
192,200,50626,2,0,B|274:140|336:261|272:312|200:280|176:368,1,258.75000987053
192,200,51226,2,0,B|109:140|47:261|112:312|184:280|208:368,1,258.75000987053
304,338,51826,2,0,B|362:371|418:363|426:345|447:345|482:315|480:224,1,258.75000987053
480,168,52426,5,0,0:0:0:0:
240,208,52726,1,0,0:0:0:0:
312,208,52876,1,0,0:0:0:0:
240,208,53026,1,0,0:0:0:0:
176,168,53326,5,0,0:0:0:0:
176,168,53476,1,0,0:0:0:0:
176,168,53626,1,0,0:0:0:0:
88,112,53926,2,0,B|56:184|88:208|88:208,1,86.2500032901765
16,224,54226,2,0,B|8:296|48:312|48:312,1,86.2500032901765
176,304,54526,1,0,0:0:0:0:
104,304,54676,1,0,0:0:0:0:
504,304,55426,6,0,B|496:360|464:368|464:368,1,86.2500032901765
432,304,55726,2,0,B|376:344|336:304|336:304,1,86.2500032901765
328,248,56026,1,0,0:0:0:0:
256,88,56326,6,0,L|256:176,1,86.25
256,248,56926,1,0,0:0:0:0:
184,248,57226,1,0,0:0:0:0:
328,248,57526,1,0,0:0:0:0:
128,296,57804,6,0,B|104:232|56:216|56:216,1,86.2500032901765
8,256,58104,2,0,B|0:184|16:136|16:136,1,86.2500032901765
56,96,58404,1,0,0:0:0:0:
264,16,58704,2,0,B|248:72|272:120|272:120,1,86.2500032901765
328,144,59004,2,0,B|288:192|248:176|248:176,1,86.2500032901765
184,112,59304,2,0,B|152:168|192:224|192:224,1,86.2500032901765
208,272,59604,1,0,0:0:0:0:
426,352,59904,6,0,L|426:240,1,86.2500032901765
360,232,60204,2,0,L|240:232,1,86.2500032901765
208,272,60504,2,0,B|152:288|68:293|44:240|57:224,1,172.500006580353
96,88,61104,2,0,L|192:88,5,86.2500032901765
256,88,62004,2,0,L|352:88,1,86.2500032901765
392,144,62304,6,0,B|432:96|409:48|409:48,1,86.2500032901765
256,88,62604,2,0,B|224:136|256:184|256:184,1,86.2500032901765
304,240,62904,2,0,B|448:240|448:240|456:232|456:232|459:242|459:242|455:254|455:254|448:240|448:240,1,172.500006580353
208,256,63504,2,0,L|208:344,1,86.2500032901765
176,358,63804,2,0,L|64:360,1,86.2500032901765
56,344,64104,2,0,L|56:248,1,86.2500032901765
56,144,64404,2,0,B|112:176|144:152|144:152,1,86.2500032901765
208,72,64704,2,0,B|304:32|352:128|352:128|320:200|272:176,1,258.75000987053
216,168,65304,2,0,L|216:272,1,86.2500032901765
216,328,65604,1,0,0:0:0:0:
448,320,65904,6,0,B|448:248|432:232|432:232,3,86.2500032901765
416,168,66504,2,0,B|368:144|325:153|325:153,1,86.2500032901765
256,160,66804,1,0,0:0:0:0:
256,304,67104,1,0,0:0:0:0:
256,376,67404,5,0,0:0:0:0:
184,344,67704,1,0,0:0:0:0:
8,272,68004,1,0,0:0:0:0:
8,200,68304,1,0,0:0:0:0:
160,88,68604,1,0,0:0:0:0:
160,128,68754,1,0,0:0:0:0:
264,88,69054,1,0,0:0:0:0:
264,128,69204,1,0,0:0:0:0:
440,320,69504,6,0,L|344:320,1,86.2500032901765
291,364,69804,2,0,B|251:316|251:276|315:284|347:196|259:124|259:124,1,258.75000987053
184,72,70404,2,0,B|104:104|72:192|152:232|136:296|32:320,1,258.75000987053
32,344,71004,2,0,B|112:416|168:312|232:312|288:408|392:344,1,345.000013160706
448,296,71604,5,0,0:0:0:0:
480,232,71904,1,0,0:0:0:0:
312,72,72204,5,0,0:0:0:0:
240,160,72504,1,0,0:0:0:0:
328,288,72804,5,0,0:0:0:0:
80,288,73104,6,0,L|56:200,1,86.2500032901765
56,56,73404,2,0,L|72:152,1,86.2500032901765
96,72,73704,2,0,L|112:168,1,86.2500032901765
152,224,74004,2,0,L|240:224,1,86.2500032901765
176,248,74304,2,0,L|264:248,1,86.2500032901765
336,248,74604,5,0,0:0:0:0:
336,248,74754,1,0,0:0:0:0:
336,248,74904,1,0,0:0:0:0:
336,248,75054,1,0,0:0:0:0:
408,248,75204,2,0,L|368:144,1,86.2500032901765
408,248,75504,2,0,L|376:352,1,86.2500032901765
488,288,75804,2,0,L|456:392,1,86.2500032901765
488,216,76104,2,0,L|448:112,1,86.2500032901765
424,64,76404,5,0,0:0:0:0:
392,88,76554,1,0,0:0:0:0:
88,64,76854,1,0,0:0:0:0:
120,88,76987,6,0,L|296:88,1,172.500006580353
304,152,77437,1,0,0:0:0:0:
256,208,77587,2,0,L|24:208,1,172.500006580353
24,272,78037,1,0,0:0:0:0:
24,272,78187,2,0,L|224:272,1,172.500006580353
248,320,78637,1,0,0:0:0:0:
312,352,78787,2,0,L|512:352,1,172.500006580353
488,280,79237,1,0,0:0:0:0:
448,216,79387,6,0,L|336:216,1,86.2500032901765
336,144,79687,2,0,L|216:144,1,86.2500032901765
96,96,79987,2,0,L|216:96,1,86.2500032901765
0,168,80287,2,0,L|112:168,1,86.2500032901765
168,168,80587,1,0,0:0:0:0:
272,168,80887,1,0,0:0:0:0:
480,168,81187,1,0,0:0:0:0:
376,168,81487,1,0,0:0:0:0:
464,360,81787,6,0,L|377:360,1,86.2500032901765
296,240,82087,2,0,L|382:240,1,86.2500032901765
32,264,82387,6,0,L|118:264,1,86.2500032901765
206,352,82687,2,0,L|120:352,1,86.2500032901765
8,112,82987,6,0,L|112:112,1,86.2500032901765
112,176,83287,2,0,L|216:176,1,86.2500032901765
384,176,83587,6,0,L|480:176,1,86.2500032901765
384,176,83887,2,0,L|272:176,1,86.2500032901765
48,40,84187,6,0,L|168:40,1,86.2500032901765
200,40,84487,1,0,0:0:0:0:
200,40,84637,1,0,0:0:0:0:
80,112,84787,2,0,L|184:112,1,86.2500032901765
299,112,85087,1,0,0:0:0:0:
232,112,85237,1,0,0:0:0:0:
232,184,85387,2,0,L|376:184,1,86.2500032901765
389,184,85687,1,0,0:0:0:0:
461,184,85837,1,0,0:0:0:0:
496,248,85987,2,0,L|344:248,1,86.2500032901765
216,248,86287,2,0,L|96:248,1,86.2500032901765
64,344,86587,6,0,L|160:344,3,86.2500032901765
248,344,87187,2,0,L|344:344,3,86.2500032901765
392,232,87787,2,0,L|305:232,3,86.2500032901765
168,232,88387,2,0,L|81:232,3,86.2500032901765
32,168,88987,6,0,L|144:168,1,86.2500032901765
64,296,89287,2,0,L|168:296,1,86.2500032901765
88,104,89587,2,0,L|192:104,1,86.2500032901765
120,360,89887,2,0,L|248:360,1,86.2500032901765
272,360,90187,1,0,0:0:0:0:
48,360,90487,1,0,0:0:0:0:
16,336,90787,1,0,0:0:0:0:
304,336,91087,1,0,0:0:0:0:
304,336,91237,1,0,0:0:0:0:
304,272,91387,6,0,L|408:272,1,86.2500032901765
424,272,91687,1,0,0:0:0:0:
424,272,91837,1,0,0:0:0:0:
304,208,91987,2,0,L|200:208,1,86.2500032901765
72,208,92287,1,0,0:0:0:0:
144,208,92437,1,0,0:0:0:0:
72,136,92587,1,0,0:0:0:0:
144,136,92737,1,0,0:0:0:0:
216,136,92887,2,0,L|312:136,1,86.2500032901765
384,136,93187,1,0,0:0:0:0:
408,136,93337,1,0,0:0:0:0:
280,296,93637,5,0,0:0:0:0:
304,296,93787,2,0,L|360:296,3,43.1250016450883
384,296,94087,1,0,0:0:0:0:
384,296,94237,1,0,0:0:0:0:
400,216,94387,1,0,0:0:0:0:
320,216,94537,1,0,0:0:0:0:
216,216,94687,1,0,0:0:0:0:
96,216,94837,1,0,0:0:0:0:
32,160,94987,5,0,0:0:0:0:
152,160,95137,1,0,0:0:0:0:
272,160,95287,1,0,0:0:0:0:
392,160,95437,1,0,0:0:0:0:
464,96,95587,5,0,0:0:0:0:
296,96,95737,1,0,0:0:0:0:
184,96,95887,1,0,0:0:0:0:
104,96,96037,1,0,0:0:0:0:
377,96,96187,6,0,L|481:96,1,86.2500032901765
344,264,96787,2,0,L|344:360,1,86.2500032901765
120,224,97387,2,0,L|8:224,1,86.2500032901765
16,224,97837,1,0,0:0:0:0:
16,96,97987,1,0,0:0:0:0:
88,96,98287,6,0,L|160:96,1,43.1250016450883
200,96,98587,2,0,B|170:242|237:300|237:300,1,172.500006580353
212,336,99037,1,0,0:0:0:0:
212,264,99187,1,0,0:0:0:0:
307,273,99487,2,0,B|344:304|392:320|440:304|472:272|472:272,1,172.500006580353
472,208,99937,1,0,0:0:0:0:
472,136,100087,1,0,0:0:0:0:
256,48,100387,1,0,0:0:0:0:
40,136,100687,1,0,0:0:0:0:
40,240,100987,6,0,L|128:288,1,86.2500032901765
232,344,101287,2,0,B|328:296|320:176|320:176|288:120|232:136|232:136,1,258.75000987053
126,136,101887,2,0,L|39:136,5,86.2500032901765
200,136,102787,1,0,0:0:0:0:
200,280,103087,1,0,0:0:0:0:
432,280,103387,2,0,L|336:280,1,86.2500032901765
345,280,103687,2,0,L|345:176,1,86.2500032901765
344,128,103987,1,0,0:0:0:0:
344,352,104287,6,0,B|216:352|120:280|145:204|145:204,1,258.75000987053
88,80,104887,2,0,L|152:160,1,86.2500032901765
199,83,105187,2,0,L|127:163,1,86.2500032901765
80,216,105487,1,0,0:0:0:0:
344,352,105787,5,0,0:0:0:0:
344,352,105937,1,0,0:0:0:0:
456,152,106387,1,0,0:0:0:0:
456,152,106537,1,0,0:0:0:0:
256,40,106987,1,0,0:0:0:0:
256,40,107137,1,0,0:0:0:0:
56,152,107587,1,0,0:0:0:0:
56,152,107737,1,0,0:0:0:0:
128,152,107887,6,0,L|128:240,1,86.2500032901765
64,288,108187,2,0,B|144:376|328:312|328:312,1,258.75000987053
448,200,108787,2,0,B|272:280|192:248|192:248,1,258.75000987053
128,160,109387,2,0,B|232:64|408:104|408:104,1,258.75000987053
448,120,109987,1,0,0:0:0:0:
24,144,110287,6,0,B|16:184|16:184|32:200|32:200|24:224|24:224|40:240|40:240|32:264|32:264|48:280|48:280|48:312|48:312|72:320|72:320|64:352|64:352,1,230
480,192,110887,2,0,B|464:216|464:216|472:240|472:240|456:256|456:256|456:280|456:280|432:280|432:280|416:304|416:304|392:288|392:288|368:304|368:304|344:280,1,230
48,280,111487,1,0,0:0:0:0:
120,280,111637,1,0,0:0:0:0:
48,280,111787,1,0,0:0:0:0:
168,80,112087,1,0,0:0:0:0:
168,152,112237,1,0,0:0:0:0:
168,80,112387,1,0,0:0:0:0:
424,192,112687,2,0,L|312:192,1,86.2500032901765
272,192,112987,5,0,0:0:0:0:
128,216,113287,1,0,0:0:0:0:
96,352,113587,1,0,0:0:0:0:
352,312,113887,1,0,0:0:0:0:
456,72,114187,5,0,0:0:0:0:
416,352,114487,1,0,0:0:0:0:
96,352,114787,1,0,0:0:0:0:
56,72,115087,1,0,0:0:0:0:
216,56,115372,6,0,B|232:141|181:197|94:117|2:252|123:416|267:303,1,460
296,55,116272,2,0,B|279:140|330:196|417:116|509:251|388:415|244:302,1,460
200,248,117172,6,0,B|120:200|16:184|16:184|160:144|256:32|256:32|344:144|496:184|496:184|344:208|312:256|312:256,2,965.99997052002
200,248,120172,6,0,B|155:189|160:96|160:96|128:197|-11:193|146:371,1,460
312,248,121072,2,0,B|357:189|352:96|352:96|384:197|523:193|366:371,1,460
184,40,121972,6,0,B|208:120|120:208|128:304|256:352|256:352|384:304|392:208|304:120|328:40,2,724.499977890015
32,80,124372,5,0,0:0:0:0:
256,56,124672,1,0,0:0:0:0:
480,80,124972,1,0,0:0:0:0:
480,160,125872,6,0,B|488:240|448:256|448:256,1,86.2500032901765
392,208,126172,2,0,B|360:248|384:296|384:296,1,86.2500032901765
440,344,126472,1,0,0:0:0:0:
440,344,126622,1,0,0:0:0:0:
440,344,126772,1,0,0:0:0:0:
280,312,127072,6,0,B|240:288|192:296|192:296,1,86.2500032901765
176,224,127372,2,0,B|136:200|96:208|96:208,1,86.2500032901765
32,248,127672,1,0,0:0:0:0:
32,248,127822,1,0,0:0:0:0:
32,248,127972,1,0,0:0:0:0:
354,109,128572,6,0,B|383:258|497:219|497:219,1,172.500006580353
284,108,129172,2,0,B|254:257|140:218|140:218,1,172.500006580353
496,288,129772,2,0,B|352:352|328:344|304:352|136:280|136:280,1,345
144,352,130372,1,0,0:0:0:0:
496,216,130672,1,0,0:0:0:0:
224,56,130972,1,0,0:0:0:0:
224,56,131122,1,0,0:0:0:0:
224,56,131272,1,0,0:0:0:0:
224,56,131422,1,0,0:0:0:0:
296,56,131572,1,0,0:0:0:0:
296,56,131722,1,0,0:0:0:0:
296,56,131872,1,0,0:0:0:0:
296,56,132022,1,0,0:0:0:0:
368,56,132172,5,0,0:0:0:0:
368,72,132322,1,0,0:0:0:0:
368,88,132472,1,0,0:0:0:0:
368,104,132622,1,0,0:0:0:0:
296,120,132772,1,0,0:0:0:0:
296,136,132922,1,0,0:0:0:0:
296,152,133072,1,0,0:0:0:0:
296,168,133222,1,0,0:0:0:0:
368,208,133372,5,0,0:0:0:0:
328,264,133522,1,0,0:0:0:0:
259,264,133672,1,0,0:0:0:0:
219,208,133822,1,0,0:0:0:0:
145,136,133972,5,0,0:0:0:0:
145,208,134122,1,0,0:0:0:0:
145,280,134272,1,0,0:0:0:0:
145,352,134422,1,0,0:0:0:0:
208,320,134562,6,0,B|312:418|416:312|416:296|432:296|560:200|432:64,1,460
512,328,135462,2,0,B|415:418|311:312|311:296|295:296|167:200|268:101,1,460
512,16,136362,6,0,B|504:112|400:240|256:240|256:240|344:120|283:22|283:22|120:48|168:216|160:232|30:287,2,965.99997052002
216,192,139362,6,0,B|112:384|8:432|-32:304|32:120|32:120,1,482.99998526001
283,96,140262,2,0,B|475:104|563:208|491:344|251:296|251:296,1,482.99998526001
7,34,141162,6,0,B|-7:53|-7:53|-25:64|-25:64|-20:87|-20:87|-39:107|-39:107|-33:130|-33:130|-45:154|-45:154|-36:178|-36:178|-40:200|-40:200|-23:223|-23:223|-17:249|-17:249|7:258|7:258|27:272|27:272|60:276|60:276|78:293|78:293|103:289|103:289|123:298|123:298|142:283|142:283|165:278|165:278|180:259|180:259|205:266|205:266|226:247|226:247|246:249|246:249|271:236|271:236|269:208|269:208|279:191|279:191|277:165|277:165|293:144|293:144|296:119|296:119|309:105|309:105|326:92|326:92|348:97|348:97|363:85|363:85|395:90|395:90|419:85|419:85|440:103|440:103|446:131|446:131|462:155|462:155|464:182|464:182|479:203|479:203|478:227|476:229|476:229,2,965.99997052002
216,32,143862,1,0,0:0:0:0:
366,338,144162,1,0,0:0:0:0:
40,336,144762,5,0,0:0:0:0:
40,336,145062,5,0,0:0:0:0:
112,120,145362,2,0,L|224:120,1,86.2500032901765
264,120,145662,1,0,0:0:0:0:
336,120,145812,1,0,0:0:0:0:
264,120,145962,1,0,0:0:0:0:
264,280,146262,2,0,L|152:280,1,86.2500032901765
112,120,146562,2,0,L|112:232,1,86.2500032901765
112,280,146862,1,0,0:0:0:0:
112,280,147012,1,0,0:0:0:0:
112,280,147162,1,0,0:0:0:0:
0,280,147462,1,0,0:0:0:0:
72,32,147762,6,0,L|256:112,1,195.500003728867
464,120,148362,2,0,L|224:200,1,195.500003728867
208,200,148962,2,0,B|232:272|160:320|80:272|110:200|110:200,1,195.500003728867
104,152,149412,1,0,0:0:0:0:
104,152,149562,1,0,0:0:0:0:
336,152,149862,1,0,0:0:0:0:
16,152,150162,5,0,0:0:0:0:
16,184,150312,1,0,0:0:0:0:
40,216,150462,1,0,0:0:0:0:
40,248,150612,1,0,0:0:0:0:
40,328,150762,1,0,0:0:0:0:
80,328,150912,1,0,0:0:0:0:
120,304,151062,1,0,0:0:0:0:
160,304,151212,1,0,0:0:0:0:
232,304,151362,5,0,0:0:0:0:
304,304,151512,1,0,0:0:0:0:
266,240,151662,1,0,0:0:0:0:
232,176,151812,1,0,0:0:0:0:
304,168,151962,1,0,0:0:0:0:
376,160,152112,1,0,0:0:0:0:
448,152,152262,1,0,0:0:0:0:
448,152,152412,1,0,0:0:0:0:
408,64,152562,5,0,0:0:0:0:
320,48,152712,1,0,0:0:0:0:
232,64,152862,1,0,0:0:0:0:
160,120,153012,1,0,0:0:0:0:
80,200,153162,5,0,0:0:0:0:
232,176,153312,1,0,0:0:0:0:
24,280,153462,1,0,0:0:0:0:
312,232,153612,1,0,0:0:0:0:
176,312,153752,1,0,0:0:0:0:
256,192,153902,12,0,154802,0:0:0:0:
256,192,154952,12,0,156152,0:0:0:0:
256,192,156302,12,0,157202,0:0:0:0:
256,192,157652,5,0,0:0:0:0:
256,192,157802,12,0,158552,0:0:0:0:
256,192,158702,12,0,159602,0:0:0:0:
256,192,159752,12,0,160952,0:0:0:0:
136,232,161402,5,0,0:0:0:0:
136,232,161552,1,0,0:0:0:0:
368,232,161852,5,0,0:0:0:0:
368,232,162002,1,0,0:0:0:0:
256,336,162452,5,0,0:0:0:0:
256,336,162602,1,0,0:0:0:0:
256,80,163052,5,0,0:0:0:0:
256,80,163352,1,0,0:0:0:0:
256,192,163502,12,0,164252,0:0:0:0:
256,192,164402,5,0,0:0:0:0:
256,192,164552,12,0,165152,0:0:0:0:
136,192,165452,5,0,0:0:0:0:
256,192,165752,1,0,0:0:0:0:
256,192,165902,12,0,166352,0:0:0:0:
480,192,166802,5,0,0:0:0:0:
256,192,167252,1,0,0:0:0:0:
256,192,167402,12,0,167852,0:0:0:0:
256,192,168152,5,0,0:0:0:0:
256,192,168302,12,0,169052,0:0:0:0:
256,192,169202,5,0,0:0:0:0:
256,192,169352,12,0,170252,0:0:0:0:
256,192,170402,5,0,0:0:0:0:
184,192,170545,1,0,0:0:0:0:
184,120,170695,1,0,0:0:0:0:
256,120,170845,1,0,0:0:0:0:
328,120,170995,1,0,0:0:0:0:
328,192,171145,1,0,0:0:0:0:
328,264,171295,1,0,0:0:0:0:
256,264,171445,1,0,0:0:0:0:
184,264,171595,1,0,0:0:0:0:
104,208,171745,5,0,0:0:0:0:
0,304,171895,1,0,0:0:0:0:
120,352,172045,1,0,0:0:0:0:
104,208,172195,1,0,0:0:0:0:
48,40,172345,5,0,0:0:0:0:
248,96,172495,1,0,0:0:0:0:
104,208,172645,1,0,0:0:0:0:
168,8,172795,1,0,0:0:0:0:
168,8,172945,1,0,0:0:0:0:
472,104,173245,6,0,L|472:201,1,97.7500018644333
472,272,173545,2,0,L|368:272,3,97.7500018644333
304,272,174145,1,0,0:0:0:0:
304,272,174295,1,0,0:0:0:0:
232,272,174445,2,0,L|184:368,1,97.7500018644333
120,328,174745,1,0,0:0:0:0:
120,256,174895,1,0,0:0:0:0:
160,192,175045,1,0,0:0:0:0:
80,192,175195,1,0,0:0:0:0:
120,120,175345,6,0,B|200:56|320:88|320:88,1,195.500003728867
432,192,175945,2,0,B|320:256|216:208|216:208,1,195.500003728867
288,152,176395,1,0,0:0:0:0:
360,152,176545,5,0,0:0:0:0:
288,152,176695,1,0,0:0:0:0:
288,152,176845,1,0,0:0:0:0:
288,152,176995,1,0,0:0:0:0:
288,296,177145,5,0,0:0:0:0:
56,296,177745,1,0,0:0:0:0:
56,64,178345,1,0,0:0:0:0:
288,64,178945,1,0,0:0:0:0:
288,136,179095,1,0,0:0:0:0:
216,136,179245,1,0,0:0:0:0:
216,208,179395,1,0,0:0:0:0:
216,280,179545,1,0,0:0:0:0:
200,296,179695,1,0,0:0:0:0:
216,312,179845,1,0,0:0:0:0:
232,296,179995,1,0,0:0:0:0:
216,296,180145,6,0,B|320:368|416:312|416:312,1,195.500003728867
400,176,180745,1,0,0:0:0:0:
400,200,180895,1,0,0:0:0:0:
400,224,181045,1,0,0:0:0:0:
400,224,181195,1,0,0:0:0:0:
472,224,181345,2,0,L|472:16,2,195.500003728867
328,224,182245,1,0,0:0:0:0:
48,232,182545,6,0,L|48:128,3,97.7500018644333
48,64,183145,2,0,L|168:64,1,97.7500018644333
224,88,183445,2,0,L|96:88,1,97.7500018644333
120,160,183745,2,0,L|120:272,3,97.7500018644333
120,328,184345,1,0,0:0:0:0:
48,328,184495,1,0,0:0:0:0:
120,328,184645,1,0,0:0:0:0:
192,328,184795,1,0,0:0:0:0:
264,328,184945,6,0,L|264:208,1,97.7500018644333
336,232,185245,2,0,L|336:112,1,97.7500018644333
336,64,185545,2,0,L|464:64,3,97.7500018644333
208,64,186145,1,0,0:0:0:0:
256,112,186295,1,0,0:0:0:0:
208,160,186445,1,0,0:0:0:0:
160,112,186595,1,0,0:0:0:0:
88,112,186745,5,0,0:0:0:0:
88,208,186895,1,0,0:0:0:0:
88,112,187045,1,0,0:0:0:0:
88,208,187195,1,0,0:0:0:0:
11,206,187345,6,0,B|14:264|67:321|129:297|165:244|165:244,1,195.500003728867
224,216,187945,2,0,B|216:312|280:392|392:360|432:240|432:240,1,293.2500055933
416,208,188545,1,0,0:0:0:0:
488,208,188695,1,0,0:0:0:0:
416,208,188845,1,0,0:0:0:0:
488,208,188995,1,0,0:0:0:0:
416,136,189145,1,0,0:0:0:0:
344,112,189295,1,0,0:0:0:0:
272,88,189445,1,0,0:0:0:0:
200,64,189595,1,0,0:0:0:0:
200,136,189745,5,0,0:0:0:0:
128,208,189895,1,0,0:0:0:0:
200,280,190045,1,0,0:0:0:0:
272,208,190195,1,0,0:0:0:0:
344,208,190345,5,0,0:0:0:0:
200,352,190495,1,0,0:0:0:0:
56,208,190645,1,0,0:0:0:0:
200,64,190795,1,0,0:0:0:0:
200,64,190945,1,0,0:0:0:0:
200,64,191095,1,0,0:0:0:0:
256,8,191245,5,0,0:0:0:0:
424,192,191545,1,0,0:0:0:0:
256,376,191845,1,0,0:0:0:0:
88,192,192145,5,0,0:0:0:0:
88,192,192295,1,0,0:0:0:0:
144,248,192595,1,0,0:0:0:0:
144,248,192745,1,0,0:0:0:0:
216,224,193045,1,0,0:0:0:0:
216,224,193195,1,0,0:0:0:0:
272,280,193495,1,0,0:0:0:0:
272,280,193645,1,0,0:0:0:0:
272,280,193795,1,0,0:0:0:0:
392,328,194245,6,0,L|392:224,1,86.2500032901765
392,40,194545,1,0,0:0:0:0:
464,126,194845,2,0,L|464:40,2,86.2500032901765
392,168,195445,2,0,L|112:168,1,258.75000987053
133,168,196345,1,0,0:0:0:0:
56,168,196645,6,0,B|40:216|56:264|56:264,1,86.2500032901765
136,328,196945,2,0,B|144:288|136:240|136:240,1,86.2500032901765
133,168,197245,2,0,B|160:32|304:64|304:64,1,172.500006580353
416,200,197845,2,0,B|336:104|267:86|224:232|224:232,1,258.75000987053
392,320,198745,6,0,L|488:320,1,86.2500032901765
392,320,199045,2,0,B|328:280|216:296|216:296,1,172.500006580353
184,352,199645,1,0,0:0:0:0:
184,208,199945,1,0,0:0:0:0:
48,112,200245,1,0,0:0:0:0:
48,184,200395,1,0,0:0:0:0:
184,64,200695,1,0,0:0:0:0:
184,136,200845,6,0,L|296:136,1,86.2500032901765
472,136,201145,1,0,0:0:0:0:
368,136,201445,1,0,0:0:0:0:
112,136,201736,6,0,B|104:208|112:264|112:264,1,86.2500032901765
48,280,202036,2,0,B|96:320|138:329|138:329,1,86.2500032901765
176,264,202336,1,0,0:0:0:0:
400,136,202636,6,0,B|408:208|400:264|400:264,1,86.2500032901765
464,280,202936,2,0,B|416:320|373:329|373:329,1,86.2500032901765
336,264,203236,1,0,0:0:0:0:
336,264,203386,1,0,0:0:0:0:
480,48,203836,6,0,L|480:160,1,86.2500032901765
400,128,204136,2,0,B|336:272|176:256|176:256,1,258.75000987053
256,152,204736,2,0,B|136:248|-8:176|-8:176,1,258.75000987053
56,304,205336,2,0,B|40:184|168:72|168:72,1,258.75000987053
240,56,205936,5,0,0:0:0:0:
384,112,206236,2,0,L|297:112,2,86.2500032901765
384,192,206836,2,0,L|512:192,2,86.2500032901765
384,272,207436,1,0,0:0:0:0:
384,272,207586,1,0,0:0:0:0:
384,272,207736,1,0,0:0:0:0:
128,272,208036,1,0,0:0:0:0:
128,192,208186,1,0,0:0:0:0:
128,192,208336,2,0,L|0:192,2,86.2500032901765
256,192,208936,5,0,0:0:0:0:
256,192,209386,5,0,0:0:0:0:
256,192,209536,1,0,0:0:0:0:
256,32,209836,2,0,L|256:128,1,86.25
256,192,210436,1,0,0:0:0:0:
216,264,210736,1,0,0:0:0:0:
296,264,211036,1,0,0:0:0:0:
256,192,211336,6,0,B|312:216|368:152|368:152,1,86.2500032901765
328,88,211636,2,0,B|392:88|424:128|424:128,1,86.2500032901765
456,184,211936,1,0,0:0:0:0:
369,320,212236,2,0,L|456:320,1,86.2500032901765
216,320,212536,2,0,L|312:320,1,86.2500032901765
144,320,212836,1,0,0:0:0:0:
144,248,212986,1,0,0:0:0:0:
144,176,213136,1,0,0:0:0:0:
144,56,213436,6,0,B|96:72|80:128|80:128,1,86.2500032901765
144,176,213736,2,0,B|184:208|254:191|254:191,1,86.2500032901765
280,112,214036,1,0,0:0:0:0:
352,112,214186,1,0,0:0:0:0:
280,112,214336,1,0,0:0:0:0:
352,256,214636,1,0,0:0:0:0:
424,256,214786,1,0,0:0:0:0:
352,256,214936,1,0,0:0:0:0:
352,184,215086,5,0,0:0:0:0:
22,298,215536,2,0,B|46:281|73:289|73:289|77:283|77:283|95:298|118:302|118:302|120:293|120:293|150:315|150:315|156:313|156:313|170:321|184:321|184:321,1,172.500006580353
232,352,215986,1,0,0:0:0:0:
304,344,216136,2,0,B|368:344|400:312|400:312,1,86.2500032901765
456,336,216436,2,0,B|480:240|464:120|464:120,1,172.500006580353
256,40,217036,1,0,0:0:0:0:
304,96,217186,1,0,0:0:0:0:
256,152,217336,1,0,0:0:0:0:
256,232,217486,5,0,0:0:0:0:
208,288,217636,1,0,0:0:0:0:
256,344,217786,1,0,0:0:0:0:
328,344,217936,5,0,0:0:0:0:
144,344,218236,2,0,L|144:160,1,172.500006580353
0,128,218836,2,0,L|0:41,3,86.2500032901765
72,128,219436,6,0,B|128:200|232:136|232:136,1,172.500006580353
472,8,220036,2,0,L|472:104,1,86.2500032901765
400,112,220336,2,0,L|400:216,1,86.2500032901765
328,216,220636,2,0,L|328:304,1,86.2500032901765
328,376,220936,5,0,0:0:0:0:
256,160,221236,1,0,0:0:0:0:
256,232,221386,1,0,0:0:0:0:
256,304,221536,1,0,0:0:0:0:
144,112,221836,2,0,L|144:208,1,86.2500032901765
80,240,222136,1,0,0:0:0:0:
80,312,222286,1,0,0:0:0:0:
80,240,222436,5,0,0:0:0:0:
80,168,222586,1,0,0:0:0:0:
80,96,222736,1,0,0:0:0:0:
344,48,223036,2,0,L|208:48,1,86.2500032901765
184,48,223336,6,0,B|208:200|416:152|416:152,1,258.75000987053
472,160,223936,2,0,B|440:320|288:328|288:328,1,258.75000987053
214,326,224536,2,0,B|224:328|72:320|40:160,1,258.75000987053
40,80,225136,1,0,0:0:0:0:
256,192,225586,1,0,0:0:0:0:
256,192,225736,1,0,0:0:0:0:
256,48,226036,5,0,0:0:0:0:
256,120,226186,1,0,0:0:0:0:
256,192,226336,1,0,0:0:0:0:
256,344,226636,6,0,L|256:256,1,86.2500032901765
169,192,226936,2,0,L|256:192,1,86.2500032901765
342,192,227236,2,0,L|256:192,1,86.2500032901765
136,120,227536,2,0,L|240:120,1,86.2500032901765
376,120,227836,2,0,L|272:120,1,86.2500032901765
88,48,228136,2,0,L|240:48,1,86.2500032901765
424,48,228436,2,0,L|272:48,1,86.2500032901765
136,120,228736,6,0,L|8:120,1,86.2500032901765
376,120,229036,2,0,L|504:120,1,86.2500032901765
480,192,229336,1,0,0:0:0:0:
448,256,229486,1,0,0:0:0:0:
488,320,229636,2,0,L|336:320,1,86.2500032901765
160,368,229936,5,0,0:0:0:0:
352,368,230086,1,0,0:0:0:0:
208,312,230236,1,0,0:0:0:0:
304,312,230386,1,0,0:0:0:0:
256,256,230524,6,0,L|256:48,1,172.500006580353
256,64,230974,1,0,0:0:0:0:
184,16,231124,2,0,B|25:5|128:152|128:152,1,172.500006580353
144,176,231574,1,0,0:0:0:0:
184,232,231724,2,0,B|165:199|268:346|109:335,1,172.500006580353
104,264,232174,1,0,0:0:0:0:
43,224,232324,2,0,B|-37:101|141:120|104:120,1,172.500006580353
176,112,232774,1,0,0:0:0:0:
248,112,232924,6,0,B|288:32|312:136|312:136,1,86.2500032901765
328,112,233224,2,0,B|368:32|392:136|392:136,1,86.2500032901765
488,208,233524,2,0,B|448:288|424:184|424:184,1,86.2500032901765
352,208,233824,2,0,B|312:288|288:184|288:184,1,86.2500032901765
240,248,234124,1,0,0:0:0:0:
64,120,234424,1,0,0:0:0:0:
16,352,234724,1,0,0:0:0:0:
224,320,235024,1,0,0:0:0:0:
360,328,235324,6,0,B|336:392|272:344|272:344,1,86.2500032901765
368,256,235624,2,0,B|440:208|440:328|440:328,1,86.2500032901765
312,88,235924,6,0,P|325:128|330:171,1,86.2500032901765
258,27,236224,2,0,P|304:66|312:114,1,86.2500032901765
200,86,236524,2,0,P|219:47|258:27,1,86.2500032901765
182,171,236824,2,0,P|186:128|200:87,1,86.2500032901765
32,344,237124,6,0,B|83:351|99:279|90:304,1,86.2500032901765
105,195,237424,2,0,B|137:139|225:187|225:187,1,86.2500032901765
408,192,237724,6,0,B|376:248|288:200|288:200,1,86.2500032901765
256,192,238024,1,0,0:0:0:0:
256,192,238174,1,0,0:0:0:0:
408,224,238324,6,0,B|376:280|288:232|288:232,1,86.2500032901765
256,120,238624,1,0,0:0:0:0:
256,120,238774,1,0,0:0:0:0:
408,256,238924,6,0,B|376:312|288:264|288:264,1,86.2500032901765
216,56,239224,1,0,0:0:0:0:
296,56,239374,1,0,0:0:0:0:
368,96,239524,6,0,B|400:120|448:120|448:120,1,86.2500032901765
208,176,239824,2,0,B|176:152|128:152|128:152,1,86.2500032901765
128,280,240124,6,0,B|104:360|80:280|81:283,3,86.2500032901765
192,304,240724,1,0,0:0:0:0:
256,328,240874,1,0,0:0:0:0:
320,304,241024,1,0,0:0:0:0:
384,280,241174,1,0,0:0:0:0:
488,248,241324,6,0,B|488:244|473:331|449:246,1,86.2500032901765
408,160,241624,2,0,B|408:156|393:243|369:158,1,86.2500032901765
344,88,241924,5,0,0:0:0:0:
256,152,242074,1,0,0:0:0:0:
208,104,242224,1,0,0:0:0:0:
168,224,242374,1,0,0:0:0:0:
107,192,242524,6,0,B|51:218|38:152|38:152,2,86.2500032901765
168,224,242974,1,0,0:0:0:0:
208,280,243124,2,0,B|185:332|247:340,1,86.2500032901765
312,344,243424,1,0,0:0:0:0:
312,344,243574,1,0,0:0:0:0:
384,344,243724,5,0,0:0:0:0:
230,68,244024,1,0,0:0:0:0:
445,36,244324,1,0,0:0:0:0:
445,36,244474,1,0,0:0:0:0:
89,233,244774,1,0,0:0:0:0:
89,233,244924,1,0,0:0:0:0:
89,264,245074,6,0,B|121:320|161:280|161:280,2,86.2500032901765
22,240,245524,1,0,0:0:0:0:
30,171,245674,1,0,0:0:0:0:
66,112,245824,1,0,0:0:0:0:
128,81,245974,1,0,0:0:0:0:
226,53,246124,6,0,B|278:84|246:148|246:148,1,86.2500032901765
358,146,246424,2,0,B|338:202|282:192|282:192,1,86.2500032901765
434,246,246724,5,0,0:0:0:0:
387,318,246874,1,0,0:0:0:0:
309,279,247024,1,0,0:0:0:0:
258,348,247174,1,0,0:0:0:0:
176,319,247324,1,0,0:0:0:0:
112,320,247474,2,0,L|48:321,3,43.1250016450883
48,320,247774,1,0,0:0:0:0:
48,320,247924,5,0,0:0:0:0:
80,232,248074,1,0,0:0:0:0:
64,56,248224,1,0,0:0:0:0:
32,168,248374,1,0,0:0:0:0:
128,168,248524,1,0,0:0:0:0:
176,232,248674,1,0,0:0:0:0:
192,56,248824,1,0,0:0:0:0:
224,168,248974,1,0,0:0:0:0:
456,104,249124,1,0,0:0:0:0:
272,104,249274,1,0,0:0:0:0:
408,168,249424,1,0,0:0:0:0:
320,168,249574,1,0,0:0:0:0:
366,232,249724,6,0,L|366:357,1,86.2500032901765
216,360,250324,2,0,L|112:360,1,86.2500032901765
32,240,250924,2,0,L|32:152,1,86.2500032901765
32,88,251374,1,0,0:0:0:0:
32,88,251524,1,0,0:0:0:0:
256,88,251824,2,0,L|176:88,1,43.1250016450883
144,88,252124,6,0,B|120:136|152:200|152:200,1,86.2500032901765
104,232,252424,2,0,B|224:344|280:152|280:152,1,172.500006580353
320,168,252874,1,0,0:0:0:0:
320,168,253024,2,0,B|312:240|352:280|400:264|439:206|439:206,1,172.500006580353
256,120,253624,6,0,L|256:32,1,86.2500032901765
256,264,253924,2,0,L|256:352,1,86.2500032901765
24,233,254524,6,0,L|24:320,1,86.2500032901765
24,152,254824,2,0,L|24:24,2,86.2500032901765
224,240,255424,6,0,B|114:325|94:181|98:198,1,172.500006580353
97,196,255874,1,0,0:0:0:0:
224,240,256174,1,0,0:0:0:0:
296,240,256324,2,0,P|312:296|344:304,1,86.2500032901765
368,240,256624,2,0,L|368:136,1,86.2500032901765
368,48,256924,5,0,0:0:0:0:
184,120,257224,2,0,L|80:120,2,86.2500032901765
246,288,257824,2,0,L|134:288,3,86.2500032901765
160,288,258424,2,0,P|200:328|208:376,1,86.2500032901765
88,288,258724,2,0,L|32:208,1,86.2500032901765
176,160,259024,2,0,L|124:91,1,86.2500032901765
72,24,259324,5,0,0:0:0:0:
256,88,259774,1,0,0:0:0:0:
256,88,259924,1,0,0:0:0:0:
440,24,260374,1,0,0:0:0:0:
440,24,260524,1,0,0:0:0:0:
256,88,260824,1,0,0:0:0:0:
256,136,260974,1,0,0:0:0:0:
256,184,261124,1,0,0:0:0:0:
256,270,261424,6,0,L|256:182,1,86.2500032901765
256,88,261724,6,0,B|184:64|112:88|72:144|80:240|80:240,1,258.75000987053
152,312,262324,2,0,B|239:301|300:280|323:193|283:120|283:120,1,258.75000987053
192,200,262924,2,0,P|400:360|400:360,1,258.75000987053
424,358,263524,1,0,0:0:0:0:
428,47,263824,6,0,B|424:71|422:71|422:71|445:86|435:119|435:119|438:109|438:109|463:129|452:172|452:172|457:161|457:161|491:192|479:230|479:230,1,230
43,220,264424,2,0,B|49:201|49:201|51:176|51:176|61:166|61:166|55:137|55:137|45:142|45:142|26:122|27:98|27:98|40:78|73:70|73:70|80:79|80:79|88:61|88:61|112:51,1,230
256,120,265024,5,0,0:0:0:0:
328,120,265174,1,0,0:0:0:0:
256,120,265324,1,0,0:0:0:0:
256,264,265624,1,0,0:0:0:0:
184,264,265774,1,0,0:0:0:0:
328,264,265924,1,0,0:0:0:0:
184,120,266224,1,0,0:0:0:0:
128,304,266524,5,0,0:0:0:0:
48,128,266824,1,0,0:0:0:0:
200,16,267124,5,0,0:0:0:0:
112,152,267424,1,0,0:0:0:0:
224,352,267724,5,0,0:0:0:0:
176,176,268024,1,0,0:0:0:0:
336,24,268324,5,0,0:0:0:0:
240,200,268624,1,0,0:0:0:0:
288,296,268907,6,0,B|560:280|536:208|560:136|280:88,1,529.000010089874
224,296,269807,2,0,B|-48:280|-24:208|-48:136|232:88,1,529.000010089874
352,376,270707,6,0,B|592:312|504:-40|176:128|120:315|120:315|-67:221|-11:6|112:-40|72:40,2,1103.99996630859
256,32,273707,6,0,B|160:64|88:200|40:320|88:368|240:384|264:288|232:200|160:248,1,529.000010089874
256,32,274607,2,0,B|352:64|424:200|472:320|424:368|272:384|248:288|280:200|352:248,1,529.000010089874
9,137,275507,6,0,B|75:199|59:260|59:260|155:251|218:251|247:353|162:396|51:386|38:305|165:170|241:136|241:136|324:229|522:244|532:101|405:-36|408:34,2,1058.00002017975
256,48,278207,1,0,0:0:0:0:
472,280,278507,1,0,0:0:0:0:
304,352,279407,6,0,B|320:296|296:264|296:264,1,86.2500032901765
208,304,279707,2,0,B|192:256|232:208|232:208,1,86.2500032901765
256,152,280007,1,0,0:0:0:0:
256,152,280157,1,0,0:0:0:0:
256,152,280307,1,0,0:0:0:0:
136,88,280607,6,0,B|160:48|200:32|200:32,1,86.2500032901765
384,96,280907,2,0,B|336:56|288:56|288:56,1,86.2500032901765
256,152,281207,1,0,0:0:0:0:
256,152,281357,1,0,0:0:0:0:
256,152,281507,1,0,0:0:0:0:
256,256,281807,1,0,0:0:0:0:
256,256,281957,1,0,0:0:0:0:
256,336,282107,6,0,B|144:368|72:272|72:272,1,201.25000191927
256,152,282707,2,0,B|144:120|72:216|75:211,1,201.25000191927
400,16,283307,2,0,B|312:72|312:168|328:192|312:232|328:304|408:392|408:392,1,396.750007567406
304,368,283907,1,0,0:0:0:0:
464,120,284207,1,0,0:0:0:0:
152,56,284507,1,0,0:0:0:0:
152,56,284657,1,0,0:0:0:0:
152,56,284807,1,0,0:0:0:0:
152,56,284957,1,0,0:0:0:0:
224,56,285107,1,0,0:0:0:0:
224,56,285257,1,0,0:0:0:0:
224,56,285407,1,0,0:0:0:0:
224,56,285557,1,0,0:0:0:0:
344,56,285707,5,0,0:0:0:0:
296,56,285857,1,0,0:0:0:0:
344,104,286007,1,0,0:0:0:0:
296,104,286157,1,0,0:0:0:0:
344,152,286307,1,0,0:0:0:0:
296,152,286457,1,0,0:0:0:0:
344,200,286607,1,0,0:0:0:0:
296,200,286757,1,0,0:0:0:0:
224,200,286907,5,0,0:0:0:0:
192,264,287057,1,0,0:0:0:0:
160,192,287207,1,0,0:0:0:0:
128,272,287357,1,0,0:0:0:0:
96,184,287507,1,0,0:0:0:0:
64,280,287657,1,0,0:0:0:0:
32,176,287807,1,0,0:0:0:0:
0,288,287957,1,0,0:0:0:0:
0,120,288107,6,0,B|96:-88|344:8|176:128|176:128|216:192|288:192,1,529.000010089874
0,264,289007,2,0,B|96:472|344:376|176:256|176:256|216:192|288:192,1,529.000010089874
224,368,289907,6,0,B|472:368|432:192|304:184|72:192|72:192|304:200|432:192|528:16|176:0|176:0,2,1103.99996630859
336,288,292897,6,0,B|264:288|296:224|344:192|424:208|464:296|440:456|264:440|248:280|168:256|64:328|64:328,1,529.000010089874
377,112,293797,2,0,B|392:120|288:48|208:72|192:232|16:248|-8:88|32:0|112:-16|160:16|192:80|117:80,1,529.000010089874
212,348,294697,6,0,B|206:332|206:332|184:336|184:336|167:323|167:323|146:325|146:325|143:308|143:308|127:295|127:295|125:273|125:273|105:260|105:260|111:237|111:237|103:214|103:214|116:197|116:197|99:163|99:163|110:145|110:145|112:113|112:113|129:99|129:99|139:69|139:69|167:67|167:67|185:47|185:47|214:62|214:62|233:38|233:38|262:59|262:59|278:41|278:41|313:54|313:54|336:43|336:43|357:61|357:61|362:85|362:85|389:94|389:94|390:134|390:134|405:162|405:162|382:181|382:181|405:207|405:207|409:229|409:229|398:246|398:246|405:273|405:273|392:291|392:291|376:312|376:312|376:328|376:328|349:345|349:345|329:345|329:345|307:334|307:334|299:348|299:348|291:326|291:326|259:335|259:335,2,1103.99996630859
256,192,297397,1,0,0:0:0:0:
256,192,297697,1,0,0:0:0:0:
256,296,298297,5,0,0:0:0:0:
256,296,298597,5,0,0:0:0:0:
184,296,298897,2,0,L|48:296,1,100.625000959635
8,296,299197,2,0,L|8:152,1,100.625000959635
8,80,299497,1,0,0:0:0:0:
48,136,299647,1,0,0:0:0:0:
88,80,299797,1,0,0:0:0:0:
128,136,299947,1,0,0:0:0:0:
160,80,300097,6,0,B|344:-40|440:136|440:136,1,301.875002878904
496,120,300697,1,0,0:0:0:0:
496,192,300847,1,0,0:0:0:0:
448,248,300997,1,0,0:0:0:0:
448,320,301147,1,0,0:0:0:0:
376,320,301297,6,0,L|136:352,1,230
0,232,301897,2,0,L|240:264,1,230
200,112,302492,2,0,B|48:32|-8:192|-8:192,1,230
0,232,302942,1,0,0:0:0:0:
0,232,303092,1,0,0:0:0:0:
200,232,303392,2,0,L|80:232,1,115
0,232,303692,1,0,0:0:0:0:
40,304,303842,1,0,0:0:0:0:
120,304,303992,1,0,0:0:0:0:
176,360,304142,1,0,0:0:0:0:
256,336,304292,5,0,0:0:0:0:
256,248,304442,1,0,0:0:0:0:
256,336,304592,1,0,0:0:0:0:
256,248,304742,1,0,0:0:0:0:
336,360,304892,5,0,0:0:0:0:
392,304,305042,1,0,0:0:0:0:
472,304,305192,1,0,0:0:0:0:
512,232,305342,1,0,0:0:0:0:
464,152,305492,5,0,0:0:0:0:
424,72,305642,1,0,0:0:0:0:
328,72,305792,1,0,0:0:0:0:
288,152,305942,1,0,0:0:0:0:
376,152,306092,1,0,0:0:0:0:
248,72,306242,1,0,0:0:0:0:
152,72,306392,1,0,0:0:0:0:
112,152,306542,1,0,0:0:0:0:
200,152,306692,5,0,0:0:0:0:
200,272,306842,1,0,0:0:0:0:
200,152,306992,1,0,0:0:0:0:
200,24,307142,1,0,0:0:0:0:
200,24,307292,6,0,B|-176:360|320:368|320:368,1,575
200,24,308192,2,0,B|216:560|496:72|496:72,1,575
256,192,309092,6,0,L|218:322,1,115
256,192,309392,2,0,L|293:322,1,115
192,160,309692,2,0,L|144:272,1,115
320,160,309992,2,0,L|368:272,1,115
136,112,310292,2,0,L|64:232,1,115
376,112,310592,2,0,L|448:232,1,115
48,304,310892,6,0,B|0:240|0:184|0:184,1,115
464,304,311192,2,0,B|512:240|512:184|512:184,1,115
256,192,311492,1,0,0:0:0:0:
256,192,311792,1,0,0:0:0:0:
69,139,312092,6,0,B|-161:60|-78:-79|249:-90|261:223|261:223,1,575
443,245,312992,2,0,B|673:324|590:463|263:474|251:161|251:161,1,575
256,192,313892,6,0,B|208:240|223:325|223:325,1,115
256,192,314192,2,0,B|304:240|288:325|288:325,1,115
184,168,314492,2,0,B|128:200|112:264|112:264,1,115
328,168,314792,2,0,B|384:200|400:264|400:264,1,115
128,120,315092,2,0,B|64:120|8:168|8:168,1,115
384,120,315392,2,0,B|448:120|504:168|504:168,1,115
112,56,315692,6,0,B|40:64|0:16|0:16,1,115
400,56,315992,2,0,B|472:64|512:16|512:16,1,115
256,72,316292,1,0,0:0:0:0:
256,312,316592,1,0,0:0:0:0:
256,192,316887,5,0,0:0:0:0:
256,192,317487,5,0,0:0:0:0:
85,240,317787,6,0,L|200:240,1,115
256,192,318087,1,0,0:0:0:0:
328,192,318237,1,0,0:0:0:0:
400,192,318387,1,0,0:0:0:0:
400,192,318537,1,0,0:0:0:0:
432,264,318687,6,0,L|296:264,1,115
280,328,318987,1,0,0:0:0:0:
280,328,319137,1,0,0:0:0:0:
216,368,319287,2,0,B|-2:341|32:120|32:120,1,345
112,48,319887,1,0,0:0:0:0:
144,80,320037,1,0,0:0:0:0:
112,112,320187,1,0,0:0:0:0:
80,80,320337,1,0,0:0:0:0:
112,80,320487,6,0,B|176:216|309:151|309:151,1,230
416,120,321087,2,0,B|391:268|245:242|245:242,1,230
464,368,321687,2,0,L|216:16,1,431.25
256,16,322287,1,0,0:0:0:0:
120,280,322587,1,0,0:0:0:0:
56,128,322887,6,0,L|56:264,1,115
120,280,323187,1,0,0:0:0:0:
192,280,323337,1,0,0:0:0:0:
120,280,323487,1,0,0:0:0:0:
256,248,323787,6,0,L|256:133,1,115
200,72,324087,1,0,0:0:0:0:
184,40,324237,1,0,0:0:0:0:
328,40,324387,1,0,0:0:0:0:
312,72,324537,1,0,0:0:0:0:
256,128,324687,6,0,B|24:128|24:128|488:128,1,690
480,168,325887,5,0,0:0:0:0:
480,168,326037,1,0,0:0:0:0:
480,168,326187,1,0,0:0:0:0:
480,168,326337,1,0,0:0:0:0:
480,240,326482,6,0,B|472:392|304:432|152:352|120:264|120:264|152:216|136:168|136:168,1,575
56,200,327382,2,0,B|64:48|232:8|384:88|416:176|416:176|384:224|400:272|400:272,1,575
222,340,328282,6,0,B|257:306|257:218|256:240,1,115
289,340,328582,2,0,B|254:306|254:218|256:240,1,115
80,256,328882,2,0,B|144:240|184:208,1,115
432,256,329182,2,0,B|368:240|328:208,1,115
12,123,329482,2,0,B|8:120|56:160|120:160,1,115
499,123,329782,2,0,B|504:120|456:160|392:160,1,115
16,14,330082,6,0,B|16:16|0:80|16:128,1,115
495,14,330382,2,0,B|496:16|512:80|496:128,1,115
256,152,330682,1,0,0:0:0:0:
256,152,330982,1,0,0:0:0:0:
192,344,331282,6,0,B|40:432|-136:288|0:104|120:240|176:144|176:144|176:200|248:240,1,575
320,344,332182,2,0,B|472:432|648:288|512:104|392:240|336:144|336:144|336:200|264:240,1,575
208,192,333082,2,0,B|136:192|96:136|96:136,1,115
304,192,333382,2,0,B|376:192|416:136|416:136,1,115
146,251,333682,2,0,B|95:200|106:132|106:132,1,115
366,251,333982,2,0,B|416:200|405:132|405:132,1,115
35,234,334282,2,0,B|53:164|118:140|118:140,1,115
477,234,334582,2,0,B|458:164|393:140|393:140,1,115
18,77,334882,6,0,B|87:95|111:160|111:160,1,115
494,77,335182,2,0,B|424:95|400:160|400:160,1,115
24,192,335482,1,0,0:0:0:0:
488,192,335782,1,0,0:0:0:0:
256,192,336077,5,0,0:0:0:0:
256,200,336377,1,0,0:0:0:0:
256,208,336677,1,0,0:0:0:0:
256,272,336977,6,0,L|128:272,1,115
256,272,337277,2,0,B|320:320|384:312|384:312,1,115
400,248,337577,2,0,B|392:184|416:128|416:128,1,115
456,64,337877,1,0,0:0:0:0:
384,64,338027,1,0,0:0:0:0:
240,64,338177,1,0,0:0:0:0:
312,64,338327,1,0,0:0:0:0:
168,64,338477,6,0,B|152:120|112:160|112:160,1,115
32,176,338777,2,0,B|64:232|64:312|64:312,1,115
120,336,339077,1,0,0:0:0:0:
232,336,339227,1,0,0:0:0:0:
160,272,339377,1,0,0:0:0:0:
272,272,339527,1,0,0:0:0:0:
120,208,339677,6,0,B|224:136|416:184|416:184|424:184,1,230
120,208,340277,2,0,B|96:88|0:16|0:16,1,230
8,136,340877,2,0,L|448:8,1,431.25
424,80,341477,1,0,0:0:0:0:
72,256,341777,5,0,0:0:0:0:
96,328,341927,1,0,0:0:0:0:
176,328,342077,1,0,0:0:0:0:
200,256,342227,1,0,0:0:0:0:
136,200,342377,1,0,0:0:0:0:
168,128,342527,1,0,0:0:0:0:
136,56,342677,1,0,0:0:0:0:
376,56,342977,1,0,0:0:0:0:
376,56,343127,1,0,0:0:0:0:
376,120,343272,5,0,0:0:0:0:
376,200,343422,1,0,0:0:0:0:
296,200,343572,5,0,0:0:0:0:
376,200,343722,1,0,0:0:0:0:
376,280,343872,5,0,0:0:0:0:
376,200,344022,1,0,0:0:0:0:
456,200,344172,5,0,0:0:0:0:
376,200,344322,1,0,0:0:0:0:
152,200,344472,6,0,L|296:200,1,143.75
88,240,344772,2,0,L|256:240,1,143.75
64,120,345072,2,0,L|207:120,1,143.75
8,344,345372,2,0,L|168:344,1,143.75
256,344,345667,5,0,0:0:0:0:
256,344,345817,1,0,0:0:0:0:
440,344,345967,2,0,L|320:344,1,115
256,272,346267,1,0,0:0:0:0:
256,272,346417,1,0,0:0:0:0:
440,272,346567,2,0,L|320:272,1,115
256,200,346867,1,0,0:0:0:0:
256,200,347017,1,0,0:0:0:0:
440,200,347167,2,0,L|320:200,1,115
80,240,347467,6,0,B|136:272|200:240|200:240,1,115
0,104,347767,2,0,B|56:80|128:112|128:112,1,115
192,56,348067,6,0,L|192:192,1,115
256,112,348367,2,0,L|256:240,1,115
256,296,348667,1,0,0:0:0:0:
224,352,348817,1,0,0:0:0:0:
288,352,348967,1,0,0:0:0:0:
256,296,349117,1,0,0:0:0:0:
176,296,349267,6,0,B|96:320|17:298|17:298,1,143.75
142,232,349567,2,0,B|65:207|30:144|30:144,1,143.75
160,147,349867,2,0,B|107:80|112:11|112:11,1,143.75
246,96,350167,2,0,B|294:33|366:22|366:22,1,143.75
400,88,350467,6,0,L|400:216,1,103.499996841431
400,256,350767,1,0,0:0:0:0:
400,256,350917,1,0,0:0:0:0:
232,256,351067,2,0,L|336:256,1,103.499996841431
400,256,351367,1,0,0:0:0:0:
400,256,351517,1,0,0:0:0:0:
472,256,351667,2,0,L|472:136,1,103.499996841431
472,49,351967,2,0,L|472:169,1,103.499996841431
408,152,352267,1,0,0:0:0:0:
352,192,352417,1,0,0:0:0:0:
296,152,352567,1,0,0:0:0:0:
226,152,352717,1,0,0:0:0:0:
154,152,352867,6,0,L|154:272,1,103.499996841431
154,152,353167,2,0,L|154:32,1,103.499996841431
96,24,353467,1,0,0:0:0:0:
96,24,353617,1,0,0:0:0:0:
96,90,353767,5,0,0:0:0:0:
256,192,354067,1,0,0:0:0:0:
416,294,354367,1,0,0:0:0:0:
416,120,354667,5,0,0:0:0:0:
416,120,354967,2,0,L|520:120,1,103.499996841431
416,120,355262,6,0,B|344:168|312:168|312:168,1,92
256,168,355562,2,0,B|192:160|144:128|144:128,1,92
112,88,355862,1,0,0:0:0:0:
40,88,356012,1,0,0:0:0:0:
112,88,356162,1,0,0:0:0:0:
112,88,356312,1,0,0:0:0:0:
80,152,356462,6,0,B|80:200|64:240|64:240,1,92
40,312,356762,2,0,B|88:352|144:328|144:328,1,92
192,328,357062,1,0,0:0:0:0:
256,328,357212,1,0,0:0:0:0:
320,296,357362,1,0,0:0:0:0:
256,296,357512,1,0,0:0:0:0:
320,328,357662,6,0,L|464:328,1,92
456,272,357962,1,0,0:0:0:0:
456,272,358112,1,0,0:0:0:0:
416,120,358262,2,0,L|416:224,1,92
456,272,358562,1,0,0:0:0:0:
456,272,358712,1,0,0:0:0:0:
416,212,358862,5,0,0:0:0:0:
352,240,359012,1,0,0:0:0:0:
304,192,359162,1,0,0:0:0:0:
248,224,359312,1,0,0:0:0:0:
160,160,359462,5,0,0:0:0:0:
184,224,359612,1,0,0:0:0:0:
72,248,359762,1,0,0:0:0:0:
136,272,359912,1,0,0:0:0:0:
184,328,360062,6,0,L|80:360,2,86.2500032901765
256,312,360512,1,0,0:0:0:0:
328,328,360662,2,0,L|432:360,2,86.2500032901765
256,312,361112,1,0,0:0:0:0:
208,256,361262,6,0,L|208:160,1,86.2500032901765
256,120,361562,1,0,0:0:0:0:
256,120,361712,1,0,0:0:0:0:
304,64,361862,2,0,B|344:104|392:104|392:104,1,86.2500032901765
464,96,362162,2,0,B|432:152|432:200|432:200,1,86.2500032901765
456,240,362462,1,0,0:0:0:0:
432,280,362612,1,0,0:0:0:0:
408,240,362762,1,0,0:0:0:0:
384,280,362912,1,0,0:0:0:0:
336,280,363062,6,0,L|200:280,1,86.2500032901765
184,280,363362,1,0,0:0:0:0:
184,280,363512,1,0,0:0:0:0:
32,280,363662,2,0,L|128:280,1,86.2500032901765
184,280,363962,1,0,0:0:0:0:
184,280,364112,1,0,0:0:0:0:
176,192,364262,5,0,0:0:0:0:
160,176,364412,1,0,0:0:0:0:
80,176,364562,1,0,0:0:0:0:
64,160,364712,1,0,0:0:0:0:
16,104,364857,6,0,L|104:64,3,80.499997543335
152,64,365457,1,0,0:0:0:0:
200,64,365607,1,0,0:0:0:0:
264,64,365757,2,0,L|337:97,3,80.499997543335
368,152,366357,1,0,0:0:0:0:
368,200,366507,1,0,0:0:0:0:
328,248,366657,2,0,L|254:281,3,80.499997543335
344,312,367257,6,0,L|488:312,1,137.999995788574
280,312,367857,2,0,L|112:312,1,137.999995788574
64,248,368457,1,0,0:0:0:0:
64,160,368757,1,0,0:0:0:0:
136,64,369057,1,0,0:0:0:0:
136,160,369357,1,0,0:0:0:0:
136,176,369657,6,0,B|192:200|259:188|259:188,1,115
424,128,370257,2,0,B|384:184|312:192|312:192,1,115
184,320,370857,2,0,B|256:312|288:248|288:248,1,115
310,371,371457,2,0,B|278:307|278:243|278:243,1,115
256,112,372057,5,0,0:0:0:0:
256,120,372348,5,0,0:0:0:0:
256,192,372948,5,0,0:0:0:0:
160,192,373248,1,0,0:0:0:0:
352,192,373548,1,0,0:0:0:0:
256,16,374448,5,0,0:0:0:0:
208,248,376248,5,0,0:0:0:0:
208,248,376398,1,0,0:0:0:0:
304,248,376698,1,0,0:0:0:0:
304,248,376848,1,0,0:0:0:0:
256,144,377748,5,0,0:0:0:0:
256,272,378348,1,0,0:0:0:0:
200,312,378648,1,0,0:0:0:0:
312,312,378948,1,0,0:0:0:0:
256,208,379248,5,0,0:0:0:0:
144,56,380148,1,0,0:0:0:0:
368,56,381048,1,0,0:0:0:0:
256,56,381348,1,0,0:0:0:0:
368,192,381941,5,0,0:0:0:0:
368,192,382091,1,0,0:0:0:0:
256,192,382391,1,0,0:0:0:0:
216,192,382541,1,0,0:0:0:0:
256,192,382691,1,0,0:0:0:0:
296,192,382841,1,0,0:0:0:0:
144,192,383141,1,0,0:0:0:0:
432,272,384041,5,0,0:0:0:0:
80,272,385091,1,0,0:0:0:0:
168,296,385391,1,0,0:0:0:0:
168,248,385541,1,0,0:0:0:0:
216,144,385841,5,0,0:0:0:0:
352,136,386291,1,0,0:0:0:0:
352,152,386441,1,0,0:0:0:0:
464,120,386741,1,0,0:0:0:0:
464,160,386841,1,0,0:0:0:0:
408,272,387191,1,0,0:0:0:0:
368,272,387341,1,0,0:0:0:0:
304,272,387541,1,0,0:0:0:0:
256,112,387941,5,0,0:0:0:0:
208,272,388316,1,0,0:0:0:0:
104,272,388541,1,0,0:0:0:0:
256,192,388841,5,0,0:0:0:0:
256,192,388991,12,0,390341,0:0:0:0:
256,192,390491,12,0,393941,0:0:0:0:
