osu file format v14

[General]
AudioFilename: audio.mp3
AudioLeadIn: 0
PreviewTime: 8311
Countdown: 0
SampleSet: Normal
StackLeniency: 0.7
Mode: 0
LetterboxInBreaks: 0
WidescreenStoryboard: 0

[Editor]
Bookmarks: 9234,16619,24003,31388,38773,46157,53542,60926,68311,75696,88619,97850,105234,112619
DistanceSpacing: 1
BeatDivisor: 4
GridSize: 8
TimelineZoom: 2.1

[Metadata]
Title:Tenshin -Trigger ver.-
TitleUnicode:天志音 -Trigger ver.-
Artist:I love you Orchestra
ArtistUnicode:I love you Orchestra
Creator:Mirash
Version:Easy
Source:
Tags:leader hinsvar rock metal instrumental featured artist fa mappers' guild
BeatmapID:2684300
BeatmapSetID:1285271

[Difficulty]
HPDrainRate:2
CircleSize:3
OverallDifficulty:3
ApproachRate:4
SliderMultiplier:1.19999990463257
SliderTickRate:1

[Events]
//Background and Video events
0,0,"soroush-1golp1oor-GDYw0o17Lhw-unsplash.jpg",0,0
//Break Periods
2,2050,6991
2,71773,74376
//Storyboard Layer 0 (Background)
//Storyboard Layer 1 (Fail)
//Storyboard Layer 2 (Pass)
//Storyboard Layer 3 (Foreground)
//Storyboard Layer 4 (Overlay)
//Storyboard Sound Samples

[TimingPoints]
1850,461.538461538462,4,2,1,50,1,0
8311,-100,4,2,1,60,0,0
9234,-100,4,1,1,70,0,0
25503,-100,4,1,1,60,0,0
31388,-100,4,3,1,60,0,0
33234,-100,4,3,1,70,0,0
35080,-100,4,1,1,75,0,0
36926,-100,4,1,1,80,0,0
38773,-100,4,1,1,70,0,0
51696,-100,4,1,1,80,0,0
57234,-100,4,1,1,85,0,0
60465,-100,4,1,1,90,0,0
60926,-100,4,1,1,70,0,0
66465,-100,4,1,1,80,0,0
67388,-100,4,1,1,65,0,0
75696,-100,4,1,1,60,0,0
88388,-100,4,1,1,70,0,0
89080,-100,4,1,1,75,0,0
89426,-100,4,1,1,80,0,0
89773,-100,4,1,1,85,0,0
90003,-100,4,1,1,90,0,0
90465,-100,4,1,1,80,0,0
97850,-100,4,1,1,70,0,0
101542,-100,4,1,1,80,0,0
103388,-100,4,1,1,90,0,0
104773,-100,4,1,1,95,0,0
105234,-100,4,1,1,85,0,0
112619,-100,4,1,1,90,0,0
119542,-100,4,1,1,60,0,0

[Colours]
Combo1 : 103,103,103
Combo2 : 251,251,251
Combo3 : 74,74,74
Combo4 : 192,192,192

[HitObjects]
260,268,926,6,0,P|262:233|266:140,1,119.999990463257,4|4,0:0|0:0,0:0:0:0:
257,28,1850,1,4,1:0:0:0:
257,28,8311,6,0,P|259:103|269:168,1,119.999990463257,2|0,0:1|0:0,0:0:0:0:
336,244,9234,6,0,P|289:253|226:317,1,119.999990463257,4|8,1:0|0:0,0:0:0:0:
124,346,10157,1,0,0:0:0:0:
48,252,10619,1,8,0:0:0:0:
158,204,11080,2,0,L|143:84,1,119.999990463257,0|2,0:0|0:0,0:0:0:0:
254,130,12003,2,0,L|400:159,1,119.999990463257,8|8,0:0|0:0,0:0:0:0:
452,241,12926,5,4,0:0:0:0:
501,131,13388,1,8,0:0:0:0:
439,28,13850,1,0,0:0:0:0:
320,45,14311,1,8,0:0:0:0:
225,118,14773,2,0,L|98:98,1,119.999990463257,2|10,3:1|0:0,0:0:0:0:
33,194,15696,2,0,L|79:313,1,119.999990463257,0|8,0:0|0:0,0:0:0:0:
188,349,16619,6,0,B|260:323|260:323|330:346|330:346|391:315,2,179.999985694885,6|10|2,0:0|0:0|0:0,0:0:0:0:
220,233,18465,2,0,B|236:174|236:174|182:59,1,179.999985694885,6|8,0:0|0:0,0:0:0:0:
6,89,19850,1,10,0:0:0:0:
15,210,20311,6,0,P|91:227|122:239,2,89.9999928474427,4|8|8,0:0|0:0|0:0,0:0:0:0:
96,370,21696,1,4,0:2:0:0:
215,368,22157,2,0,P|258:354|302:346,2,89.9999928474427,4|8|8,0:0|0:0|0:0,0:0:0:0:
246,190,23542,1,4,0:2:0:0:
359,229,24003,6,0,L|487:214,1,119.999990463257,4|4,3:1|3:0,0:0:0:0:
420,109,24926,1,0,3:0:0:0:
325,34,25388,2,0,B|280:56|280:56|308:138,1,119.999990463257,10|4,0:0|3:2,0:0:0:0:
196,177,26311,1,4,3:0:0:0:
117,85,26773,2,0,P|71:113|39:174,1,119.999990463257,0|10,3:0|1:0,0:0:0:0:
48,289,27696,6,0,L|179:309,1,119.999990463257,4|4,3:2|3:0,0:0:0:0:
267,372,28619,1,0,3:0:0:0:
375,321,29080,2,0,B|396:291|396:291|373:202,1,119.999990463257,10|4,0:0|0:2,0:0:0:0:
271,149,30003,1,2,0:0:0:0:
348,57,30465,1,4,0:2:0:0:
444,128,30926,1,10,0:0:0:0:
373,225,31388,6,0,B|316:211|316:211|254:251|254:251|194:238,2,179.999985694885,4|4|8,3:1|0:0|1:0,0:0:0:0:
329,113,33234,2,0,B|386:99|386:99|448:139|448:139|508:126,2,179.999985694885,4|4|8,0:1|0:0|1:0,0:0:0:0:
223,54,35080,6,0,B|176:59|176:59|124:28,2,89.9999928474427,4|14|14,1:0|0:0|0:0,0:0:0:0:
308,212,36465,1,14,0:0:0:0:
368,315,36926,2,0,B|415:320|415:320|467:289,2,89.9999928474427,6|10|10,0:0|0:0|0:0,0:0:0:0:
195,261,38311,1,8,0:0:0:0:
88,317,38773,6,0,P|86:257|71:97,1,209.9999833107,4|8,0:0|0:2,0:0:0:0:
202,33,40157,1,8,0:0:0:0:
306,92,40619,2,0,P|295:196|290:301,1,209.9999833107,0|8,3:0|0:2,0:0:0:0:
427,363,42003,1,4,3:0:0:0:
487,259,42465,6,0,P|490:187|489:30,1,209.9999833107,4|8,1:0|0:2,0:0:0:0:
344,12,43850,1,8,0:0:0:0:
296,121,44311,2,0,P|240:115|69:102,1,209.9999833107,0|8,3:0|0:2,0:0:0:0:
28,241,45696,1,0,3:0:0:0:
99,337,46157,6,0,P|176:332|244:320,1,119.999990463257,6|10,0:0|0:0,0:0:0:0:
316,256,47080,1,0,0:0:0:0:
420,315,47542,1,8,0:0:0:0:
493,220,48003,2,0,L|383:156,1,119.999990463257,2|10,0:0|0:0,0:0:0:0:
316,256,48926,1,0,0:0:0:0:
214,192,49388,1,8,0:0:0:0:
200,72,49850,6,0,P|270:65|343:53,2,119.999990463257,6|10|0,0:0|0:0|0:0,0:0:0:0:
83,43,51234,1,10,0:0:0:0:
27,149,51696,2,0,B|52:189|52:189|69:327|69:327|108:374,1,239.999980926514,4|0,3:1|3:0,0:0:0:0:
222,356,53080,1,8,3:0:0:0:
251,239,53542,6,0,P|309:226|353:199,2,89.9999928474428,6|8|10,0:0|0:0|0:0,0:0:0:0:
112,123,54926,1,8,0:0:0:0:
199,40,55388,2,0,P|251:54|307:83,2,89.9999928474427,6|8|10,0:0|0:0|0:0,0:0:0:0:
313,179,56773,1,8,0:0:0:0:
410,109,57234,6,0,B|426:156|426:156|415:238|415:238|430:287,1,179.999985694885,6|14,0:0|0:0,0:0:0:0:
261,349,58619,1,10,0:0:0:0:
155,292,59080,2,0,B|176:254|176:254|131:179,1,119.999990463257,4|8,0:0|0:2,0:0:0:0:
235,119,60003,2,0,B|214:157|214:157|259:232,1,119.999990463257,0|8,0:0|0:0,0:0:0:0:
365,266,60926,6,0,P|423:221|436:89,1,209.9999833107,4|8,0:0|0:2,0:0:0:0:
292,51,62311,1,8,0:0:0:0:
217,145,62773,2,0,P|155:162|81:285,1,209.9999833107,4|8,0:0|0:2,0:0:0:0:
209,357,64157,1,0,3:0:0:0:
307,288,64619,6,0,P|306:183|299:75,1,209.9999833107,6|8,0:0|0:2,0:0:0:0:
156,32,66003,1,10,0:0:0:0:
256,192,66465,12,4,68311,0:0:0:0:
252,326,75696,6,0,P|265:261|245:134,1,179.999985694886,4|8,0:0|0:3,0:0:0:0:
123,21,77080,1,8,0:3:0:0:
33,100,77542,2,0,P|39:166|44:303,1,179.999985694886,4|8,0:3|0:3,0:0:0:0:
209,350,78926,1,8,0:3:0:0:
272,247,79388,6,0,B|306:276|306:276|396:253|396:253|438:283,1,179.999985694886,4|8,0:3|0:3,0:0:0:0:
500,111,80773,1,8,0:3:0:0:
408,34,81234,2,0,P|320:63|214:78,1,179.999985694886,4|8,0:3|0:3,0:0:0:0:
61,25,82619,1,8,0:3:0:0:
38,142,83080,6,0,P|78:193|95:366,2,239.999980926514,4|0|4,0:3|0:0|0:3,0:0:0:0:
56,23,85388,1,8,0:3:0:0:
148,100,85850,1,0,0:0:0:0:
203,3,86311,1,8,0:3:0:0:
292,83,86773,5,4,1:0:0:0:
138,265,88619,2,0,P|202:255|244:247,2,89.9999928474427,4|8|8,0:0|0:0|0:0,0:0:0:0:
46,109,90003,1,6,1:0:0:0:
140,34,90465,6,0,B|199:47|199:47|263:11,1,119.999990463257,6|10,0:0|0:0,0:0:0:0:
327,110,91388,2,0,B|286:154|286:154|285:228,1,119.999990463257,4|8,0:2|0:0,0:0:0:0:
372,297,92311,1,4,0:0:0:0:
467,224,92773,1,8,0:0:0:0:
410,118,93234,1,4,0:2:0:0:
483,23,93696,1,8,0:0:0:0:
363,18,94157,6,0,P|318:24|254:32,2,89.9999928474427,14|8|8,0:0|0:2|0:2,0:0:0:0:
302,187,95542,1,8,0:2:0:0:
359,292,96003,2,0,P|404:298|468:306,2,89.9999928474427,12|8|8,0:0|0:2|0:2,0:0:0:0:
193,363,97388,1,10,0:0:0:0:
90,300,97850,6,0,B|109:265|109:265|91:222|91:222|109:166,1,119.999990463257,6|6,3:0|3:0,0:0:0:0:
219,167,98773,1,6,3:0:0:0:
149,69,99234,1,6,3:0:0:0:
261,28,99696,1,6,3:0:0:0:
340,117,100157,2,0,L|472:94,2,119.999990463257,6|6|6,3:0|3:0|3:0,0:0:0:0:
287,225,101542,5,6,3:0:0:0:
385,293,102003,1,6,3:0:0:0:
280,352,102465,1,6,3:0:0:0:
180,284,102926,1,6,3:0:0:0:
64,315,103388,2,0,B|71:258|71:258|33:145|33:145|45:69,1,239.999980926514,6|14,3:0|3:0,0:0:0:0:
153,35,104773,1,10,0:0:0:0:
231,125,105234,6,0,P|327:105|448:74,1,209.9999833107,4|8,0:0|0:2,0:0:0:0:
501,212,106619,1,8,0:0:0:0:
426,305,107080,2,0,P|330:285|209:254,1,209.9999833107,4|8,1:0|0:2,0:0:0:0:
84,320,108465,1,0,3:0:0:0:
25,215,108926,6,0,B|97:201|97:201|46:68,1,209.9999833107,4|8,1:0|0:2,0:0:0:0:
195,45,110311,1,8,0:0:0:0:
282,127,110773,2,0,B|210:141|210:141|261:274,1,209.9999833107,4|8,1:0|0:2,0:0:0:0:
396,327,112157,1,0,3:0:0:0:
468,230,112619,6,0,B|456:122|366:172|355:62,1,209.9999833107,4|8,1:0|0:2,0:0:0:0:
208,33,114003,1,8,0:0:0:0:
234,150,114465,2,0,B|223:256|133:206|121:314,1,209.9999833107,4|8,1:0|0:2,0:0:0:0:
263,362,115850,1,0,3:0:0:0:
368,304,116311,6,0,P|406:253|341:112,1,209.9999833107,6|10,0:0|0:0,0:0:0:0:
221,169,117696,1,0,0:0:0:0:
137,83,118157,2,0,P|129:155|93:386,1,299.999976158143,4|4,0:0|0:0,0:0:0:0:
