osu file format v14

[General]
AudioFilename: Big Black Cow.mp3
AudioLeadIn: 0
PreviewTime: -1
Countdown: 1
SampleSet: Normal
StackLeniency: 0.7
Mode: 0
LetterboxInBreaks: 1
WidescreenStoryboard: 0

[Editor]
DistanceSpacing: 1
BeatDivisor: 4
GridSize: 4
TimelineZoom: 1

[Metadata]
Title:Big Black Cow
TitleUnicode:Big Black Cow
Artist:I am Cow
ArtistUnicode:I am Cow
Creator:Sliceofpie
Version:Milk
Source:
Tags:big black
BeatmapID:811713
BeatmapSetID:370366

[Difficulty]
HPDrainRate:0
CircleSize:4.5
OverallDifficulty:7
ApproachRate:9.2
SliderMultiplier:1.4
SliderTickRate:1

[Events]
//Background and Video events
0,0,"Peppy.jpg",0,0
//Break Periods
2,40670,46036
2,46826,50453
2,85056,94536
//Storyboard Layer 0 (Background)
//Storyboard Layer 1 (Fail)
//Storyboard Layer 2 (Pass)
//Storyboard Layer 3 (Foreground)
//Storyboard Sound Samples

[TimingPoints]
15190.1052889231,166.666666666667,4,1,0,100,1,0

[HitObjects]
136,112,7023,5,0,0:0:0:0:
256,108,7190,1,0,0:0:0:0:
260,232,7356,1,0,0:0:0:0:
144,232,7523,1,0,0:0:0:0:
148,336,7690,1,0,0:0:0:0:
264,352,7856,1,0,0:0:0:0:
388,216,8023,1,0,0:0:0:0:
392,32,8190,1,0,0:0:0:0:
56,80,8356,6,0,L|56:248,1,140
56,80,8690,2,0,L|216:80,1,140
196,76,9023,2,0,L|192:328,1,140
193,215,9356,2,0,L|360:216,1,140
264,56,9690,5,0,0:0:0:0:
104,192,9856,1,0,0:0:0:0:
248,332,10023,1,0,0:0:0:0:
392,180,10190,1,0,0:0:0:0:
224,48,10356,5,0,0:0:0:0:
56,208,10523,1,0,0:0:0:0:
200,344,10690,1,0,0:0:0:0:
344,168,10856,1,0,0:0:0:0:
104,44,11023,5,0,0:0:0:0:
120,64,11106,1,0,0:0:0:0:
128,92,11190,1,0,0:0:0:0:
128,120,11273,1,0,0:0:0:0:
120,148,11356,1,0,0:0:0:0:
104,172,11440,1,0,0:0:0:0:
152,156,11523,5,0,0:0:0:0:
200,140,11606,1,0,0:0:0:0:
248,144,11690,1,0,0:0:0:0:
296,156,11773,1,0,0:0:0:0:
332,188,11856,1,0,0:0:0:0:
356,232,11940,1,0,0:0:0:0:
356,280,12023,1,0,0:0:0:0:
404,280,12106,1,0,0:0:0:0:
440,316,12190,2,0,L|496:376,1,70
476,144,12356,1,0,0:0:0:0:
400,60,12523,1,0,0:0:0:0:
288,48,12690,1,0,0:0:0:0:
188,76,12856,1,0,0:0:0:0:
116,168,13023,1,0,0:0:0:0:
232,144,13190,1,0,0:0:0:0:
224,244,13356,1,0,0:0:0:0:
304,312,13523,1,0,0:0:0:0:
464,40,13690,5,0,0:0:0:0:
328,20,13856,1,0,0:0:0:0:
192,44,14023,1,0,0:0:0:0:
64,152,14190,1,0,0:0:0:0:
56,324,14356,1,0,0:0:0:0:
480,136,14523,1,0,0:0:0:0:
256,52,14690,2,0,L|44:132,1,210
20,140,15023,1,0,0:0:0:0:
196,52,15190,5,0,0:0:0:0:
384,312,15356,1,0,0:0:0:0:
56,172,15523,1,0,0:0:0:0:
472,80,15690,1,0,0:0:0:0:
72,300,15856,1,0,0:0:0:0:
372,24,16023,1,0,0:0:0:0:
228,316,16190,1,0,0:0:0:0:
180,144,16356,5,0,0:0:0:0:
220,176,16440,1,0,0:0:0:0:
256,212,16523,1,0,0:0:0:0:
296,240,16606,1,0,0:0:0:0:
220,228,16690,1,0,0:0:0:0:
232,276,16773,1,0,0:0:0:0:
260,316,16856,1,0,0:0:0:0:
308,320,16940,1,0,0:0:0:0:
348,292,17023,1,0,0:0:0:0:
372,252,17106,1,0,0:0:0:0:
356,204,17190,1,0,0:0:0:0:
372,160,17273,1,0,0:0:0:0:
412,220,17356,5,0,0:0:0:0:
344,200,17440,1,0,0:0:0:0:
280,176,17523,1,0,0:0:0:0:
232,124,17606,1,0,0:0:0:0:
112,224,17690,5,0,0:0:0:0:
472,352,18356,5,0,0:0:0:0:
96,216,18606,5,0,0:0:0:0:
96,216,18690,1,0,0:0:0:0:
456,44,19023,5,0,0:0:0:0:
428,44,19106,1,0,0:0:0:0:
400,52,19190,1,0,0:0:0:0:
376,64,19273,1,0,0:0:0:0:
352,80,19356,1,0,0:0:0:0:
332,100,19440,1,0,0:0:0:0:
316,124,19523,1,0,0:0:0:0:
304,148,19606,1,0,0:0:0:0:
296,176,19690,1,0,0:0:0:0:
288,204,19773,1,0,0:0:0:0:
280,232,19856,1,0,0:0:0:0:
276,260,19940,1,0,0:0:0:0:
276,288,20023,1,0,0:0:0:0:
280,316,20106,1,0,0:0:0:0:
268,296,20190,5,0,0:0:0:0:
256,272,20273,1,0,0:0:0:0:
240,248,20356,1,0,0:0:0:0:
216,236,20440,1,0,0:0:0:0:
188,228,20523,1,0,0:0:0:0:
160,224,20606,1,0,0:0:0:0:
132,232,20690,1,0,0:0:0:0:
108,248,20773,1,0,0:0:0:0:
96,224,20856,1,0,0:0:0:0:
84,200,20940,1,0,0:0:0:0:
72,176,21023,1,0,0:0:0:0:
60,152,21106,2,0,P|44:112|44:76,3,70
84,56,21440,5,0,0:0:0:0:
92,96,21523,1,0,0:0:0:0:
116,132,21606,1,0,0:0:0:0:
144,164,21690,1,0,0:0:0:0:
180,184,21773,1,0,0:0:0:0:
220,196,21856,1,0,0:0:0:0:
264,200,21940,1,0,0:0:0:0:
304,200,22023,1,0,0:0:0:0:
340,180,22106,1,0,0:0:0:0:
364,144,22190,1,0,0:0:0:0:
364,184,22273,1,0,0:0:0:0:
368,224,22356,1,0,0:0:0:0:
380,264,22440,1,0,0:0:0:0:
404,300,22523,1,0,0:0:0:0:
432,332,22606,1,0,0:0:0:0:
396,308,22690,5,0,0:0:0:0:
364,280,22773,1,0,0:0:0:0:
324,264,22856,1,0,0:0:0:0:
284,252,22940,1,0,0:0:0:0:
244,240,23023,1,0,0:0:0:0:
204,236,23106,1,0,0:0:0:0:
160,232,23190,1,0,0:0:0:0:
120,236,23273,1,0,0:0:0:0:
80,240,23356,1,0,0:0:0:0:
68,200,23440,1,0,0:0:0:0:
64,160,23523,6,0,P|64:112|72:80,3,70
420,56,23856,6,0,P|456:104|456:144,1,70
292,360,24023,2,0,P|240:364|204:348,1,70
64,160,24190,2,0,P|40:120|56:60,1,70
220,0,24356,6,0,P|279:-25|314:-5,1,70
419,244,24523,2,0,P|396:291|365:315,1,70
132,342,24690,2,0,P|85:343|41:299,1,70
420,56,24856,6,0,P|456:104|456:144,1,70
292,360,25023,2,0,P|240:364|204:348,1,70
64,160,25190,2,0,P|40:120|56:60,1,70
220,0,25356,6,0,P|279:-25|314:-5,1,70
419,244,25523,2,0,P|396:291|365:315,1,70
132,342,25690,2,0,P|85:343|41:299,5,70
432,88,26190,6,0,L|352:60,1,70
56,88,26356,2,0,L|140:56,1,70
376,256,26523,2,0,L|416:328,1,70
124,252,26690,2,0,L|80:328,1,70
256,108,26856,2,0,L|256:32,1,70
280,376,27023,6,0,P|232:336|240:296,1,70
44,212,27190,2,0,P|92:188|144:200,1,70
256,16,27356,2,0,P|280:44|264:104,1,70
452,188,27523,2,0,P|412:216|356:216,1,70
392,317,27690,6,0,P|330:317|310:281,1,70
106,343,27857,2,0,P|127:294|175:270,1,70
84,48,28023,2,0,P|121:54|147:110,1,70
403,62,28190,2,0,P|390:110|348:146,6,70
372,144,28773,5,0,0:0:0:0:
372,144,28856,1,0,0:0:0:0:
372,144,28940,1,0,0:0:0:0:
372,144,29023,1,0,0:0:0:0:
372,144,29106,1,0,0:0:0:0:
372,144,29190,1,0,0:0:0:0:
372,144,29273,1,0,0:0:0:0:
372,144,29356,1,0,0:0:0:0:
372,144,29440,1,0,0:0:0:0:
372,144,29523,1,0,0:0:0:0:
372,144,29606,1,0,0:0:0:0:
372,144,29690,1,0,0:0:0:0:
372,144,29773,1,0,0:0:0:0:
372,144,29856,1,0,0:0:0:0:
372,144,29940,1,0,0:0:0:0:
372,144,30023,1,0,0:0:0:0:
372,144,30106,1,0,0:0:0:0:
372,144,30190,1,0,0:0:0:0:
372,144,30273,1,0,0:0:0:0:
372,144,30356,1,0,0:0:0:0:
372,144,30440,1,0,0:0:0:0:
372,144,30523,1,0,0:0:0:0:
372,144,30606,1,0,0:0:0:0:
372,144,30690,1,0,0:0:0:0:
372,144,30773,1,0,0:0:0:0:
372,144,30856,1,0,0:0:0:0:
372,144,30940,1,0,0:0:0:0:
372,144,31023,1,0,0:0:0:0:
372,144,31106,1,0,0:0:0:0:
372,144,31190,1,0,0:0:0:0:
424,272,31273,5,0,0:0:0:0:
424,272,31356,1,0,0:0:0:0:
424,272,31440,1,0,0:0:0:0:
424,272,31523,1,0,0:0:0:0:
424,272,31606,1,0,0:0:0:0:
424,272,31690,1,0,0:0:0:0:
424,272,31773,1,0,0:0:0:0:
424,272,31856,1,0,0:0:0:0:
424,272,31940,1,0,0:0:0:0:
424,272,32023,1,0,0:0:0:0:
424,272,32106,1,0,0:0:0:0:
424,272,32190,1,0,0:0:0:0:
424,272,32273,1,0,0:0:0:0:
424,272,32356,1,0,0:0:0:0:
424,272,32440,1,0,0:0:0:0:
424,272,32523,1,0,0:0:0:0:
424,272,32606,1,0,0:0:0:0:
424,272,32690,1,0,0:0:0:0:
424,272,32773,1,0,0:0:0:0:
424,272,32856,1,0,0:0:0:0:
424,272,32940,1,0,0:0:0:0:
424,272,33023,1,0,0:0:0:0:
424,272,33106,1,0,0:0:0:0:
424,272,33190,1,0,0:0:0:0:
424,272,33273,1,0,0:0:0:0:
424,272,33356,1,0,0:0:0:0:
424,272,33440,1,0,0:0:0:0:
424,272,33523,1,0,0:0:0:0:
424,272,33606,1,0,0:0:0:0:
424,272,33690,1,0,0:0:0:0:
348,336,33773,6,0,L|260:336,1,70
32,136,33856,2,0,L|108:136,1,70
340,40,33940,2,0,L|256:40,1,70
372,64,34106,2,0,L|476:64,1,70
8,304,34273,6,0,L|132:304,1,70
484,28,34440,2,0,L|388:28,1,70
176,176,34606,2,0,L|268:176,1,70
512,360,34773,2,0,L|432:360,3,70
128,24,35106,6,0,L|40:84,1,70
448,336,35273,2,0,L|508:280,1,70
128,24,35440,6,0,L|40:84,1,70
448,336,35607,2,0,L|508:280,1,70
128,24,35773,6,0,L|40:84,1,70
448,336,35940,2,0,L|508:280,1,70
208,172,36106,2,0,L|180:168,7,17.5
216,172,36273,1,0,0:0:0:0:
492,52,36356,6,0,P|480:24|416:8,1,70
0,300,36523,2,0,P|20:356|48:384,1,70
492,332,36690,6,0,P|480:360|416:376,1,70
0,84,36857,2,0,P|20:28|48:0,1,70
492,52,37023,6,0,P|480:24|416:8,1,70
0,300,37190,2,0,P|20:356|48:384,1,70
496,304,37357,6,0,P|484:332|420:348,1,70
268,352,37523,1,0,0:0:0:0:
268,352,37533,2,0,L|268:344,2,8.75
56,228,37690,1,0,0:0:0:0:
56,228,37700,2,0,L|56:220,2,8.75
456,24,37856,1,0,0:0:0:0:
456,24,37867,2,0,L|456:16,2,8.75
300,268,38023,1,0,0:0:0:0:
300,268,38033,2,0,L|300:260,2,8.75
416,332,38190,1,0,0:0:0:0:
416,332,38200,2,0,L|416:324,2,8.75
124,76,38356,1,0,0:0:0:0:
124,76,38367,2,0,L|124:68,2,8.75
128,220,38523,1,0,0:0:0:0:
128,220,38533,2,0,L|128:212,2,8.75
272,16,38690,1,0,0:0:0:0:
272,16,38700,2,0,L|272:8,2,8.75
0,0,38856,5,0,0:0:0:0:
508,0,39023,1,0,0:0:0:0:
4,376,39190,1,0,0:0:0:0:
512,380,39356,1,0,0:0:0:0:
0,0,39523,5,0,0:0:0:0:
508,0,39690,1,0,0:0:0:0:
4,376,39857,1,0,0:0:0:0:
512,380,40023,1,0,0:0:0:0:
252,176,40190,5,0,0:0:0:0:
252,176,40210,6,0,L|256:184,25,8.75
180,152,46606,6,0,L|192:164,1,17.5
144,156,51023,6,0,P|180:168|240:176,6,70
211,173,51606,6,0,P|175:161|115:153,6,70
144,156,52190,6,0,P|180:168|240:176,6,70
211,173,52773,6,0,P|175:161|115:153,6,70
143,155,53356,2,0,P|176:176|220:172,1,70
184,136,53523,2,0,B|156:160|156:160|176:208,1,70
184,136,53690,2,0,B|156:160|156:160|176:208,1,70
184,136,53856,2,0,B|156:160|156:160|176:208,1,70
184,136,54023,2,0,B|156:160|156:160|176:208,1,70
184,136,54190,2,0,B|156:160|156:160|176:208,1,70
352,140,54356,2,0,B|324:164|324:164|344:212,1,70
184,136,54523,2,0,B|156:160|156:160|176:208,1,70
352,140,54690,2,0,B|324:164|324:164|344:212,1,70
184,136,54856,2,0,B|156:160|156:160|176:208,1,70
352,140,55023,2,0,B|324:164|324:164|344:212,1,70
184,136,55189,2,0,B|156:160|156:160|176:208,1,70
168,190,55315,1,0,0:0:0:0:
352,140,55356,2,0,B|324:164|324:164|344:212,1,70
184,136,55522,2,0,B|156:160|156:160|176:208,1,70
352,140,55690,2,0,B|324:164|324:164|344:212,1,70
184,136,55856,2,0,B|156:160|156:160|176:208,1,70
184,136,56023,2,0,B|156:160|156:160|176:208,1,70
412,48,56190,5,0,0:0:0:0:
376,88,56273,1,0,0:0:0:0:
352,140,56356,1,0,0:0:0:0:
356,196,56440,1,0,0:0:0:0:
384,244,56523,1,0,0:0:0:0:
404,200,56606,5,0,0:0:0:0:
356,228,56690,1,0,0:0:0:0:
304,244,56773,1,0,0:0:0:0:
256,276,56856,1,0,0:0:0:0:
220,320,56940,1,0,0:0:0:0:
188,252,57023,5,0,0:0:0:0:
140,280,57106,1,0,0:0:0:0:
84,296,57190,1,0,0:0:0:0:
36,328,57273,1,0,0:0:0:0:
92,336,57356,1,0,0:0:0:0:
168,340,57440,5,0,0:0:0:0:
220,320,57523,1,0,0:0:0:0:
256,276,57606,1,0,0:0:0:0:
304,244,57690,1,0,0:0:0:0:
356,228,57773,1,0,0:0:0:0:
404,200,57856,1,0,0:0:0:0:
400,120,57940,5,0,0:0:0:0:
348,100,58023,1,0,0:0:0:0:
304,64,58106,1,0,0:0:0:0:
252,40,58190,1,0,0:0:0:0:
232,92,58273,1,0,0:0:0:0:
284,112,58356,1,0,0:0:0:0:
348,100,58440,5,0,0:0:0:0:
396,72,58523,1,0,0:0:0:0:
448,52,58606,1,0,0:0:0:0:
384,12,58690,5,0,0:0:0:0:
396,72,58773,1,0,0:0:0:0:
400,120,58856,1,0,0:0:0:0:
364,164,58940,1,0,0:0:0:0:
312,188,59023,1,0,0:0:0:0:
320,272,59106,5,0,0:0:0:0:
272,300,59190,1,0,0:0:0:0:
220,320,59273,1,0,0:0:0:0:
172,344,59356,1,0,0:0:0:0:
156,288,59440,1,0,0:0:0:0:
140,196,59523,5,0,0:0:0:0:
124,144,59606,1,0,0:0:0:0:
108,88,59690,1,0,0:0:0:0:
160,72,59773,1,0,0:0:0:0:
216,60,59856,1,0,0:0:0:0:
252,176,59940,5,0,0:0:0:0:
200,192,60023,1,0,0:0:0:0:
140,196,60106,1,0,0:0:0:0:
84,212,60190,1,0,0:0:0:0:
28,224,60273,1,0,0:0:0:0:
40,280,60356,1,0,0:0:0:0:
48,336,60440,1,0,0:0:0:0:
104,324,60523,1,0,0:0:0:0:
300,260,60606,5,0,0:0:0:0:
348,232,60690,1,0,0:0:0:0:
396,200,60773,1,0,0:0:0:0:
356,160,60856,1,0,0:0:0:0:
308,192,60940,1,0,0:0:0:0:
348,232,61023,1,0,0:0:0:0:
396,200,61106,1,0,0:0:0:0:
356,160,61190,1,0,0:0:0:0:
308,192,61273,1,0,0:0:0:0:
348,232,61356,1,0,0:0:0:0:
396,200,61440,1,0,0:0:0:0:
356,160,61523,1,0,0:0:0:0:
192,120,61606,1,0,0:0:0:0:
496,368,62273,1,0,0:0:0:0:
20,20,62606,5,0,0:0:0:0:
20,20,62690,1,0,0:0:0:0:
348,56,63023,6,0,L|340:60,91,8.75
48,288,64106,2,0,P|32:312|48:344,7,35
500,16,64440,6,0,L|496:24,96,8.75
4,176,65523,2,0,B|0:180|0:180|8:184|8:184|12:176|12:176|20:176|20:176|4:180|4:180|-8:172,9,35
416,40,65940,1,0,0:0:0:0:
416,40,65950,1,0,0:0:0:0:
416,40,65960,1,0,0:0:0:0:
416,40,65971,1,0,0:0:0:0:
416,40,65981,1,0,0:0:0:0:
416,40,65992,1,0,0:0:0:0:
440,44,66002,6,0,P|444:44|444:44,188,8.75
0,0,66981,2,0,B|4:0|4:0|4:8|4:8|8:8|8:8|8:4|8:4|12:4|12:4|0:4|0:4,10,35
472,348,67440,1,0,0:0:0:0:
380,136,67606,1,0,0:0:0:0:
280,344,67773,2,0,B|272:344|272:344|276:336,3,17.5
124,24,67940,2,0,B|120:24|120:24|140:52,1,35
8,348,68106,5,0,0:0:0:0:
476,36,68273,2,0,B|336:44|252:164|252:164|304:192|328:132,1,350
256,192,68856,12,0,69148,0:0:0:0:
256,192,69190,12,0,69481,0:0:0:0:
256,192,69523,12,0,69815,0:0:0:0:
264,164,70190,6,0,B|260:164|260:164|260:168|260:168|256:168|256:168|256:164|256:164|252:164|252:164|252:168|252:168|248:168|248:168|248:164|248:164|244:164|244:164|244:168|244:168|264:168|264:168|240:168|240:168|240:164|240:164|188:164|192:92|192:92|192:120|192:120|192:88|192:88|192:116|192:116|192:96|192:96|192:112|192:112|192:100|192:100|192:108|192:108|192:104|192:104|192:84|192:84|200:60|260:64|260:64|252:64|252:64|256:64|256:64|224:64|224:64|360:64|360:64|360:72|360:72|348:64,1,630
256,112,71023,2,0,B|252:112|252:112|252:108|252:108|260:108|260:108|260:116|260:116|248:116|248:116|248:104|248:104|264:104|264:104|264:120|264:120|244:120|244:120|244:100|244:100|268:100|268:100|268:124|268:124|240:124|240:124|240:100|240:100|240:112|240:112|232:112|232:112|216:112|216:112|200:112|200:112|200:128|148:132|148:132|148:124|148:124|136:116,1,350
392,272,71523,2,0,B|388:276|388:276|376:272|376:272|360:272|360:272|344:268|344:268|352:264|352:264|376:260|376:260|380:248|380:248|396:264|396:264|432:264|432:264|420:280|420:280|400:284|384:292|384:292|384:308|384:308|344:300|344:300|360:280|360:280|356:288|356:288|368:292|368:292|368:280|368:280|376:280|376:280|384:280|384:280|380:272|380:272|380:288|380:288|368:288|368:288|400:280|400:280|384:264|384:264|404:264|404:264|388:256|388:256|360:256|360:256|352:276|352:276|360:284|360:284|408:256|408:256|392:240|392:240|364:252|364:252|232:144,1,805
256,192,72565,12,0,72575,0:0:0:0:
256,192,72585,12,0,72596,0:0:0:0:
256,192,72606,12,0,72617,0:0:0:0:
256,192,72627,12,0,72638,0:0:0:0:
256,192,72648,12,0,72659,0:0:0:0:
256,192,72669,12,0,72680,0:0:0:0:
256,192,72679,12,0,72690,0:0:0:0:
256,192,72690,12,0,72700,0:0:0:0:
256,192,72700,12,0,72711,0:0:0:0:
256,192,72710,12,0,72721,0:0:0:0:
256,192,72711,12,0,72721,0:0:0:0:
256,192,72721,12,0,72732,0:0:0:0:
256,192,72731,12,0,72742,0:0:0:0:
256,192,72732,12,0,72742,0:0:0:0:
256,192,72742,12,0,72752,0:0:0:0:
256,192,72752,12,0,72763,0:0:0:0:
256,192,72753,12,0,72763,0:0:0:0:
256,192,72763,12,0,72773,0:0:0:0:
256,192,72773,12,0,72784,0:0:0:0:
256,192,72774,12,0,72784,0:0:0:0:
256,192,72784,12,0,72794,0:0:0:0:
256,192,72794,12,0,72805,0:0:0:0:
256,192,72804,12,0,72815,0:0:0:0:
256,192,72815,12,0,72825,0:0:0:0:
256,192,72825,12,0,72836,0:0:0:0:
256,192,72835,12,0,72845,0:0:0:0:
256,192,72836,12,0,72846,0:0:0:0:
256,192,72846,12,0,72857,0:0:0:0:
256,192,72855,12,0,72866,0:0:0:0:
256,192,72857,12,0,72867,0:0:0:0:
256,192,72867,12,0,72877,0:0:0:0:
256,192,72876,12,0,72887,0:0:0:0:
256,192,72877,12,0,72887,0:0:0:0:
256,192,72878,12,0,72888,0:0:0:0:
256,192,72887,12,0,72898,0:0:0:0:
256,192,72888,12,0,72898,0:0:0:0:
256,192,72897,12,0,72908,0:0:0:0:
256,192,72898,12,0,72908,0:0:0:0:
256,192,72908,12,0,72919,0:0:0:0:
256,192,72909,12,0,72919,0:0:0:0:
256,192,72918,12,0,72929,0:0:0:0:
256,192,72919,12,0,72929,0:0:0:0:
256,192,72929,12,0,72940,0:0:0:0:
256,192,72930,12,0,72940,0:0:0:0:
256,192,72939,12,0,72950,0:0:0:0:
256,192,72949,12,0,72960,0:0:0:0:
256,192,72950,12,0,72961,0:0:0:0:
256,192,72951,12,0,72961,0:0:0:0:
256,192,72960,12,0,72970,0:0:0:0:
256,192,72961,12,0,72971,0:0:0:0:
256,192,72970,12,0,72981,0:0:0:0:
256,192,72971,12,0,72982,0:0:0:0:
256,192,72981,12,0,72991,0:0:0:0:
256,192,72991,12,0,73002,0:0:0:0:
256,192,72992,12,0,73002,0:0:0:0:
256,192,73002,12,0,73012,0:0:0:0:
256,192,73012,12,0,73022,0:0:0:0:
256,192,73013,12,0,73023,0:0:0:0:
256,192,73023,12,0,73034,0:0:0:0:
256,192,73033,12,0,73043,0:0:0:0:
256,192,73034,12,0,73044,0:0:0:0:
256,192,73043,12,0,73054,0:0:0:0:
256,192,73044,12,0,73054,0:0:0:0:
256,192,73055,12,0,73065,0:0:0:0:
256,192,73064,12,0,73075,0:0:0:0:
256,192,73065,12,0,73075,0:0:0:0:
256,192,73085,12,0,73096,0:0:0:0:
256,192,73086,12,0,73096,0:0:0:0:
256,192,73106,12,0,73117,0:0:0:0:
256,192,73107,12,0,73117,0:0:0:0:
256,192,73117,12,0,73127,0:0:0:0:
256,192,73127,12,0,73138,0:0:0:0:
256,192,73137,12,0,73148,0:0:0:0:
256,192,73148,12,0,73158,0:0:0:0:
256,192,73158,12,0,73169,0:0:0:0:
256,192,73169,12,0,73179,0:0:0:0:
256,192,73179,12,0,73190,0:0:0:0:
256,192,73190,12,0,73200,0:0:0:0:
256,192,73199,12,0,73210,0:0:0:0:
256,192,73200,12,0,73210,0:0:0:0:
256,192,73211,12,0,73221,0:0:0:0:
256,192,73220,12,0,73231,0:0:0:0:
256,192,73221,12,0,73231,0:0:0:0:
256,192,73241,12,0,73252,0:0:0:0:
256,192,73242,12,0,73252,0:0:0:0:
256,192,73262,12,0,73273,0:0:0:0:
256,192,73263,12,0,73273,0:0:0:0:
256,192,73273,12,0,73283,0:0:0:0:
256,192,73283,12,0,73294,0:0:0:0:
256,192,73293,12,0,73304,0:0:0:0:
256,192,73304,12,0,73314,0:0:0:0:
256,192,73314,12,0,73325,0:0:0:0:
256,192,73325,12,0,73335,0:0:0:0:
256,192,73335,12,0,73346,0:0:0:0:
256,192,73346,12,0,73356,0:0:0:0:
256,192,73356,12,0,73366,0:0:0:0:
256,192,73367,12,0,73377,0:0:0:0:
256,192,73377,12,0,73387,0:0:0:0:
256,192,73387,12,0,73398,0:0:0:0:
256,192,73408,12,0,73419,0:0:0:0:
256,192,73409,12,0,73419,0:0:0:0:
256,192,73429,12,0,73440,0:0:0:0:
256,192,73430,12,0,73440,0:0:0:0:
256,192,73450,12,0,73461,0:0:0:0:
256,192,73451,12,0,73461,0:0:0:0:
256,192,73461,12,0,73471,0:0:0:0:
256,192,73471,12,0,73482,0:0:0:0:
256,192,73481,12,0,73492,0:0:0:0:
256,192,73492,12,0,73502,0:0:0:0:
256,192,73502,12,0,73513,0:0:0:0:
256,192,73513,12,0,73523,0:0:0:0:
256,192,73523,12,0,73534,0:0:0:0:
256,192,73534,12,0,73544,0:0:0:0:
256,192,73544,12,0,73554,0:0:0:0:
256,192,73554,12,0,73564,0:0:0:0:
256,192,73555,12,0,73565,0:0:0:0:
256,192,73565,12,0,73575,0:0:0:0:
256,192,73574,12,0,73585,0:0:0:0:
256,192,73595,12,0,73606,0:0:0:0:
256,192,73596,12,0,73606,0:0:0:0:
256,192,73616,12,0,73627,0:0:0:0:
256,192,73617,12,0,73627,0:0:0:0:
256,192,73637,12,0,73648,0:0:0:0:
256,192,73638,12,0,73648,0:0:0:0:
256,192,73648,12,0,73658,0:0:0:0:
256,192,73658,12,0,73669,0:0:0:0:
256,192,73668,12,0,73679,0:0:0:0:
256,192,73669,12,0,73679,0:0:0:0:
256,192,73679,12,0,73690,0:0:0:0:
256,192,73689,12,0,73700,0:0:0:0:
256,192,73710,12,0,73721,0:0:0:0:
256,192,73731,12,0,73742,0:0:0:0:
256,192,73752,12,0,73762,0:0:0:0:
256,192,73773,12,0,73783,0:0:0:0:
508,4,73940,6,0,B|500:4|500:4|484:8|484:8|488:8|488:8|492:8|492:8|496:8|496:8|492:16|492:16|496:12|496:12|492:12|492:12|496:16|496:16|484:16|484:16|488:12|488:12|484:12|484:12|488:16|488:16|500:16|500:16|500:12|500:12|500:8|500:8|496:24|500:20|500:20|500:24|500:24|496:20|496:20|492:20|492:20|488:24|488:24|488:20|488:20|484:20|484:20|480:24|480:24|492:24|492:24|484:24|484:24|480:20|480:20|480:16|480:16|480:12|480:12|480:8|480:8|480:28|480:28|484:28|484:28|496:32|496:32|496:28|496:28|500:28|500:28|500:32|500:32|492:28|492:28|488:28|488:28|492:32|492:32|488:32|488:32|480:32|480:32|484:32|484:32|440:32|440:32|436:32|436:32|432:32|432:32|432:40|432:40|440:36|440:36|440:40|436:40|436:40|436:36|436:36|432:36|432:36|428:32|428:32|428:36|428:36|440:44|440:44|424:40|424:40|436:44|436:44|432:44|432:44|428:40|428:40|428:44|428:44|424:44|424:44|436:48|436:48|424:32|424:32|424:36|424:36|440:48|440:48|432:48|432:48|424:48|424:48|428:48|428:48,2,490
504,8,75190,2,0,B|304:28|216:148|216:148|224:136|224:136|232:128|232:128|220:144|216:144|228:128|228:132|228:136|228:136|224:144|224:144|224:140|224:140|216:140|216:140|220:128|220:128|224:132|224:132|232:136|232:136|204:156|204:156|168:212|168:212|160:212|160:212|176:212|176:212|168:224|168:224|164:248|164:248|164:308|164:308|168:304|168:304,1,630
240,212,76023,2,0,B|240:216|240:216|244:216|244:216|244:208|244:208|244:212,19,11.6666666666667
104,280,76356,6,0,B|140:272|168:212|148:120|148:120|112:120|88:76|88:76|108:112|108:112|108:120|200:140|240:128|240:128|276:108|292:64|292:64|272:112|272:112|232:136|232:136|224:176|232:248|312:280,1,770
372,268,77356,2,0,B|372:172|372:172|400:152|476:164,1,175
424,80,77690,1,0,0:0:0:0:
272,24,77856,5,0,0:0:0:0:
144,128,78023,1,0,0:0:0:0:
212,312,78190,1,0,0:0:0:0:
408,272,78356,1,0,0:0:0:0:
296,152,78523,1,0,0:0:0:0:
296,152,78690,1,0,0:0:0:0:
256,192,78815,12,0,78826,0:0:0:0:
256,192,78836,12,0,78847,0:0:0:0:
256,192,78857,12,0,78868,0:0:0:0:
256,192,78878,12,0,78888,0:0:0:0:
256,192,78899,12,0,78909,0:0:0:0:
256,192,78920,12,0,78930,0:0:0:0:
256,192,78940,12,0,78951,0:0:0:0:
256,192,78961,12,0,78972,0:0:0:0:
256,192,78982,12,0,78993,0:0:0:0:
256,192,79003,12,0,79013,0:0:0:0:
260,24,79023,5,0,0:0:0:0:
256,192,79024,12,0,79034,0:0:0:0:
256,192,79065,12,0,79075,0:0:0:0:
256,192,79085,12,0,79096,0:0:0:0:
256,192,79097,12,0,79107,0:0:0:0:
256,192,79106,12,0,79117,0:0:0:0:
256,192,79117,12,0,79128,0:0:0:0:
256,192,79127,12,0,79138,0:0:0:0:
256,192,79138,12,0,79149,0:0:0:0:
256,192,79148,12,0,79158,0:0:0:0:
256,192,79159,12,0,79170,0:0:0:0:
256,192,79169,12,0,79179,0:0:0:0:
256,192,79180,12,0,79190,0:0:0:0:
40,204,79190,5,0,0:0:0:0:
256,192,79201,12,0,79211,0:0:0:0:
256,192,79253,12,0,79263,0:0:0:0:
256,192,79273,12,0,79284,0:0:0:0:
256,192,79294,12,0,79305,0:0:0:0:
256,192,79315,12,0,79326,0:0:0:0:
256,192,79336,12,0,79346,0:0:0:0:
176,348,79356,5,0,0:0:0:0:
256,192,79357,12,0,79367,0:0:0:0:
256,192,79409,12,0,79419,0:0:0:0:
256,192,79429,12,0,79440,0:0:0:0:
256,192,79450,12,0,79461,0:0:0:0:
256,192,79471,12,0,79482,0:0:0:0:
256,192,79492,12,0,79502,0:0:0:0:
256,192,79513,12,0,79523,0:0:0:0:
352,344,79523,5,0,0:0:0:0:
256,192,79597,12,0,79607,0:0:0:0:
256,192,79617,12,0,79628,0:0:0:0:
256,192,79638,12,0,79649,0:0:0:0:
256,192,79659,12,0,79670,0:0:0:0:
256,192,79680,12,0,79690,0:0:0:0:
484,200,79690,5,0,0:0:0:0:
256,192,79701,12,0,79711,0:0:0:0:
256,192,79784,12,0,79794,0:0:0:0:
256,192,79804,12,0,79815,0:0:0:0:
256,192,79825,12,0,79836,0:0:0:0:
264,28,79856,5,0,0:0:0:0:
256,184,80023,1,0,0:0:0:0:
12,184,80356,6,0,B|40:160|40:160|72:304|72:304|112:68|112:68|500:72,1,805
336,140,81356,6,0,B|224:220|224:220|336:220|336:220|336:144|336:144|340:328,3,490
20,164,83190,5,0,0:0:0:0:
176,164,83356,1,0,0:0:0:0:
464,156,83523,1,0,0:0:0:0:
316,164,83690,1,0,0:0:0:0:
260,352,83856,1,0,0:0:0:0:
248,28,84023,1,0,0:0:0:0:
248,216,84190,1,0,0:0:0:0:
72,96,84356,6,0,B|136:92|136:92|120:136|120:136|100:104|100:104|208:104|208:104|104:176|104:176|276:176,1,420
264,168,95106,5,0,0:0:0:0:
328,164,95190,1,0,0:0:0:0:
392,160,95273,1,0,0:0:0:0:
432,208,95356,1,0,0:0:0:0:
464,264,95440,1,0,0:0:0:0:
472,200,95523,1,0,0:0:0:0:
480,136,95606,1,0,0:0:0:0:
472,72,95690,1,0,0:0:0:0:
412,52,95773,1,0,0:0:0:0:
356,84,95856,1,0,0:0:0:0:
340,144,95940,1,0,0:0:0:0:
284,168,96023,1,0,0:0:0:0:
212,184,96106,5,0,0:0:0:0:
160,144,96190,1,0,0:0:0:0:
156,208,96273,1,0,0:0:0:0:
148,272,96356,1,0,0:0:0:0:
144,336,96440,1,0,0:0:0:0:
116,280,96523,1,0,0:0:0:0:
92,220,96606,1,0,0:0:0:0:
72,160,96690,1,0,0:0:0:0:
40,108,96773,1,0,0:0:0:0:
104,100,96856,1,0,0:0:0:0:
160,72,96940,1,0,0:0:0:0:
160,8,97023,1,0,0:0:0:0:
260,24,97106,5,0,0:0:0:0:
312,60,97190,1,0,0:0:0:0:
344,116,97273,1,0,0:0:0:0:
368,176,97356,1,0,0:0:0:0:
368,176,97440,1,0,0:0:0:0:
140,96,97523,1,0,0:0:0:0:
100,160,97606,5,0,0:0:0:0:
100,236,97690,1,0,0:0:0:0:
168,268,97773,1,0,0:0:0:0:
244,256,97856,1,0,0:0:0:0:
240,180,97940,1,0,0:0:0:0:
216,108,98023,1,0,0:0:0:0:
172,172,98106,1,0,0:0:0:0:
248,180,98190,1,0,0:0:0:0:
368,176,98273,1,0,0:0:0:0:
384,100,98356,1,0,0:0:0:0:
332,44,98440,1,0,0:0:0:0:
256,36,98523,1,0,0:0:0:0:
352,76,98606,1,0,0:0:0:0:
288,36,98689,5,0,0:0:0:0:
212,36,98773,1,0,0:0:0:0:
180,104,98856,1,0,0:0:0:0:
192,180,98939,1,0,0:0:0:0:
268,176,99023,1,0,0:0:0:0:
340,152,99106,1,0,0:0:0:0:
276,108,99189,1,0,0:0:0:0:
268,184,99273,1,0,0:0:0:0:
272,304,99356,1,0,0:0:0:0:
348,320,99439,1,0,0:0:0:0:
404,268,99523,1,0,0:0:0:0:
412,192,99606,1,0,0:0:0:0:
156,84,99690,5,0,0:0:0:0:
228,56,99773,1,0,0:0:0:0:
248,132,99856,1,0,0:0:0:0:
176,160,99940,1,0,0:0:0:0:
468,24,99981,6,0,L|468:76,1,35
412,24,100023,2,0,L|416:76,1,35
468,24,100065,6,0,L|468:76,1,35
412,24,100107,2,0,L|416:76,1,35
468,24,100190,6,0,L|468:76,1,35
412,24,100231,2,0,L|416:76,1,35
412,24,100232,2,0,L|416:76,1,35
468,24,100273,6,0,L|468:76,1,35
412,24,100315,2,0,L|416:76,1,35
468,24,100356,6,0,L|468:76,1,35
412,24,100357,2,0,L|416:76,1,35
468,24,100398,6,0,L|468:76,1,35
412,24,100440,2,0,L|416:76,1,35
412,24,100482,2,0,L|416:76,1,35
468,24,100523,6,0,L|468:76,1,35
468,24,100564,6,0,L|468:76,1,35
412,24,100565,2,0,L|416:76,1,35
412,24,100606,2,0,L|416:76,1,35
468,24,100648,6,0,L|468:76,1,35
412,24,100690,2,0,L|416:76,1,35
468,24,100731,6,0,L|468:76,1,35
412,24,100773,2,0,L|416:76,1,35
468,24,100814,6,0,L|468:76,1,35
412,24,100856,2,0,L|416:76,1,35
412,24,100898,2,0,L|416:76,1,35
468,24,100939,6,0,L|468:76,1,35
468,24,100940,6,0,L|468:76,1,35
412,24,100981,2,0,L|416:76,1,35
412,24,100982,2,0,L|416:76,1,35
396,40,101023,6,0,L|448:40,1,35
468,24,101064,6,0,L|468:76,1,35
396,96,101065,2,0,L|448:92,1,35
412,24,101106,2,0,L|416:76,1,35
468,24,101148,6,0,L|468:76,1,35
412,24,101190,2,0,L|416:76,1,35
396,40,101231,6,0,L|448:40,1,35
396,96,101273,2,0,L|448:92,1,35
396,40,101314,6,0,L|448:40,1,35
396,96,101356,2,0,L|448:92,1,35
396,96,101398,2,0,L|448:92,1,35
396,40,101439,6,0,L|448:40,1,35
396,40,101440,6,0,L|448:40,1,35
396,96,101481,2,0,L|448:92,1,35
396,96,101482,2,0,L|448:92,1,35
452,96,101523,6,0,L|400:96,1,35
396,40,101564,6,0,L|448:40,1,35
452,40,101565,2,0,L|400:44,1,35
396,96,101606,2,0,L|448:92,1,35
396,40,101648,6,0,L|448:40,1,35
396,96,101690,2,0,L|448:92,1,35
452,96,101731,6,0,L|400:96,1,35
452,40,101773,2,0,L|400:44,1,35
452,96,101814,6,0,L|400:96,1,35
452,40,101856,2,0,L|400:44,1,35
452,40,101898,2,0,L|400:44,1,35
452,96,101939,6,0,L|400:96,1,35
452,96,101940,6,0,L|400:96,1,35
452,40,101981,2,0,L|400:44,1,35
452,40,101982,2,0,L|400:44,1,35
392,24,102023,6,0,L|444:24,1,35
452,96,102064,6,0,L|400:96,1,35
392,80,102065,2,0,L|444:76,1,35
452,40,102106,2,0,L|400:44,1,35
392,24,102107,6,0,L|444:24,1,35
452,96,102148,6,0,L|400:96,1,35
392,80,102149,2,0,L|444:76,1,35
452,40,102190,2,0,L|400:44,1,35
392,24,102231,6,0,L|444:24,1,35
464,96,102232,2,0,L|460:44,1,35
392,80,102273,2,0,L|444:76,1,35
392,24,102315,6,0,L|444:24,1,35
392,80,102357,2,0,L|444:76,1,35
408,96,102398,6,0,L|408:44,1,35
464,96,102440,2,0,L|460:44,1,35
408,96,102481,6,0,L|408:44,1,35
464,96,102523,2,0,L|460:44,1,35
256,192,104315,12,0,104981,0:0:0:0:
272,92,105273,5,0,0:0:0:0:
104,108,106315,1,0,0:0:0:0:
320,124,106606,1,0,0:0:0:0:
268,204,107065,1,0,0:0:0:0:
56,180,107440,1,0,0:0:0:0:
432,136,107856,1,0,0:0:0:0:
196,132,108384,1,0,0:0:0:0:
376,168,109037,1,0,0:0:0:0:
320,248,109328,1,0,0:0:0:0:
320,192,109676,1,0,0:0:0:0:
320,184,109870,1,0,0:0:0:0:
308,168,110065,1,0,0:0:0:0:
272,148,110273,1,0,0:0:0:0:
256,144,110412,1,0,0:0:0:0:
24,80,110773,5,0,0:0:0:0:
116,64,110856,1,0,0:0:0:0:
408,144,111384,1,0,0:0:0:0:
124,104,111565,1,0,0:0:0:0:
144,208,111731,1,0,0:0:0:0:
324,264,111926,1,0,0:0:0:0:
376,204,112120,1,0,0:0:0:0:
224,100,112273,1,0,0:0:0:0:
256,100,112315,1,0,0:0:0:0:
224,100,112523,1,0,0:0:0:0:
216,124,112676,1,0,0:0:0:0:
112,144,112842,1,0,0:0:0:0:
84,208,113231,1,0,0:0:0:0:
228,208,113523,1,0,0:0:0:0:
324,140,113773,1,0,0:0:0:0:
240,80,114176,1,0,0:0:0:0:
240,80,114328,1,0,0:0:0:0:
324,140,114440,1,0,0:0:0:0:
240,80,114606,1,0,0:0:0:0:
172,88,114690,1,0,0:0:0:0:
120,92,114745,1,0,0:0:0:0:
120,92,114912,1,0,0:0:0:0:
200,192,115328,1,0,0:0:0:0:
200,192,115495,1,0,0:0:0:0:
200,192,115690,1,0,0:0:0:0:
300,148,115745,1,0,0:0:0:0:
300,148,115870,1,0,0:0:0:0:
256,96,116342,1,0,0:0:0:0:
256,96,116398,1,0,0:0:0:0:
256,96,116440,1,0,0:0:0:0:
256,96,116495,1,0,0:0:0:0:
256,88,116898,5,0,0:0:0:0:
112,176,117259,1,0,0:0:0:0:
204,240,117398,1,0,0:0:0:0:
420,120,117801,1,0,0:0:0:0:
80,88,117940,1,0,0:0:0:0:
232,64,118190,5,0,0:0:0:0:
344,48,118356,1,0,0:0:0:0:
232,64,118523,1,0,0:0:0:0:
284,56,118606,1,0,0:0:0:0:
344,48,118690,1,0,0:0:0:0:
228,60,118856,1,0,0:0:0:0:
344,48,119023,1,0,0:0:0:0:
288,52,119106,1,0,0:0:0:0:
232,56,119190,1,0,0:0:0:0:
344,48,119356,1,0,0:0:0:0:
292,52,119440,1,0,0:0:0:0:
232,56,119509,1,0,0:0:0:0:
272,356,119773,1,0,0:0:0:0:
312,180,120078,1,0,0:0:0:0:
52,76,120412,5,0,0:0:0:0:
112,116,120523,1,0,0:0:0:0:
180,68,120634,1,0,0:0:0:0:
144,132,121106,1,0,0:0:0:0:
144,132,121190,1,0,0:0:0:0:
144,132,121273,6,0,P|284:180|292:176,6,163.333333333333
284,179,121467,1,0,0:0:0:0:
144,132,121648,1,0,0:0:0:0:
284,179,121856,1,0,0:0:0:0:
144,132,122023,1,0,0:0:0:0:
284,179,122231,1,0,0:0:0:0:
244,76,122523,1,0,0:0:0:0:
80,72,123023,5,0,0:0:0:0:
160,72,123106,1,0,0:0:0:0:
244,76,123190,1,0,0:0:0:0:
328,76,123273,1,0,0:0:0:0:
176,128,123565,1,0,0:0:0:0:
408,208,123884,1,0,0:0:0:0:
184,304,124176,1,0,0:0:0:0:
152,120,124440,5,0,0:0:0:0:
336,76,124606,1,0,0:0:0:0:
244,96,124690,1,0,0:0:0:0:
152,120,124773,1,0,0:0:0:0:
244,96,124940,1,0,0:0:0:0:
336,76,125023,1,0,0:0:0:0:
152,120,125190,1,0,0:0:0:0:
244,96,125273,1,0,0:0:0:0:
152,120,125356,1,0,0:0:0:0:
336,76,125523,1,0,0:0:0:0:
244,96,125606,1,0,0:0:0:0:
32,152,125759,1,0,0:0:0:0:
216,152,126120,1,0,0:0:0:0:
104,144,126509,1,0,0:0:0:0:
216,96,126870,1,0,0:0:0:0:
192,80,127106,1,0,0:0:0:0:
200,56,127203,1,0,0:0:0:0:
200,60,127440,1,0,0:0:0:0:
200,92,127523,1,0,0:0:0:0:
216,96,127620,1,0,0:0:0:0:
216,96,127856,1,0,0:0:0:0:
180,96,127940,1,0,0:0:0:0:
176,88,128134,1,0,0:0:0:0:
208,92,128273,1,0,0:0:0:0:
240,100,128356,1,0,0:0:0:0:
220,92,128453,1,0,0:0:0:0:
288,92,128773,1,0,0:0:0:0:
308,144,129217,1,0,0:0:0:0:
224,220,129467,1,0,0:0:0:0:
288,280,129828,5,0,0:0:0:0:
324,200,130117,5,0,0:0:0:0:
204,144,130190,1,0,0:0:0:0:
408,116,130523,1,0,0:0:0:0:
244,60,130690,1,0,0:0:0:0:
200,220,130856,1,0,0:0:0:0:
80,228,131190,1,0,0:0:0:0:
360,160,131356,1,0,0:0:0:0:
216,104,131523,1,0,0:0:0:0:
104,112,131773,1,0,0:0:0:0:
440,368,132106,1,0,0:0:0:0:
208,288,132440,1,0,0:0:0:0:
360,132,132690,1,0,0:0:0:0:
196,184,133023,1,0,0:0:0:0:
48,96,133273,1,0,0:0:0:0:
92,256,133440,1,0,0:0:0:0:
180,104,133606,1,0,0:0:0:0:
484,88,133856,1,0,0:0:0:0:
240,140,134106,1,0,0:0:0:0:
348,88,134492,1,0,0:0:0:0:
324,208,134773,1,0,0:0:0:0:
208,212,135273,1,0,0:0:0:0:
224,312,135856,1,0,0:0:0:0:
152,232,135940,1,0,0:0:0:0:
428,104,136190,1,0,0:0:0:0:
96,104,136606,1,0,0:0:0:0:
88,184,136773,1,0,0:0:0:0:
84,276,136940,1,0,0:0:0:0:
88,184,137106,1,0,0:0:0:0:
204,208,137190,1,0,0:0:0:0:
320,232,137273,1,0,0:0:0:0:
380,52,137471,1,0,0:0:0:0:
436,76,137502,1,0,0:0:0:0:
208,128,137773,1,0,0:0:0:0:
360,116,138190,1,0,0:0:0:0:
152,272,138523,1,0,0:0:0:0:
92,128,138856,1,0,0:0:0:0:
180,100,138940,6,0,B|240:96|240:96|256:80|228:52|228:52|212:68|216:84|236:104|236:104|472:56,1,385
440,76,139523,1,0,0:0:0:0:
396,76,139606,1,0,0:0:0:0:
356,80,139648,1,0,0:0:0:0:
320,80,139731,1,0,0:0:0:0:
276,84,139815,1,0,0:0:0:0:
232,88,139940,1,0,0:0:0:0:
192,88,140023,1,0,0:0:0:0:
136,92,140190,1,0,0:0:0:0:
92,100,140315,1,0,0:0:0:0:
48,104,140523,1,0,0:0:0:0:
52,132,140606,1,0,0:0:0:0:
56,200,140773,1,0,0:0:0:0:
72,264,141023,1,0,0:0:0:0:
116,264,141106,1,0,0:0:0:0:
184,244,141273,1,0,0:0:0:0:
256,124,141440,6,0,B|280:56|204:28|152:24|132:112|132:112|56:44|-36:96|-68:176|56:196|92:200|92:200|136:316|108:356|216:364|216:364|264:312|276:276|228:168|228:168|256:128|260:116,2,980
132,112,141690,1,0,0:0:0:0:
