osu file format v14

[General]
AudioFilename: audio.mp3
AudioLeadIn: 0
PreviewTime: -1
Countdown: 1
SampleSet: None
StackLeniency: 0.7
Mode: 0
LetterboxInBreaks: 0
WidescreenStoryboard: 0

[Editor]
DistanceSpacing: 1.5
BeatDivisor: 4
GridSize: 4
TimelineZoom: 1

[Metadata]
Title:Holdin On (Skrillex and Nero Remix)
TitleUnicode:Holdin On (Skrillex and Nero Remix)
Artist:I SEE MONSTAS
ArtistUnicode:I SEE MONSTAS
Creator:blueloniess
Version:bluelon
Source:
Tags:practice
BeatmapID:1872816
BeatmapSetID:896410

[Difficulty]
HPDrainRate:5
CircleSize:4
OverallDifficulty:9
ApproachRate:9.6
SliderMultiplier:1.6
SliderTickRate:1

[Events]
//Background and Video events
//Break Periods
2,55399,59122
//Storyboard Layer 0 (Background)
//Storyboard Layer 1 (Fail)
//Storyboard Layer 2 (Pass)
//Storyboard Layer 3 (Foreground)
//Storyboard Sound Samples

[TimingPoints]
113,344.827586206897,4,3,22,62,1,0
22181,-161.290322580645,4,3,22,62,0,0
49768,-121.951219512195,4,3,22,62,0,0
60802,-81.9672131147541,4,3,22,82,0,0
102181,-98.0392156862745,4,3,22,82,0,0
104940,-81.9672131147541,4,3,22,82,0,0
114595,-121.951219512195,4,3,22,82,0,0
115975,-81.9672131147541,4,3,22,62,0,0
125630,-98.0392156862745,4,3,22,82,0,0

[HitObjects]
86,47,22181,6,0,L|86:219,1,148.79999409668
185,346,22871,2,0,L|185:197,1,148.79999409668
182,104,23561,1,0,0:0:0:0:
266,167,23733,1,0,0:0:0:0:
257,24,23906,6,0,L|375:20,1,99.1999960644533
487,142,24423,1,0,0:0:0:0:
401,129,24595,2,0,L|412:67,1,49.5999980322266
266,167,24940,6,0,L|266:315,1,148.79999409668
444,267,25630,2,0,P|401:244|343:246,1,99.1999960644533
465,357,26147,1,0,0:0:0:0:
355,367,26319,2,0,P|372:341|380:316,1,49.5999980322266
424,172,26664,2,0,P|414:149|400:128,1,49.5999980322266
291,83,27009,2,0,P|332:67|355:4,1,99.1999960644533
280,2,27526,1,0,0:0:0:0:
173,40,27699,6,0,L|180:197,1,148.79999409668,4|0,0:0|0:0,0:0:0:0:
36,279,28388,2,0,L|43:122,1,148.79999409668
98,55,29078,1,0,0:0:0:0:
179,188,29250,1,0,0:0:0:0:
302,154,29423,2,0,P|259:146|240:148,1,49.5999980322266
336,254,29768,1,0,0:0:0:0:
142,257,29940,2,0,P|181:270|239:239,1,99.1999960644533
367,348,30457,6,0,B|337:367|337:367|335:239,1,148.79999409668
491,183,31147,2,0,P|458:200|383:188,1,99.1999960644533
302,154,31664,1,0,0:0:0:0:
425,74,31837,2,0,P|436:116|435:137,1,49.5999980322266
312,59,32181,2,0,P|314:34|323:11,1,49.5999980322266
425,74,32526,5,0,0:0:0:0:
302,154,32699,1,0,0:0:0:0:
194,55,32871,1,0,0:0:0:0:
75,141,33044,1,0,0:0:0:0:
112,259,33216,6,0,B|194:284|169:228|271:250,1,148.79999409668
335,381,33906,2,0,P|294:393|236:305,1,148.79999409668
328,212,34595,2,0,P|337:255|333:272,1,49.5999980322266
430,349,34940,2,0,P|443:316|443:237,1,99.1999960644533
406,160,35457,1,0,0:0:0:0:
282,195,35630,2,0,P|303:207|327:211,1,49.5999980322266,0|0,2:0|2:0,2:0:0:0:
295,92,35975,6,0,L|183:103,1,99.1999960644533
15,124,36492,1,0,0:0:0:0:
93,30,36664,2,0,B|117:38|117:38|106:124,1,99.1999960644533
88,220,37181,1,0,0:0:0:0:
253,256,37354,6,0,P|207:275|150:262,1,99.1999960644533
197,197,37871,1,0,0:0:0:0:
310,317,38044,6,0,P|335:306|367:313,1,49.5999980322266
345,383,38388,1,0,0:0:0:0:
332,227,38561,1,0,0:0:0:0:
497,155,38733,6,0,P|444:169|383:149,1,99.1999960644533
443,76,39250,1,0,0:0:0:0:
206,121,39423,6,0,P|259:107|320:127,1,99.1999960644533
260,200,39940,1,0,0:0:0:0:
110,54,40113,6,0,L|103:159,1,99.1999960644533
162,233,40630,1,0,0:0:0:0:
206,121,40802,2,0,P|259:107|320:127,1,99.1999960644533
260,200,41319,1,0,0:0:0:0:
294,289,41492,2,0,B|263:339|263:339|259:192,1,198.399992128907
257,22,42354,5,0,0:0:0:0:
328,127,42526,1,0,0:0:0:0:
358,42,42699,1,0,0:0:0:0:
206,121,42871,6,0,L|210:180,1,49.5999980322266
101,72,43216,2,0,L|97:131,1,49.5999980322266
294,289,43561,6,0,L|290:348,1,49.5999980322266
399,240,43906,2,0,L|403:299,1,49.5999980322266
290,338,44250,5,0,0:0:0:0:
197,303,44423,1,0,0:0:0:0:
197,303,44509,1,0,0:0:0:0:
197,303,44595,1,0,0:0:0:0:
113,357,44768,1,0,0:0:0:0:
290,338,44940,2,0,L|299:233,1,99.1999960644533
218,161,45457,1,0,0:0:0:0:
76,56,45630,5,0,0:0:0:0:
189,52,45802,1,0,0:0:0:0:
189,52,45888,1,0,0:0:0:0:
189,52,45975,1,0,0:0:0:0:
218,161,46147,1,0,0:0:0:0:
76,56,46319,2,0,L|82:162,1,99.1999960644533
113,357,46837,1,0,0:0:0:0:
298,239,47009,5,0,0:0:0:0:
160,227,47181,1,0,0:0:0:0:
160,227,47268,1,0,0:0:0:0:
160,227,47354,1,0,0:0:0:0:
113,357,47526,1,0,0:0:0:0:
298,239,47699,2,0,L|303:139,1,99.1999960644533
454,326,48216,1,0,0:0:0:0:
344,346,48388,6,0,P|306:359|283:356,1,49.5999980322266
160,227,48733,2,0,P|135:229|113:239,1,49.5999980322266
299,271,49078,5,0,0:0:0:0:
289,222,49250,1,0,0:0:0:0:
154,307,49423,5,0,0:0:0:0:
164,356,49595,1,0,0:0:0:0:
289,222,49768,5,0,0:0:0:0:
138,132,49940,1,0,0:0:0:0:
138,132,50026,1,0,0:0:0:0:
138,132,50113,1,0,0:0:0:0:
268,45,50285,1,0,0:0:0:0:
208,215,50457,5,0,0:0:0:0:
196,64,50630,1,0,0:0:0:0:
347,66,50802,1,0,0:0:0:0:
359,217,50975,1,0,0:0:0:0:
274,128,51147,5,0,0:0:0:0:
478,162,51319,1,0,0:0:0:0:
478,162,51406,1,0,0:0:0:0:
478,162,51492,1,0,0:0:0:0:
309,302,51664,1,0,0:0:0:0:
407,111,51837,5,0,0:0:0:0:
412,304,52009,1,0,0:0:0:0:
219,306,52181,1,0,0:0:0:0:
214,113,52353,1,0,0:0:0:0:
304,190,52526,5,0,0:0:0:0:
155,223,52699,1,0,0:0:0:0:
0,276,52871,5,0,0:0:0:0:
149,309,53044,1,0,0:0:0:0:
214,113,53216,5,0,0:0:0:0:
65,146,53389,1,0,0:0:0:0:
155,223,53561,5,0,0:0:0:0:
304,256,53734,1,0,0:0:0:0:
299,66,53906,5,0,0:0:0:0:
155,223,54078,1,0,0:0:0:0:
300,52,54250,1,0,0:0:0:0:
304,265,54423,1,0,0:0:0:0:
65,146,54595,5,0,0:0:0:0:
97,140,54681,1,0,0:0:0:0:
129,134,54768,1,0,0:0:0:0:
161,128,54854,1,0,0:0:0:0:
193,122,54940,5,0,0:0:0:0:
205,169,55026,1,0,0:0:0:0:
213,217,55113,1,0,0:0:0:0:
220,265,55199,1,0,0:0:0:0:
101,191,60802,6,0,P|157:220|245:171,1,146.399993968506
178,45,61147,2,0,P|163:114|173:167,1,97.5999959790041
212,336,61492,5,0,0:0:0:0:
419,259,61664,1,0,0:0:0:0:
179,217,61837,5,0,0:0:0:0:
450,333,62009,1,0,0:0:0:0:
133,291,62181,5,0,0:0:0:0:
472,205,62354,1,0,0:0:0:0:
133,291,62526,5,0,0:0:0:0:
472,205,62699,1,0,0:0:0:0:
248,167,62871,5,0,0:0:0:0:
359,360,63044,1,0,0:0:0:0:
248,167,63216,5,0,0:0:0:0:
359,360,63389,1,0,0:0:0:0:
435,256,63561,6,0,P|376:288|286:234,1,146.399993968506
345,87,63906,2,0,P|370:148|358:201,1,97.5999959790041
134,46,64250,5,0,0:0:0:0:
345,87,64423,1,0,0:0:0:0:
66,99,64595,5,0,0:0:0:0:
273,35,64768,1,0,0:0:0:0:
39,25,64940,5,0,0:0:0:0:
366,178,65113,1,0,0:0:0:0:
39,25,65285,6,0,L|91:51,1,48.799997989502
366,178,65457,2,0,L|306:152,1,48.799997989502
39,25,65630,6,0,L|91:51,1,48.799997989502
366,178,65802,2,0,L|306:152,1,48.799997989502
179,11,65975,5,0,0:0:0:0:
211,269,66147,1,0,0:0:0:0:
435,102,66319,6,0,P|363:103|319:182,1,146.399993968506
399,280,66664,2,0,P|405:222|394:172,1,97.5999959790041
292,19,67009,5,0,0:0:0:0:
150,190,67181,1,0,0:0:0:0:
179,11,67354,5,0,0:0:0:0:
211,269,67526,1,0,0:0:0:0:
292,19,67699,5,0,0:0:0:0:
136,265,67871,1,0,0:0:0:0:
292,19,68044,5,0,0:0:0:0:
136,265,68216,1,0,0:0:0:0:
88,45,68388,5,0,0:0:0:0:
211,269,68561,1,0,0:0:0:0:
88,45,68733,5,0,0:0:0:0:
211,269,68906,1,0,0:0:0:0:
442,223,69078,6,0,P|384:200|298:262,1,146.399993968506
149,358,69423,2,0,L|263:363,1,97.5999959790041
397,371,69768,5,0,0:0:0:0:
211,269,69940,1,0,0:0:0:0:
473,152,70113,5,0,0:0:0:0:
195,274,70285,1,0,0:0:0:0:
324,9,70457,6,0,P|324:87|279:180,1,146.399993968506
63,224,70802,1,0,0:0:0:0:
63,224,70975,2,0,P|131:185|234:178,1,146.399993968506
380,342,71319,1,0,0:0:0:0:
380,342,71492,2,0,P|312:303|254:217,1,146.399993968506
105,96,71837,6,0,B|139:69|143:37|143:37|146:68|178:100,1,146.399993968506
149,271,72181,2,0,B|131:317|131:317|124:254,1,97.5999959790041
362,196,72526,5,0,0:0:0:0:
258,92,72699,1,0,0:0:0:0:
154,195,72871,1,0,0:0:0:0:
258,299,73044,1,0,0:0:0:0:
368,132,73216,5,0,0:0:0:0:
198,86,73389,1,0,0:0:0:0:
151,256,73561,1,0,0:0:0:0:
322,301,73734,1,0,0:0:0:0:
337,62,73906,5,0,0:0:0:0:
132,117,74079,1,0,0:0:0:0:
186,321,74251,1,0,0:0:0:0:
390,266,74424,1,0,0:0:0:0:
132,117,74595,6,0,P|132:209|151:272,1,146.399993968506
321,221,74940,2,0,P|277:191|208:188,1,97.5999959790041
37,235,75285,5,0,0:0:0:0:
235,355,75457,1,0,0:0:0:0:
247,108,75630,1,0,0:0:0:0:
37,235,75802,1,0,0:0:0:0:
37,235,75975,5,0,0:0:0:0:
247,108,76147,1,0,0:0:0:0:
235,355,76320,1,0,0:0:0:0:
37,235,76492,1,0,0:0:0:0:
325,309,76664,2,0,L|398:311,1,48.799997989502
115,157,76837,2,0,L|42:155,1,48.799997989502
325,309,77009,2,0,L|398:311,1,48.799997989502
115,157,77182,2,0,L|42:155,1,48.799997989502
345,33,77354,6,0,P|277:42|250:125,1,146.399993968506
282,231,77699,2,0,P|338:198|346:124,1,97.5999959790041
246,107,78044,5,0,0:0:0:0:
169,277,78216,1,0,0:0:0:0:
355,272,78388,1,0,0:0:0:0:
129,171,78561,1,0,0:0:0:0:
259,362,78733,5,0,0:0:0:0:
341,112,78906,1,0,0:0:0:0:
118,248,79078,5,0,0:0:0:0:
435,202,79250,1,0,0:0:0:0:
186,121,79423,5,0,0:0:0:0:
349,362,79595,1,0,0:0:0:0:
292,39,79768,1,0,0:0:0:0:
212,253,79940,1,0,0:0:0:0:
296,182,80113,6,0,P|371:174|439:205,1,146.399993968506
227,349,80457,2,0,L|208:228,1,97.5999959790041
90,53,80802,5,0,0:0:0:0:
322,132,80975,1,0,0:0:0:0:
95,158,81147,1,0,0:0:0:0:
253,42,81319,1,0,0:0:0:0:
448,155,81492,6,0,P|400:174|313:110,1,146.399993968506
334,302,81837,2,0,P|393:267|430:265,1,97.5999959790041
237,235,82181,1,0,0:0:0:0:
195,342,82354,1,0,0:0:0:0:
77,205,82526,2,0,L|88:301,1,97.5999959790041
172,183,82871,6,0,P|208:123|171:46,1,146.399993968506
94,308,83216,2,0,L|201:295,1,97.5999959790041
426,278,83561,5,0,0:0:0:0:
426,278,83647,1,0,0:0:0:0:
426,278,83733,1,0,0:0:0:0:
324,134,83906,1,0,0:0:0:0:
312,330,84078,1,0,0:0:0:0:
308,53,84250,5,0,0:0:0:0:
426,278,84423,1,0,0:0:0:0:
304,40,84595,5,0,0:0:0:0:
309,341,84768,1,0,0:0:0:0:
296,31,84940,5,0,0:0:0:0:
429,287,85113,1,0,0:0:0:0:
296,31,85285,5,0,0:0:0:0:
429,287,85458,1,0,0:0:0:0:
251,250,85630,6,0,P|196:235|106:276,1,146.399993968506
18,135,85975,2,0,P|74:171|118:178,1,97.5999959790041
326,161,86319,1,0,0:0:0:0:
100,80,86492,1,0,0:0:0:0:
326,161,86664,1,0,0:0:0:0:
100,80,86837,1,0,0:0:0:0:
368,85,87009,5,0,0:0:0:0:
103,177,87181,1,0,0:0:0:0:
368,85,87354,5,0,0:0:0:0:
103,177,87526,1,0,0:0:0:0:
379,74,87699,5,0,0:0:0:0:
87,175,87871,1,0,0:0:0:0:
403,50,88044,5,0,0:0:0:0:
54,172,88216,1,0,0:0:0:0:
333,307,88388,6,0,L|326:144,1,146.399993968506
155,45,88733,2,0,L|161:164,1,97.5999959790041
240,263,89078,1,0,0:0:0:0:
240,263,89164,1,0,0:0:0:0:
240,263,89250,1,0,0:0:0:0:
240,84,89423,1,0,0:0:0:0:
87,229,89595,1,0,0:0:0:0:
257,360,89768,5,0,0:0:0:0:
440,240,89940,1,0,0:0:0:0:
244,356,90113,5,0,0:0:0:0:
87,229,90285,1,0,0:0:0:0:
257,376,90457,5,0,0:0:0:0:
458,244,90629,1,0,0:0:0:0:
242,372,90802,5,0,0:0:0:0:
70,232,90974,1,0,0:0:0:0:
307,251,91147,6,0,P|246:270|178:203,1,146.399993968506
115,27,91492,2,0,P|125:82|106:129,1,97.5999959790041
70,232,91837,5,0,0:0:0:0:
265,114,92009,1,0,0:0:0:0:
195,334,92181,1,0,0:0:0:0:
111,120,92354,1,0,0:0:0:0:
315,269,92526,6,0,P|378:271|443:211,2,146.399993968506
197,115,93216,6,0,P|134:113|69:173,2,146.399993968506
94,274,93906,6,0,P|188:290|237:221,1,146.399993968506
294,191,94250,2,0,L|308:313,1,97.5999959790041
158,209,94595,5,0,0:0:0:0:
319,77,94768,1,0,0:0:0:0:
109,141,94940,5,0,0:0:0:0:
361,154,95113,1,0,0:0:0:0:
78,210,95285,5,0,0:0:0:0:
403,95,95457,1,0,0:0:0:0:
78,210,95630,5,0,0:0:0:0:
403,95,95802,1,0,0:0:0:0:
204,30,95975,5,0,0:0:0:0:
274,323,96147,1,0,0:0:0:0:
204,30,96319,5,0,0:0:0:0:
274,323,96491,1,0,0:0:0:0:
468,232,96664,6,0,P|404:253|331:211,1,146.399993968506
152,167,97009,2,0,P|232:152|282:174,1,97.5999959790041
410,159,97354,5,0,0:0:0:0:
211,256,97526,1,0,0:0:0:0:
312,48,97699,1,0,0:0:0:0:
321,309,97871,1,0,0:0:0:0:
185,79,98044,5,0,0:0:0:0:
410,159,98216,1,0,0:0:0:0:
152,167,98388,5,0,0:0:0:0:
426,158,98561,1,0,0:0:0:0:
85,102,98733,5,0,0:0:0:0:
85,102,98819,1,0,0:0:0:0:
85,102,98906,1,0,0:0:0:0:
466,233,99078,1,0,0:0:0:0:
268,159,99250,5,0,0:0:0:0:
194,381,99423,6,0,L|182:213,1,146.399993968506
268,159,99768,2,0,L|274:256,1,97.5999959790041
90,313,100113,5,0,0:0:0:0:
192,85,100285,1,0,0:0:0:0:
395,284,100457,1,0,0:0:0:0:
28,215,100630,1,0,0:0:0:0:
339,45,100802,5,0,0:0:0:0:
194,381,100975,1,0,0:0:0:0:
173,45,101147,5,0,0:0:0:0:
318,381,101320,1,0,0:0:0:0:
473,180,101492,5,0,0:0:0:0:
39,204,101664,1,0,0:0:0:0:
473,180,101837,5,0,0:0:0:0:
39,204,102009,1,0,0:0:0:0:
252,318,102181,6,0,P|185:327|137:234,2,163.200000996094
115,105,103044,1,0,0:0:0:0:
39,204,103216,2,0,P|39:270|46:302,1,81.6000004980469
225,63,103561,5,0,0:0:0:0:
282,40,103647,1,0,0:0:0:0:
339,63,103733,1,0,0:0:0:0:
362,120,103819,1,0,0:0:0:0:
339,177,103906,5,0,0:0:0:0:
282,200,103992,1,0,0:0:0:0:
225,177,104078,1,0,0:0:0:0:
202,120,104164,1,0,0:0:0:0:
225,63,104250,5,0,0:0:0:0:
282,40,104336,1,0,0:0:0:0:
339,63,104422,1,0,0:0:0:0:
362,120,104508,1,0,0:0:0:0:
339,177,104595,5,0,0:0:0:0:
282,200,104681,1,0,0:0:0:0:
225,177,104767,1,0,0:0:0:0:
202,120,104853,1,0,0:0:0:0:
225,63,104940,6,0,P|287:39|273:198,1,292.799987937012
138,295,105630,1,0,0:0:0:0:
155,249,105716,1,0,0:0:0:0:
191,217,105802,1,0,0:0:0:0:
239,215,105888,1,0,0:0:0:0:
285,232,105975,1,0,0:0:0:0:
308,274,106061,1,0,0:0:0:0:
309,322,106147,1,0,0:0:0:0:
273,354,106233,1,0,0:0:0:0:
227,336,106319,5,0,0:0:0:0:
292,302,106406,1,0,0:0:0:0:
364,305,106492,1,0,0:0:0:0:
433,326,106578,1,0,0:0:0:0:
483,273,106664,1,0,0:0:0:0:
472,200,106750,1,0,0:0:0:0:
431,138,106837,1,0,0:0:0:0:
358,126,106923,1,0,0:0:0:0:
290,154,107009,1,0,0:0:0:0:
264,222,107095,1,0,0:0:0:0:
294,288,107181,1,0,0:0:0:0:
144,190,107354,6,0,P|134:119|80:72,1,146.399993968506
80,72,107699,6,0,P|123:109|232:43,1,195.199991958008
133,270,108216,1,0,0:0:0:0:
44,153,108388,5,0,0:0:0:0:
89,133,108475,1,0,0:0:0:0:
137,135,108561,1,0,0:0:0:0:
183,148,108647,1,0,0:0:0:0:
223,175,108733,1,0,0:0:0:0:
243,219,108819,1,0,0:0:0:0:
246,268,108906,1,0,0:0:0:0:
215,306,108992,1,0,0:0:0:0:
142,308,109078,5,0,0:0:0:0:
202,266,109164,1,0,0:0:0:0:
274,276,109250,1,0,0:0:0:0:
333,319,109337,1,0,0:0:0:0:
405,327,109423,1,0,0:0:0:0:
468,290,109509,1,0,0:0:0:0:
488,219,109595,1,0,0:0:0:0:
396,61,109768,6,0,B|342:54|326:36|326:36|325:17|341:10|355:25|355:25|347:56|294:61,1,195.199991958008
295,62,110285,1,0,0:0:0:0:
461,159,110457,6,0,B|394:147|394:147|365:175|365:175|256:161,1,195.199991958008
278,163,110975,1,0,0:0:0:0:
98,19,111147,5,0,0:0:0:0:
85,66,111233,1,0,0:0:0:0:
85,114,111319,1,0,0:0:0:0:
112,154,111406,1,0,0:0:0:0:
141,192,111492,1,0,0:0:0:0:
150,239,111578,1,0,0:0:0:0:
150,287,111664,1,0,0:0:0:0:
181,324,111750,1,0,0:0:0:0:
254,332,111837,5,0,0:0:0:0:
301,276,111923,1,0,0:0:0:0:
298,203,112009,1,0,0:0:0:0:
239,158,112095,1,0,0:0:0:0:
166,152,112181,1,0,0:0:0:0:
101,188,112268,1,0,0:0:0:0:
81,258,112354,1,0,0:0:0:0:
103,327,112440,1,0,0:0:0:0:
164,365,112526,1,0,0:0:0:0:
237,365,112613,1,0,0:0:0:0:
280,306,112699,1,0,0:0:0:0:
219,45,112871,2,0,L|106:66,1,97.5999959790041
70,265,113216,6,0,P|129:270|145:143,1,195.199991958008
162,159,113733,1,0,0:0:0:0:
128,59,113906,5,0,0:0:0:0:
198,77,113992,1,0,0:0:0:0:
252,125,114078,1,0,0:0:0:0:
278,193,114164,1,0,0:0:0:0:
270,265,114250,1,0,0:0:0:0:
230,326,114337,1,0,0:0:0:0:
167,362,114423,1,0,0:0:0:0:
95,365,114509,1,0,0:0:0:0:
30,335,114595,1,0,0:0:0:0:
347,192,115285,2,0,L|489:192,1,131.200002001953
128,59,115802,1,0,0:0:0:0:
303,113,115975,6,0,P|257:189|351:281,1,195.199991958008
444,121,116492,1,0,0:0:0:0:
332,26,116664,5,0,0:0:0:0:
283,27,116750,1,0,0:0:0:0:
233,26,116837,1,0,0:0:0:0:
184,28,116923,1,0,0:0:0:0:
135,29,117009,1,0,0:0:0:0:
99,62,117095,1,0,0:0:0:0:
97,110,117181,1,0,0:0:0:0:
116,155,117268,1,0,0:0:0:0:
157,180,117354,5,0,0:0:0:0:
229,169,117440,1,0,0:0:0:0:
292,133,117526,1,0,0:0:0:0:
320,65,117612,1,0,0:0:0:0:
387,37,117699,1,0,0:0:0:0:
455,65,117785,1,0,0:0:0:0:
483,132,117871,1,0,0:0:0:0:
455,200,117957,1,0,0:0:0:0:
387,228,118043,1,0,0:0:0:0:
320,200,118130,1,0,0:0:0:0:
292,133,118216,1,0,0:0:0:0:
455,200,118388,6,0,P|480:263|413:313,1,146.399993968506
429,312,118733,6,0,B|332:285|336:355|226:327,1,195.199991958008
239,329,119250,1,0,0:0:0:0:
33,155,119423,5,0,0:0:0:0:
76,132,119509,1,0,0:0:0:0:
124,124,119595,1,0,0:0:0:0:
171,134,119681,1,0,0:0:0:0:
211,162,119768,1,0,0:0:0:0:
226,207,119854,1,0,0:0:0:0:
228,255,119940,1,0,0:0:0:0:
222,303,120026,1,0,0:0:0:0:
150,323,120113,5,0,0:0:0:0:
188,260,120199,1,0,0:0:0:0:
248,219,120285,1,0,0:0:0:0:
320,207,120371,1,0,0:0:0:0:
389,229,120457,1,0,0:0:0:0:
444,277,120544,1,0,0:0:0:0:
446,349,120630,1,0,0:0:0:0:
301,351,120802,6,0,P|223:306|248:219,1,195.199991958008
247,219,121319,1,0,0:0:0:0:
308,86,121492,6,0,B|360:59|360:59|502:121,1,195.199991958008
485,113,122009,1,0,0:0:0:0:
360,191,122181,5,0,0:0:0:0:
318,164,122268,1,0,0:0:0:0:
272,146,122354,1,0,0:0:0:0:
224,135,122440,1,0,0:0:0:0:
175,135,122526,1,0,0:0:0:0:
126,145,122613,1,0,0:0:0:0:
81,165,122699,1,0,0:0:0:0:
44,197,122785,1,0,0:0:0:0:
48,269,122871,5,0,0:0:0:0:
94,213,122957,1,0,0:0:0:0:
126,146,123044,1,0,0:0:0:0:
136,73,123130,1,0,0:0:0:0:
101,8,123216,1,0,0:0:0:0:
95,80,123302,1,0,0:0:0:0:
146,131,123388,1,0,0:0:0:0:
219,137,123475,1,0,0:0:0:0:
283,103,123561,1,0,0:0:0:0:
339,56,123647,1,0,0:0:0:0:
411,62,123733,1,0,0:0:0:0:
477,200,123906,6,0,P|415:162|334:194,1,146.399993968506
348,180,124250,6,0,P|261:197|226:192,1,97.5999959790041
283,103,124595,1,0,0:0:0:0:
188,274,124768,6,0,P|275:290|310:285,1,97.5999959790041
253,196,125113,1,0,0:0:0:0:
348,367,125285,6,0,P|262:383|227:378,1,97.5999959790041
284,289,125630,1,0,0:0:0:0:
284,289,126319,1,0,0:0:0:0:
385,249,127009,5,0,0:0:0:0:
