osu file format v14

[General]
AudioFilename: audio.mp3
AudioLeadIn: 0
PreviewTime: 59183
Countdown: 0
SampleSet: Normal
StackLeniency: 0.7
Mode: 1
LetterboxInBreaks: 0
WidescreenStoryboard: 0

[Editor]
DistanceSpacing: 0.8
BeatDivisor: 4
GridSize: 32
TimelineZoom: 2

[Metadata]
Title:Holdin On (Skrillex and Nero Remix)
TitleUnicode:Holdin On (Skrillex and Nero Remix)
Artist:I SEE MONSTAS
ArtistUnicode:I SEE MONSTAS
Creator:Surono
Version:Never Die
Source:
Tags:drum n bass dnb dubstep asphalt 8 airborne yales
BeatmapID:1703020
BeatmapSetID:811930

[Difficulty]
HPDrainRate:5
CircleSize:2
OverallDifficulty:6
ApproachRate:10
SliderMultiplier:1.4
SliderTickRate:1

[Events]
//Background and Video events
0,0,"find me background please.jpg",0,-135
//Break Periods
//Storyboard Layer 0 (Background)
//Storyboard Layer 1 (Fail)
//Storyboard Layer 2 (Pass)
//Storyboard Layer 3 (Foreground)
//Storyboard Sound Samples

[TimingPoints]
132,344.827586206897,4,1,0,75,1,0
132,-200,4,1,0,75,0,0
11166,-181.818181818182,4,1,0,75,0,0
21425,-166.666666666667,4,1,0,80,0,0
21597,-153.846153846154,4,1,0,80,0,0
21769,-142.857142857143,4,1,0,80,0,0
22028,-133.333333333333,4,1,0,80,0,0
44614,-142.857142857143,4,1,0,40,0,0
49442,-125,4,1,0,60,0,0
52373,-111.111111111111,4,1,0,80,0,0
54528,-100,4,1,0,90,0,0
55304,-100,4,1,0,25,0,0
60821,-100,4,1,0,95,0,1
61338,-95.2380952380952,4,1,0,95,0,1
61511,-90.9090909090909,4,1,0,95,0,1
63407,-95.2380952380952,4,1,0,95,0,1
63580,-100,4,1,0,95,0,1
64097,-95.2380952380952,4,1,0,95,0,1
64269,-90.9090909090909,4,1,0,95,0,1
66166,-95.2380952380952,4,1,0,95,0,1
66338,-100,4,1,0,95,0,1
66856,-95.2380952380952,4,1,0,95,0,1
67028,-90.9090909090909,4,1,0,95,0,1
68925,-95.2380952380952,4,1,0,95,0,1
69097,-100,4,1,0,95,0,1
69614,-95.2380952380952,4,1,0,95,0,1
69787,-90.9090909090909,4,1,0,95,0,1
70390,-80,4,1,0,95,0,1
70821,-100,4,1,0,95,0,1
70907,-80,4,1,0,95,0,1
71338,-100,4,1,0,95,0,1
71425,-80,4,1,0,95,0,1
72028,-100,4,1,0,95,0,1
72287,-97.5609756097561,4,1,0,95,0,1
72373,-95.2380952380952,4,1,0,95,0,1
72545,-90.9090909090909,4,1,0,95,0,1
74356,-93.0232558139535,4,1,0,95,0,1
74442,-95.2380952380952,4,1,0,95,0,1
74528,-97.5609756097561,4,1,0,95,0,1
74614,-100,4,1,0,95,0,1
75045,-97.5609756097561,4,1,0,95,0,1
75132,-95.2380952380952,4,1,0,95,0,1
75304,-90.9090909090909,4,1,0,95,0,1
77114,-93.0232558139535,4,1,0,95,0,1
77200,-95.2380952380952,4,1,0,95,0,1
77287,-97.5609756097561,4,1,0,95,0,1
77373,-100,4,1,0,95,0,1
77804,-97.5609756097561,4,1,0,95,0,1
77890,-95.2380952380952,4,1,0,95,0,1
78063,-90.9090909090909,4,1,0,95,0,1
79873,-93.0232558139535,4,1,0,95,0,1
79959,-95.2380952380952,4,1,0,95,0,1
80045,-97.5609756097561,4,1,0,95,0,1
80132,-100,4,1,0,95,0,1
80563,-97.5609756097561,4,1,0,95,0,1
80649,-95.2380952380952,4,1,0,95,0,1
80821,-90.9090909090909,4,1,0,95,0,1
82718,-100,4,1,0,95,0,1
83321,-97.5609756097561,4,1,0,95,0,1
83407,-95.2380952380952,4,1,0,95,0,1
83580,-90.9090909090909,4,1,0,95,0,1
85390,-93.0232558139535,4,1,0,95,0,1
85476,-95.2380952380952,4,1,0,95,0,1
85563,-97.5609756097561,4,1,0,95,0,1
85649,-100,4,1,0,95,0,1
86080,-97.5609756097561,4,1,0,95,0,1
86166,-95.2380952380952,4,1,0,95,0,1
86338,-90.9090909090909,4,1,0,95,0,1
88149,-93.0232558139535,4,1,0,95,0,1
88235,-95.2380952380952,4,1,0,95,0,1
88321,-97.5609756097561,4,1,0,95,0,1
88407,-100,4,1,0,95,0,1
88838,-97.5609756097561,4,1,0,95,0,1
88925,-95.2380952380952,4,1,0,95,0,1
89097,-90.9090909090909,4,1,0,95,0,1
90907,-93.0232558139535,4,1,0,95,0,1
90994,-95.2380952380952,4,1,0,95,0,1
91080,-97.5609756097561,4,1,0,95,0,1
91166,-100,4,1,0,95,0,1
91597,-97.5609756097561,4,1,0,95,0,1
91683,-95.2380952380952,4,1,0,95,0,1
91856,-90.9090909090909,4,1,0,95,0,1
93350,-93.0232558139535,4,1,0,95,0,1
93580,-95.2380952380952,4,1,0,95,0,1
93810,-100,4,1,0,95,0,1
94356,-97.5609756097561,4,1,0,95,0,1
94442,-95.2380952380952,4,1,0,95,0,1
94614,-90.9090909090909,4,1,0,95,0,1
96425,-93.0232558139535,4,1,0,95,0,1
96511,-95.2380952380952,4,1,0,95,0,1
96597,-97.5609756097561,4,1,0,95,0,1
96683,-100,4,1,0,95,0,1
97114,-97.5609756097561,4,1,0,95,0,1
97200,-95.2380952380952,4,1,0,95,0,1
97373,-90.9090909090909,4,1,0,95,0,1
99183,-93.0232558139535,4,1,0,95,0,1
99269,-95.2380952380952,4,1,0,95,0,1
99356,-97.5609756097561,4,1,0,95,0,1
99442,-100,4,1,0,95,0,1
99873,-97.5609756097561,4,1,0,95,0,1
99959,-95.2380952380952,4,1,0,95,0,1
100132,-90.9090909090909,4,1,0,95,0,1
101942,-93.0232558139535,4,1,0,95,0,1
102028,-95.2380952380952,4,1,0,95,0,1
102114,-97.5609756097561,4,1,0,95,0,1
102200,-100,4,1,0,95,0,1
104959,-100,4,1,0,25,0,0
105649,-105.263157894737,4,1,0,25,0,0
106338,-111.111111111111,4,1,0,25,0,0
107028,-117.647058823529,4,1,0,25,0,0
107718,-125,4,1,0,25,0,0
108407,-133.333333333333,4,1,0,25,0,0
109097,-142.857142857143,4,1,0,25,0,0
109787,-153.846153846154,4,1,0,25,0,0
110476,-200,4,1,0,25,0,0
115994,-166.666666666667,4,1,0,50,0,0
125304,-142.857142857143,4,1,0,80,0,0
126856,-133.333333333333,4,1,0,80,0,0
149269,-142.857142857143,4,1,0,40,0,0
154614,-125,4,1,0,60,0,0
157373,-111.111111111111,4,1,0,80,0,0
159442,-100,4,1,0,90,0,0
160132,-100,4,1,0,95,0,1
160647,-95.2380952380952,4,1,0,95,0,1
160820,-90.9090909090909,4,1,0,95,0,1
162716,-95.2380952380952,4,1,0,95,0,1
162889,-100,4,1,0,95,0,1
163406,-95.2380952380952,4,1,0,95,0,1
163578,-90.9090909090909,4,1,0,95,0,1
165475,-95.2380952380952,4,1,0,95,0,1
165647,-100,4,1,0,95,0,1
166165,-95.2380952380952,4,1,0,95,0,1
166337,-90.9090909090909,4,1,0,95,0,1
168234,-95.2380952380952,4,1,0,95,0,1
168406,-100,4,1,0,95,0,1
168923,-95.2380952380952,4,1,0,95,0,1
169096,-90.9090909090909,4,1,0,95,0,1
169699,-80,4,1,0,95,0,1
170130,-100,4,1,0,95,0,1
170216,-80,4,1,0,95,0,1
170647,-100,4,1,0,95,0,1
170734,-80,4,1,0,95,0,1
171337,-100,4,1,0,95,0,1
171596,-97.5609756097561,4,1,0,95,0,1
171682,-95.2380952380952,4,1,0,95,0,1
171854,-90.9090909090909,4,1,0,95,0,1
173665,-93.0232558139535,4,1,0,95,0,1
173751,-95.2380952380952,4,1,0,95,0,1
173837,-97.5609756097561,4,1,0,95,0,1
173923,-100,4,1,0,95,0,1
174354,-97.5609756097561,4,1,0,95,0,1
174441,-95.2380952380952,4,1,0,95,0,1
174613,-90.9090909090909,4,1,0,95,0,1
176423,-93.0232558139535,4,1,0,95,0,1
176509,-95.2380952380952,4,1,0,95,0,1
176596,-97.5609756097561,4,1,0,95,0,1
176682,-100,4,1,0,95,0,1
177113,-97.5609756097561,4,1,0,95,0,1
177199,-95.2380952380952,4,1,0,95,0,1
177372,-90.9090909090909,4,1,0,95,0,1
179182,-93.0232558139535,4,1,0,95,0,1
179268,-95.2380952380952,4,1,0,95,0,1
179354,-97.5609756097561,4,1,0,95,0,1
179441,-100,4,1,0,95,0,1
179872,-97.5609756097561,4,1,0,95,0,1
179958,-95.2380952380952,4,1,0,95,0,1
180130,-90.9090909090909,4,1,0,95,0,1
182027,-100,4,1,0,95,0,1
182630,-97.5609756097561,4,1,0,95,0,1
182716,-95.2380952380952,4,1,0,95,0,1
182889,-90.9090909090909,4,1,0,95,0,1
184699,-93.0232558139535,4,1,0,95,0,1
184785,-95.2380952380952,4,1,0,95,0,1
184872,-97.5609756097561,4,1,0,95,0,1
184958,-100,4,1,0,95,0,1
185389,-97.5609756097561,4,1,0,95,0,1
185475,-95.2380952380952,4,1,0,95,0,1
185647,-90.9090909090909,4,1,0,95,0,1
187458,-93.0232558139535,4,1,0,95,0,1
187544,-95.2380952380952,4,1,0,95,0,1
187630,-97.5609756097561,4,1,0,95,0,1
187716,-100,4,1,0,95,0,1
188147,-97.5609756097561,4,1,0,95,0,1
188234,-95.2380952380952,4,1,0,95,0,1
188406,-90.9090909090909,4,1,0,95,0,1
190216,-93.0232558139535,4,1,0,95,0,1
190303,-95.2380952380952,4,1,0,95,0,1
190389,-97.5609756097561,4,1,0,95,0,1
190475,-100,4,1,0,95,0,1
190906,-97.5609756097561,4,1,0,95,0,1
190992,-95.2380952380952,4,1,0,95,0,1
191165,-90.9090909090909,4,1,0,95,0,1
192659,-93.0232558139535,4,1,0,95,0,1
192889,-95.2380952380952,4,1,0,95,0,1
193119,-100,4,1,0,95,0,1
193665,-97.5609756097561,4,1,0,95,0,1
193751,-95.2380952380952,4,1,0,95,0,1
193923,-90.9090909090909,4,1,0,95,0,1
195734,-93.0232558139535,4,1,0,95,0,1
195820,-95.2380952380952,4,1,0,95,0,1
195906,-97.5609756097561,4,1,0,95,0,1
195992,-100,4,1,0,95,0,1
196423,-97.5609756097561,4,1,0,95,0,1
196509,-95.2380952380952,4,1,0,95,0,1
196682,-90.9090909090909,4,1,0,95,0,1
198492,-93.0232558139535,4,1,0,95,0,1
198578,-95.2380952380952,4,1,0,95,0,1
198665,-97.5609756097561,4,1,0,95,0,1
198751,-100,4,1,0,95,0,1
199182,-97.5609756097561,4,1,0,95,0,1
199268,-95.2380952380952,4,1,0,95,0,1
199441,-90.9090909090909,4,1,0,95,0,1
201251,-93.0232558139535,4,1,0,95,0,1
201337,-95.2380952380952,4,1,0,95,0,1
201423,-97.5609756097561,4,1,0,95,0,1
201509,-100,4,1,0,95,0,1
204269,-100,4,1,0,95,0,0
204700,-95.2380952380952,4,1,0,95,0,0
204959,-90.9090909090909,4,1,0,95,0,0
206856,-100,4,1,0,95,0,0
207459,-95.2380952380952,4,1,0,95,0,0
207718,-90.9090909090909,4,1,0,95,0,0
209614,-100,4,1,0,95,0,0
210218,-95.2380952380952,4,1,0,95,0,0
210476,-90.9090909090909,4,1,0,95,0,0
212459,-100,4,1,0,95,0,0
212976,-95.2380952380952,4,1,0,95,0,0
213235,-90.9090909090909,4,1,0,95,0,0
214097,-93.0232558139535,4,1,0,95,0,0
214442,-95.2380952380952,4,1,0,95,0,0
214787,-97.5609756097561,4,1,0,95,0,0
215045,-97.799511002445,4,1,0,95,0,0
215218,-99.009900990099,4,1,0,95,0,0
215304,-100,4,1,0,95,0,0
215735,-95.2380952380952,4,1,0,95,0,0
215994,-90.9090909090909,4,1,0,95,0,0
217890,-100,4,1,0,95,0,0
218494,-95.2380952380952,4,1,0,95,0,0
218752,-90.9090909090909,4,1,0,95,0,0
220649,-100,4,1,0,95,0,0
221252,-95.2380952380952,4,1,0,95,0,0
221511,-90.9090909090909,4,1,0,95,0,0
225132,-93.0232558139535,4,1,0,95,0,0
225476,-95.2380952380952,4,1,0,95,0,0
225821,-97.5609756097561,4,1,0,95,0,0
226166,-100,4,1,0,25,0,0

[HitObjects]
256,192,132,5,8,0:0:0:0:
256,192,476,1,8,0:0:0:0:
256,192,821,1,0,0:0:0:0:
256,192,1166,1,0,0:0:0:0:
256,192,1511,1,8,0:0:0:0:
256,192,1856,1,0,0:0:0:0:
256,192,2200,1,8,0:0:0:0:
256,192,2545,1,0,0:0:0:0:
256,192,2890,1,8,0:0:0:0:
256,192,3235,1,8,0:0:0:0:
256,192,3580,1,0,0:0:0:0:
256,192,3925,1,0,0:0:0:0:
256,192,4269,1,8,0:0:0:0:
256,192,4614,1,0,0:0:0:0:
256,192,4959,1,8,0:0:0:0:
256,192,5304,1,0,0:0:0:0:
256,192,5649,1,8,0:0:0:0:
256,192,5994,1,8,0:0:0:0:
256,192,6338,1,0,0:0:0:0:
256,192,6683,1,0,0:0:0:0:
256,192,7028,1,8,0:0:0:0:
256,192,7373,1,0,0:0:0:0:
256,192,7718,1,8,0:0:0:0:
256,192,8063,1,0,0:0:0:0:
256,192,8407,1,8,0:0:0:0:
256,192,8752,1,8,0:0:0:0:
256,192,9097,1,0,0:0:0:0:
256,192,9442,1,8,0:0:0:0:
256,192,9787,1,8,0:0:0:0:
256,192,10132,1,0,0:0:0:0:
256,192,10476,1,8,0:0:0:0:
256,192,10821,1,8,0:0:0:0:
256,192,11166,1,4,0:0:0:0:
256,192,11511,1,8,0:0:0:0:
256,192,11856,1,0,0:0:0:0:
256,192,12200,1,0,0:0:0:0:
256,192,12545,1,8,0:0:0:0:
256,192,12890,1,0,0:0:0:0:
256,192,13235,1,8,0:0:0:0:
256,192,13580,1,0,0:0:0:0:
256,192,13925,1,8,0:0:0:0:
256,192,14269,1,8,0:0:0:0:
256,192,14614,1,0,0:0:0:0:
256,192,14959,1,0,0:0:0:0:
256,192,15304,1,8,0:0:0:0:
256,192,15649,1,0,0:0:0:0:
256,192,15994,1,8,0:0:0:0:
256,192,16338,1,0,0:0:0:0:
256,192,16683,1,8,0:0:0:0:
256,192,17028,1,8,0:0:0:0:
256,192,17373,1,0,0:0:0:0:
256,192,17718,1,0,0:0:0:0:
256,192,18063,1,8,0:0:0:0:
256,192,18407,1,0,0:0:0:0:
256,192,18752,1,8,0:0:0:0:
256,192,19097,1,0,0:0:0:0:
256,192,19442,1,8,0:0:0:0:
256,192,19787,1,8,0:0:0:0:
256,192,20132,1,0,0:0:0:0:
256,192,20476,1,8,0:0:0:0:
256,192,20821,1,8,0:0:0:0:
256,192,21166,1,0,0:0:0:0:
256,192,21511,1,8,0:0:0:0:
256,192,21683,1,0,0:0:0:0:
256,192,21856,1,0,0:0:0:0:
256,192,22200,1,4,0:0:0:0:
256,192,22890,1,8,0:0:0:0:
256,192,23925,1,0,0:0:0:0:
256,192,24269,1,8,0:0:0:0:
256,192,24442,1,0,0:0:0:0:
256,192,24959,1,4,0:0:0:0:
256,192,25649,1,8,0:0:0:0:
256,192,26683,1,0,0:0:0:0:
256,192,27028,1,8,0:0:0:0:
256,192,27200,1,0,0:0:0:0:
256,192,27545,1,8,0:0:0:0:
256,192,27718,1,4,0:0:0:0:
256,192,28407,1,8,0:0:0:0:
256,192,29442,1,0,0:0:0:0:
256,192,29787,1,8,0:0:0:0:
256,192,29959,1,0,0:0:0:0:
256,192,30476,1,4,0:0:0:0:
256,192,31166,1,8,0:0:0:0:
256,192,31856,1,8,0:0:0:0:
256,192,32200,1,0,0:0:0:0:
256,192,32545,1,8,0:0:0:0:
256,192,32718,1,0,0:0:0:0:
256,192,32890,1,0,0:0:0:0:
256,192,33063,1,8,0:0:0:0:
256,192,33235,1,4,0:0:0:0:
256,192,33925,1,8,0:0:0:0:
256,192,34959,1,0,0:0:0:0:
256,192,35304,1,8,0:0:0:0:
256,192,35476,1,0,0:0:0:0:
256,192,35994,1,4,0:0:0:0:
256,192,36683,1,8,0:0:0:0:
256,192,37718,1,0,0:0:0:0:
256,192,38063,1,8,0:0:0:0:
256,192,38235,1,0,0:0:0:0:
256,192,38580,1,8,0:0:0:0:
256,192,38752,1,4,0:0:0:0:
256,192,39442,1,8,0:0:0:0:
256,192,40476,1,0,0:0:0:0:
256,192,40821,1,8,0:0:0:0:
256,192,40994,1,0,0:0:0:0:
256,192,41511,1,4,0:0:0:0:
256,192,42200,1,8,0:0:0:0:
256,192,42890,1,8,0:0:0:0:
256,192,43235,1,0,0:0:0:0:
256,192,43580,1,8,0:0:0:0:
256,192,43752,1,0,0:0:0:0:
256,192,44097,1,8,0:0:0:0:
256,192,44269,1,4,0:0:0:0:
256,192,44959,1,8,0:0:0:0:
256,192,45649,1,8,0:0:0:0:
256,192,46338,1,8,0:0:0:0:
256,192,47028,1,8,0:0:0:0:
256,192,47718,1,8,0:0:0:0:
256,192,48407,1,8,0:0:0:0:
256,192,49097,1,8,0:0:0:0:
256,192,49787,1,0,0:0:0:0:
256,192,50132,1,0,0:0:0:0:
256,192,50476,1,0,0:0:0:0:
256,192,50821,1,0,0:0:0:0:
256,192,51166,1,0,0:0:0:0:
256,192,51511,1,0,0:0:0:0:
256,192,51856,1,0,0:0:0:0:
256,192,52200,1,0,0:0:0:0:
256,192,52545,1,0,0:0:0:0:
256,192,52718,1,0,0:0:0:0:
256,192,52890,1,0,0:0:0:0:
256,192,53063,1,0,0:0:0:0:
256,192,53235,1,0,0:0:0:0:
256,192,53407,1,0,0:0:0:0:
256,192,53580,1,0,0:0:0:0:
256,192,53752,1,0,0:0:0:0:
256,192,53925,1,0,0:0:0:0:
256,192,54097,1,0,0:0:0:0:
256,192,54269,1,0,0:0:0:0:
256,192,54442,1,0,0:0:0:0:
256,192,54614,1,0,0:0:0:0:
256,192,54700,1,0,0:0:0:0:
256,192,54787,1,0,0:0:0:0:
256,192,54873,1,0,0:0:0:0:
256,192,54959,1,0,0:0:0:0:
256,192,55045,1,0,0:0:0:0:
256,192,55132,1,0,0:0:0:0:
256,192,55218,1,0,0:0:0:0:
256,192,55304,2,0,L|256:160,96,17.5
256,192,60821,5,4,0:0:0:0:
256,192,61166,1,8,0:0:0:0:
256,192,61338,1,0,0:0:0:0:
256,192,61511,1,8,0:0:0:0:
256,192,61554,1,8,0:0:0:0:
256,192,61683,1,8,0:0:0:0:
256,192,61726,1,0,0:0:0:0:
256,192,61856,1,0,0:0:0:0:
256,192,61899,1,0,0:0:0:0:
256,192,62028,1,0,0:0:0:0:
256,192,62071,1,0,0:0:0:0:
256,192,62200,1,0,0:0:0:0:
256,192,62244,1,0,0:0:0:0:
256,192,62373,1,8,0:0:0:0:
256,192,62416,1,8,0:0:0:0:
256,192,62545,1,8,0:0:0:0:
256,192,62588,1,0,0:0:0:0:
256,192,62718,1,0,0:0:0:0:
256,192,62761,1,0,0:0:0:0:
256,192,62890,1,8,0:0:0:0:
256,192,62933,1,8,0:0:0:0:
256,192,63063,1,8,0:0:0:0:
256,192,63106,1,0,0:0:0:0:
256,192,63235,1,8,0:0:0:0:
256,192,63407,1,8,0:0:0:0:
256,192,63580,1,0,0:0:0:0:
256,192,63925,1,8,0:0:0:0:
256,192,64097,1,0,0:0:0:0:
256,192,64269,1,8,0:0:0:0:
256,192,64313,1,8,0:0:0:0:
256,192,64442,1,8,0:0:0:0:
256,192,64485,1,0,0:0:0:0:
256,192,64614,1,0,0:0:0:0:
256,192,64657,1,0,0:0:0:0:
256,192,64787,1,0,0:0:0:0:
256,192,64830,1,0,0:0:0:0:
256,192,64959,1,0,0:0:0:0:
256,192,65002,1,0,0:0:0:0:
256,192,65132,1,0,0:0:0:0:
256,192,65175,1,8,0:0:0:0:
256,192,65304,1,0,0:0:0:0:
256,192,65347,1,0,0:0:0:0:
256,192,65476,1,0,0:0:0:0:
256,192,65519,1,0,0:0:0:0:
256,192,65649,1,0,0:0:0:0:
256,192,65692,1,8,0:0:0:0:
256,192,65821,1,0,0:0:0:0:
256,192,65864,1,8,0:0:0:0:
256,192,65994,1,8,0:0:0:0:
256,192,66166,1,0,0:0:0:0:
256,192,66338,1,0,0:0:0:0:
256,192,66683,1,8,0:0:0:0:
256,192,66856,1,0,0:0:0:0:
256,192,67028,1,8,0:0:0:0:
256,192,67071,1,8,0:0:0:0:
256,192,67200,1,8,0:0:0:0:
256,192,67244,1,0,0:0:0:0:
256,192,67373,1,0,0:0:0:0:
256,192,67416,1,0,0:0:0:0:
256,192,67545,1,0,0:0:0:0:
256,192,67588,1,0,0:0:0:0:
256,192,67718,1,0,0:0:0:0:
256,192,67761,1,0,0:0:0:0:
256,192,67890,1,8,0:0:0:0:
256,192,67933,1,8,0:0:0:0:
256,192,68063,1,8,0:0:0:0:
256,192,68106,1,0,0:0:0:0:
256,192,68235,1,0,0:0:0:0:
256,192,68278,1,0,0:0:0:0:
256,192,68407,1,8,0:0:0:0:
256,192,68450,1,8,0:0:0:0:
256,192,68580,1,8,0:0:0:0:
256,192,68623,1,0,0:0:0:0:
256,192,68752,1,8,0:0:0:0:
256,192,68925,1,8,0:0:0:0:
256,192,69097,1,0,0:0:0:0:
256,192,69442,1,8,0:0:0:0:
256,192,69614,1,0,0:0:0:0:
256,192,69787,1,8,0:0:0:0:
256,192,69830,1,8,0:0:0:0:
256,192,69959,1,8,0:0:0:0:
256,192,70002,1,0,0:0:0:0:
256,192,70132,1,0,0:0:0:0:
256,192,70175,1,0,0:0:0:0:
256,192,70304,1,0,0:0:0:0:
256,192,70347,1,0,0:0:0:0:
256,192,70476,1,12,0:0:0:0:
256,192,70821,1,0,0:0:0:0:
256,192,70994,1,12,0:0:0:0:
256,192,71338,1,0,0:0:0:0:
256,192,71511,1,12,0:0:0:0:
256,192,71856,1,12,0:0:0:0:
256,192,72200,1,8,0:0:0:0:
256,192,72287,1,8,0:0:0:0:
256,192,72373,1,0,0:0:0:0:
256,192,72545,1,8,0:0:0:0:
256,192,72588,1,8,0:0:0:0:
256,192,72718,1,8,0:0:0:0:
256,192,72761,1,0,0:0:0:0:
256,192,72890,1,0,0:0:0:0:
256,192,72933,1,0,0:0:0:0:
256,192,73063,1,0,0:0:0:0:
256,192,73106,1,0,0:0:0:0:
256,192,73235,1,0,0:0:0:0:
256,192,73278,1,0,0:0:0:0:
256,192,73407,1,8,0:0:0:0:
256,192,73450,1,8,0:0:0:0:
256,192,73580,1,8,0:0:0:0:
256,192,73623,1,0,0:0:0:0:
256,192,73752,1,0,0:0:0:0:
256,192,73795,1,0,0:0:0:0:
256,192,73925,1,8,0:0:0:0:
256,192,73968,1,8,0:0:0:0:
256,192,74097,1,8,0:0:0:0:
256,192,74140,1,0,0:0:0:0:
256,192,74269,1,8,0:0:0:0:
256,192,74356,1,8,0:0:0:0:
256,192,74442,1,0,0:0:0:0:
256,192,74528,1,8,0:0:0:0:
256,192,74614,1,0,0:0:0:0:
256,192,74959,1,8,0:0:0:0:
256,192,75045,1,8,0:0:0:0:
256,192,75132,1,0,0:0:0:0:
256,192,75304,1,8,0:0:0:0:
256,192,75347,1,8,0:0:0:0:
256,192,75476,1,8,0:0:0:0:
256,192,75519,1,0,0:0:0:0:
256,192,75649,1,0,0:0:0:0:
256,192,75692,1,0,0:0:0:0:
256,192,75821,1,0,0:0:0:0:
256,192,75864,1,0,0:0:0:0:
256,192,75994,1,0,0:0:0:0:
256,192,76037,1,0,0:0:0:0:
256,192,76166,1,0,0:0:0:0:
256,192,76209,1,8,0:0:0:0:
256,192,76338,1,0,0:0:0:0:
256,192,76382,1,0,0:0:0:0:
256,192,76511,1,0,0:0:0:0:
256,192,76554,1,0,0:0:0:0:
256,192,76683,1,0,0:0:0:0:
256,192,76726,1,8,0:0:0:0:
256,192,76856,1,0,0:0:0:0:
256,192,76899,1,8,0:0:0:0:
256,192,77028,1,8,0:0:0:0:
256,192,77114,1,0,0:0:0:0:
256,192,77200,1,0,0:0:0:0:
256,192,77287,1,8,0:0:0:0:
256,192,77373,1,0,0:0:0:0:
256,192,77718,1,8,0:0:0:0:
256,192,77804,1,8,0:0:0:0:
256,192,77890,1,0,0:0:0:0:
256,192,78063,1,8,0:0:0:0:
256,192,78106,1,8,0:0:0:0:
256,192,78235,1,8,0:0:0:0:
256,192,78278,1,0,0:0:0:0:
256,192,78407,1,0,0:0:0:0:
256,192,78450,1,0,0:0:0:0:
256,192,78580,1,0,0:0:0:0:
256,192,78623,1,0,0:0:0:0:
256,192,78752,1,0,0:0:0:0:
256,192,78795,1,0,0:0:0:0:
256,192,78925,1,8,0:0:0:0:
256,192,78968,1,8,0:0:0:0:
256,192,79097,1,8,0:0:0:0:
256,192,79140,1,0,0:0:0:0:
256,192,79269,1,0,0:0:0:0:
256,192,79313,1,0,0:0:0:0:
256,192,79442,1,8,0:0:0:0:
256,192,79485,1,8,0:0:0:0:
256,192,79614,1,8,0:0:0:0:
256,192,79657,1,0,0:0:0:0:
256,192,79787,1,8,0:0:0:0:
256,192,79873,1,8,0:0:0:0:
256,192,79959,1,0,0:0:0:0:
256,192,80045,1,8,0:0:0:0:
256,192,80132,1,0,0:0:0:0:
256,192,80476,1,8,0:0:0:0:
256,192,80563,1,8,0:0:0:0:
256,192,80649,1,0,0:0:0:0:
256,192,80821,1,8,0:0:0:0:
256,192,80864,1,8,0:0:0:0:
256,192,80994,1,8,0:0:0:0:
256,192,81037,1,0,0:0:0:0:
256,192,81166,1,0,0:0:0:0:
256,192,81209,1,0,0:0:0:0:
256,192,81338,1,0,0:0:0:0:
256,192,81382,1,0,0:0:0:0:
256,192,81511,1,8,0:0:0:0:
256,192,81769,1,0,0:0:0:0:
256,192,81856,1,8,0:0:0:0:
256,192,82028,1,0,0:0:0:0:
256,192,82373,1,8,0:0:0:0:
256,192,82545,1,8,0:0:0:0:
256,192,82890,1,4,0:0:0:0:
256,192,83063,1,0,0:0:0:0:
256,192,83235,1,8,0:0:0:0:
256,192,83321,1,8,0:0:0:0:
256,192,83407,1,8,0:0:0:0:
256,192,83580,1,0,0:0:0:0:
256,192,83666,1,0,0:0:0:0:
256,192,83752,1,0,0:0:0:0:
256,192,83925,1,0,0:0:0:0:
256,192,83968,1,0,0:0:0:0:
256,192,84097,1,0,0:0:0:0:
256,192,84140,1,0,0:0:0:0:
256,192,84269,1,0,0:0:0:0:
256,192,84313,1,0,0:0:0:0:
256,192,84442,1,8,0:0:0:0:
256,192,84485,1,8,0:0:0:0:
256,192,84614,1,8,0:0:0:0:
256,192,84657,1,0,0:0:0:0:
256,192,84787,1,0,0:0:0:0:
256,192,84830,1,0,0:0:0:0:
256,192,84959,1,8,0:0:0:0:
256,192,85002,1,8,0:0:0:0:
256,192,85132,1,8,0:0:0:0:
256,192,85175,1,0,0:0:0:0:
256,192,85304,1,8,0:0:0:0:
256,192,85390,1,8,0:0:0:0:
256,192,85476,1,0,0:0:0:0:
256,192,85563,1,8,0:0:0:0:
256,192,85649,1,0,0:0:0:0:
256,192,85821,1,0,0:0:0:0:
256,192,85994,1,8,0:0:0:0:
256,192,86080,1,8,0:0:0:0:
256,192,86166,1,8,0:0:0:0:
256,192,86338,1,0,0:0:0:0:
256,192,86382,1,0,0:0:0:0:
256,192,86511,1,0,0:0:0:0:
256,192,86554,1,0,0:0:0:0:
256,192,86683,1,0,0:0:0:0:
256,192,86726,1,0,0:0:0:0:
256,192,86856,1,0,0:0:0:0:
256,192,86899,1,0,0:0:0:0:
256,192,87028,1,0,0:0:0:0:
256,192,87071,1,0,0:0:0:0:
256,192,87200,1,0,0:0:0:0:
256,192,87244,1,8,0:0:0:0:
256,192,87373,1,0,0:0:0:0:
256,192,87416,1,0,0:0:0:0:
256,192,87545,1,0,0:0:0:0:
256,192,87588,1,0,0:0:0:0:
256,192,87718,1,0,0:0:0:0:
256,192,87761,1,8,0:0:0:0:
256,192,87890,1,0,0:0:0:0:
256,192,87933,1,8,0:0:0:0:
256,192,88063,1,8,0:0:0:0:
256,192,88149,1,0,0:0:0:0:
256,192,88235,1,0,0:0:0:0:
256,192,88321,1,8,0:0:0:0:
256,192,88407,1,0,0:0:0:0:
256,192,88580,1,0,0:0:0:0:
256,192,88752,1,8,0:0:0:0:
256,192,88838,1,8,0:0:0:0:
256,192,88925,1,8,0:0:0:0:
256,192,89097,1,0,0:0:0:0:
256,192,89183,1,0,0:0:0:0:
256,192,89269,1,0,0:0:0:0:
256,192,89442,1,0,0:0:0:0:
256,192,89485,1,0,0:0:0:0:
256,192,89614,1,0,0:0:0:0:
256,192,89657,1,0,0:0:0:0:
256,192,89787,1,0,0:0:0:0:
256,192,89830,1,0,0:0:0:0:
256,192,89959,1,8,0:0:0:0:
256,192,90002,1,8,0:0:0:0:
256,192,90132,1,8,0:0:0:0:
256,192,90175,1,0,0:0:0:0:
256,192,90304,1,0,0:0:0:0:
256,192,90347,1,0,0:0:0:0:
256,192,90476,1,8,0:0:0:0:
256,192,90519,1,8,0:0:0:0:
256,192,90649,1,8,0:0:0:0:
256,192,90692,1,0,0:0:0:0:
256,192,90821,1,8,0:0:0:0:
256,192,90907,1,8,0:0:0:0:
256,192,90994,1,0,0:0:0:0:
256,192,91080,1,8,0:0:0:0:
256,192,91166,1,0,0:0:0:0:
256,192,91338,1,0,0:0:0:0:
256,192,91511,1,8,0:0:0:0:
256,192,91597,1,8,0:0:0:0:
256,192,91683,1,8,0:0:0:0:
256,192,91856,1,0,0:0:0:0:
256,192,91899,1,0,0:0:0:0:
256,192,92028,1,0,0:0:0:0:
256,192,92071,1,0,0:0:0:0:
256,192,92200,1,0,0:0:0:0:
256,192,92244,1,0,0:0:0:0:
256,192,92373,1,0,0:0:0:0:
256,192,92416,1,0,0:0:0:0:
256,192,92545,1,8,0:0:0:0:
256,192,92890,1,8,0:0:0:0:
256,192,93063,1,0,0:0:0:0:
256,192,93235,1,8,0:0:0:0:
256,192,93465,1,8,0:0:0:0:
256,192,93695,1,8,0:0:0:0:
256,192,93925,1,4,0:0:0:0:
256,192,94097,1,0,0:0:0:0:
256,192,94269,1,8,0:0:0:0:
256,192,94356,1,8,0:0:0:0:
256,192,94442,1,8,0:0:0:0:
256,192,94614,1,8,0:0:0:0:
256,192,94657,1,0,0:0:0:0:
256,192,94787,1,8,0:0:0:0:
256,192,94830,1,8,0:0:0:0:
256,192,94959,1,0,0:0:0:0:
256,192,95002,1,0,0:0:0:0:
256,192,95132,1,0,0:0:0:0:
256,192,95175,1,0,0:0:0:0:
256,192,95304,1,0,0:0:0:0:
256,192,95347,1,0,0:0:0:0:
256,192,95476,1,8,0:0:0:0:
256,192,95519,1,0,0:0:0:0:
256,192,95649,1,8,0:0:0:0:
256,192,95692,1,8,0:0:0:0:
256,192,95821,1,0,0:0:0:0:
256,192,95864,1,0,0:0:0:0:
256,192,95994,1,0,0:0:0:0:
256,192,96037,1,0,0:0:0:0:
256,192,96166,1,8,0:0:0:0:
256,192,96209,1,0,0:0:0:0:
256,192,96338,1,8,0:0:0:0:
256,192,96425,1,8,0:0:0:0:
256,192,96511,1,0,0:0:0:0:
256,192,96597,1,8,0:0:0:0:
256,192,96683,1,0,0:0:0:0:
256,192,96856,1,0,0:0:0:0:
256,192,97028,1,8,0:0:0:0:
256,192,97114,1,8,0:0:0:0:
256,192,97200,1,8,0:0:0:0:
256,192,97373,1,8,0:0:0:0:
256,192,97416,1,0,0:0:0:0:
256,192,97545,1,8,0:0:0:0:
256,192,97588,1,8,0:0:0:0:
256,192,97718,1,0,0:0:0:0:
256,192,97761,1,0,0:0:0:0:
256,192,97890,1,0,0:0:0:0:
256,192,97933,1,0,0:0:0:0:
256,192,98063,1,0,0:0:0:0:
256,192,98106,1,0,0:0:0:0:
256,192,98235,1,8,0:0:0:0:
256,192,98278,1,0,0:0:0:0:
256,192,98407,1,8,0:0:0:0:
256,192,98450,1,8,0:0:0:0:
256,192,98580,1,0,0:0:0:0:
256,192,98623,1,0,0:0:0:0:
256,192,98752,1,8,0:0:0:0:
256,192,98810,1,0,0:0:0:0:
256,192,98867,1,0,0:0:0:0:
256,192,98925,1,8,0:0:0:0:
256,192,99097,1,8,0:0:0:0:
256,192,99183,1,0,0:0:0:0:
256,192,99269,1,8,0:0:0:0:
256,192,99356,1,8,0:0:0:0:
256,192,99442,1,0,0:0:0:0:
256,192,99614,1,0,0:0:0:0:
256,192,99787,1,8,0:0:0:0:
256,192,99873,1,8,0:0:0:0:
256,192,99959,1,8,0:0:0:0:
256,192,100132,1,8,0:0:0:0:
256,192,100175,1,0,0:0:0:0:
256,192,100304,1,8,0:0:0:0:
256,192,100347,1,8,0:0:0:0:
256,192,100476,1,0,0:0:0:0:
256,192,100519,1,0,0:0:0:0:
256,192,100649,1,0,0:0:0:0:
256,192,100692,1,0,0:0:0:0:
256,192,100821,1,0,0:0:0:0:
256,192,100864,1,0,0:0:0:0:
256,192,100994,1,8,0:0:0:0:
256,192,101037,1,0,0:0:0:0:
256,192,101166,1,8,0:0:0:0:
256,192,101209,1,8,0:0:0:0:
256,192,101338,1,0,0:0:0:0:
256,192,101382,1,0,0:0:0:0:
256,192,101511,1,0,0:0:0:0:
256,192,101554,1,0,0:0:0:0:
256,192,101683,1,8,0:0:0:0:
256,192,101726,1,0,0:0:0:0:
256,192,101856,1,8,0:0:0:0:
256,192,101942,1,0,0:0:0:0:
256,192,102028,1,0,0:0:0:0:
256,192,102114,1,8,0:0:0:0:
256,192,102200,1,0,0:0:0:0:
256,192,102545,1,8,0:0:0:0:
256,192,103063,1,0,0:0:0:0:
256,192,103235,1,8,0:0:0:0:
256,192,103580,1,8,0:0:0:0:
256,192,103666,1,8,0:0:0:0:
256,192,103752,1,0,0:0:0:0:
256,192,103838,1,0,0:0:0:0:
256,192,103925,1,8,0:0:0:0:
256,192,104011,1,0,0:0:0:0:
256,192,104097,1,8,0:0:0:0:
256,192,104183,1,8,0:0:0:0:
256,192,104269,1,0,0:0:0:0:
256,192,104356,1,0,0:0:0:0:
256,192,104442,1,0,0:0:0:0:
256,192,104528,1,0,0:0:0:0:
256,192,104614,1,8,0:0:0:0:
256,192,104959,12,0,112890,0:0:0:0:
256,192,113235,5,8,0:0:0:0:
256,192,113925,1,0,0:0:0:0:
256,192,114614,1,8,0:0:0:0:
256,192,115304,1,8,0:0:0:0:
256,192,115994,1,8,0:0:0:0:
256,192,116683,1,0,0:0:0:0:
256,192,117373,1,0,0:0:0:0:
256,192,118063,1,0,0:0:0:0:
256,192,118752,1,8,0:0:0:0:
256,192,119442,1,0,0:0:0:0:
256,192,120132,1,0,0:0:0:0:
256,192,120821,1,8,0:0:0:0:
256,192,121511,1,8,0:0:0:0:
256,192,122200,1,0,0:0:0:0:
256,192,122890,1,0,0:0:0:0:
256,192,123580,1,0,0:0:0:0:
256,192,124269,1,8,0:0:0:0:
256,192,124959,1,0,0:0:0:0:
256,192,125649,1,8,0:0:0:0:
256,192,126166,1,0,0:0:0:0:
256,192,126252,1,0,0:0:0:0:
256,192,126338,1,8,0:0:0:0:
256,192,126511,1,0,0:0:0:0:
256,192,126683,1,8,0:0:0:0:
256,192,127028,1,4,0:0:0:0:
256,192,127718,1,8,0:0:0:0:
256,192,127890,1,0,0:0:0:0:
256,192,128063,1,0,0:0:0:0:
256,192,128925,1,0,0:0:0:0:
256,192,129097,1,8,0:0:0:0:
256,192,129442,1,8,0:0:0:0:
256,192,129614,1,8,0:0:0:0:
256,192,129787,1,4,0:0:0:0:
256,192,130304,1,0,0:0:0:0:
256,192,130476,1,8,0:0:0:0:
256,192,130821,1,8,0:0:0:0:
256,192,131683,1,0,0:0:0:0:
256,192,131856,1,8,0:0:0:0:
256,192,132200,1,0,0:0:0:0:
256,192,132545,1,4,0:0:0:0:
256,192,133235,1,8,0:0:0:0:
256,192,133407,1,0,0:0:0:0:
256,192,133580,1,0,0:0:0:0:
256,192,134442,1,0,0:0:0:0:
256,192,134614,1,8,0:0:0:0:
256,192,135304,1,4,0:0:0:0:
256,192,135821,1,0,0:0:0:0:
256,192,135994,1,8,0:0:0:0:
256,192,136338,1,0,0:0:0:0:
256,192,136511,1,8,0:0:0:0:
256,192,136683,1,8,0:0:0:0:
256,192,137028,1,0,0:0:0:0:
256,192,137200,1,0,0:0:0:0:
256,192,137373,1,8,0:0:0:0:
256,192,137718,1,0,0:0:0:0:
256,192,138063,1,4,0:0:0:0:
256,192,138752,1,8,0:0:0:0:
256,192,138925,1,0,0:0:0:0:
256,192,139097,1,0,0:0:0:0:
256,192,139959,1,0,0:0:0:0:
256,192,140132,1,8,0:0:0:0:
256,192,140476,1,8,0:0:0:0:
256,192,140649,5,8,0:0:0:0:
256,192,140821,1,4,0:0:0:0:
256,192,141338,1,0,0:0:0:0:
256,192,141511,1,8,0:0:0:0:
256,192,141856,1,8,0:0:0:0:
256,192,142718,1,0,0:0:0:0:
256,192,142890,1,8,0:0:0:0:
256,192,143235,1,0,0:0:0:0:
256,192,143580,1,4,0:0:0:0:
256,192,144269,1,8,0:0:0:0:
256,192,144442,1,0,0:0:0:0:
256,192,144614,1,0,0:0:0:0:
256,192,145476,1,0,0:0:0:0:
256,192,145649,1,8,0:0:0:0:
256,192,146338,1,4,0:0:0:0:
256,192,146856,1,0,0:0:0:0:
256,192,147028,1,8,0:0:0:0:
256,192,147373,1,8,0:0:0:0:
256,192,147545,1,0,0:0:0:0:
256,192,147718,1,8,0:0:0:0:
256,192,148235,1,0,0:0:0:0:
256,192,148321,1,0,0:0:0:0:
256,192,148407,1,8,0:0:0:0:
256,192,148580,1,0,0:0:0:0:
256,192,149097,1,4,0:0:0:0:
256,192,149356,1,0,0:0:0:0:
256,192,149442,1,0,0:0:0:0:
256,192,149614,1,0,0:0:0:0:
256,192,149959,1,0,0:0:0:0:
256,192,150304,1,0,0:0:0:0:
256,192,150476,1,8,0:0:0:0:
256,192,150735,1,0,0:0:0:0:
256,192,150821,1,0,0:0:0:0:
256,192,150994,1,0,0:0:0:0:
256,192,151338,5,0,0:0:0:0:
256,192,151511,1,0,0:0:0:0:
256,192,151597,1,0,0:0:0:0:
256,192,151683,1,0,0:0:0:0:
256,192,151856,1,8,0:0:0:0:
256,192,152114,1,0,0:0:0:0:
256,192,152200,1,0,0:0:0:0:
256,192,152373,1,0,0:0:0:0:
256,192,152718,1,0,0:0:0:0:
256,192,153063,1,0,0:0:0:0:
256,192,153235,1,8,0:0:0:0:
256,192,153494,1,0,0:0:0:0:
256,192,153580,1,0,0:0:0:0:
256,192,153752,1,0,0:0:0:0:
256,192,153925,1,8,0:0:0:0:
256,192,154097,1,0,0:0:0:0:
256,192,154614,1,0,0:0:0:0:
256,192,154873,1,8,0:0:0:0:
256,192,154959,1,0,0:0:0:0:
256,192,155132,1,8,0:0:0:0:
256,192,155304,1,0,0:0:0:0:
256,192,155476,1,8,0:0:0:0:
256,192,155649,1,0,0:0:0:0:
256,192,155994,1,0,0:0:0:0:
256,192,156252,1,8,0:0:0:0:
256,192,156338,1,0,0:0:0:0:
256,192,156511,1,8,0:0:0:0:
256,192,156683,1,0,0:0:0:0:
256,192,156856,1,8,0:0:0:0:
256,192,157028,1,0,0:0:0:0:
256,192,157373,1,0,0:0:0:0:
256,192,157545,1,0,0:0:0:0:
256,192,157718,1,8,0:0:0:0:
256,192,157890,1,0,0:0:0:0:
256,192,158063,1,0,0:0:0:0:
256,192,158235,1,8,0:0:0:0:
256,192,158407,1,0,0:0:0:0:
256,192,158580,1,8,0:0:0:0:
256,192,158752,1,8,0:0:0:0:
256,192,158925,1,0,0:0:0:0:
256,192,159097,1,8,0:0:0:0:
256,192,159269,1,0,0:0:0:0:
256,192,159442,1,0,0:0:0:0:
256,192,159528,1,0,0:0:0:0:
256,192,159614,1,8,0:0:0:0:
256,192,159700,1,8,0:0:0:0:
256,192,159787,1,8,0:0:0:0:
256,192,159873,1,8,0:0:0:0:
256,192,159959,1,8,0:0:0:0:
256,192,160045,1,8,0:0:0:0:
256,192,160132,1,4,0:0:0:0:
256,192,160476,1,8,0:0:0:0:
256,192,160649,1,0,0:0:0:0:
256,192,160821,1,8,0:0:0:0:
256,192,160864,1,8,0:0:0:0:
256,192,160994,1,8,0:0:0:0:
256,192,161037,1,0,0:0:0:0:
256,192,161166,1,0,0:0:0:0:
256,192,161209,1,0,0:0:0:0:
256,192,161338,1,0,0:0:0:0:
256,192,161382,1,0,0:0:0:0:
256,192,161511,1,0,0:0:0:0:
256,192,161554,1,0,0:0:0:0:
256,192,161683,1,8,0:0:0:0:
256,192,161726,1,8,0:0:0:0:
256,192,161856,1,8,0:0:0:0:
256,192,161899,1,0,0:0:0:0:
256,192,162028,1,0,0:0:0:0:
256,192,162071,1,0,0:0:0:0:
256,192,162200,1,8,0:0:0:0:
256,192,162244,1,8,0:0:0:0:
256,192,162373,1,8,0:0:0:0:
256,192,162416,1,0,0:0:0:0:
256,192,162545,1,8,0:0:0:0:
256,192,162718,1,8,0:0:0:0:
256,192,162890,1,0,0:0:0:0:
256,192,163235,1,8,0:0:0:0:
256,192,163407,1,0,0:0:0:0:
256,192,163580,1,8,0:0:0:0:
256,192,163623,1,8,0:0:0:0:
256,192,163752,1,8,0:0:0:0:
256,192,163795,1,0,0:0:0:0:
256,192,163925,1,0,0:0:0:0:
256,192,163968,1,0,0:0:0:0:
256,192,164097,1,0,0:0:0:0:
256,192,164140,1,0,0:0:0:0:
256,192,164269,1,0,0:0:0:0:
256,192,164313,1,0,0:0:0:0:
256,192,164442,1,0,0:0:0:0:
256,192,164485,1,8,0:0:0:0:
256,192,164614,1,0,0:0:0:0:
256,192,164657,1,0,0:0:0:0:
256,192,164787,1,0,0:0:0:0:
256,192,164830,1,0,0:0:0:0:
256,192,164959,1,0,0:0:0:0:
256,192,165002,1,8,0:0:0:0:
256,192,165132,1,0,0:0:0:0:
256,192,165175,1,8,0:0:0:0:
256,192,165304,1,8,0:0:0:0:
256,192,165476,1,0,0:0:0:0:
256,192,165649,1,0,0:0:0:0:
256,192,165994,1,8,0:0:0:0:
256,192,166166,1,0,0:0:0:0:
256,192,166338,1,8,0:0:0:0:
256,192,166382,1,8,0:0:0:0:
256,192,166511,1,8,0:0:0:0:
256,192,166554,1,0,0:0:0:0:
256,192,166683,1,0,0:0:0:0:
256,192,166726,1,0,0:0:0:0:
256,192,166856,1,0,0:0:0:0:
256,192,166899,1,0,0:0:0:0:
256,192,167028,1,0,0:0:0:0:
256,192,167071,1,0,0:0:0:0:
256,192,167200,1,8,0:0:0:0:
256,192,167244,1,8,0:0:0:0:
256,192,167373,1,8,0:0:0:0:
256,192,167416,1,0,0:0:0:0:
256,192,167545,1,0,0:0:0:0:
256,192,167588,1,0,0:0:0:0:
256,192,167718,1,8,0:0:0:0:
256,192,167761,1,8,0:0:0:0:
256,192,167890,1,8,0:0:0:0:
256,192,167933,1,0,0:0:0:0:
256,192,168063,1,8,0:0:0:0:
256,192,168235,1,8,0:0:0:0:
256,192,168407,1,0,0:0:0:0:
256,192,168752,1,8,0:0:0:0:
256,192,168925,1,0,0:0:0:0:
256,192,169097,1,8,0:0:0:0:
256,192,169140,1,8,0:0:0:0:
256,192,169269,1,8,0:0:0:0:
256,192,169313,1,0,0:0:0:0:
256,192,169442,1,0,0:0:0:0:
256,192,169485,1,0,0:0:0:0:
256,192,169614,1,0,0:0:0:0:
256,192,169657,1,0,0:0:0:0:
256,192,169787,1,12,0:0:0:0:
256,192,170132,1,0,0:0:0:0:
256,192,170304,1,12,0:0:0:0:
256,192,170649,1,0,0:0:0:0:
256,192,170821,1,12,0:0:0:0:
256,192,171166,1,12,0:0:0:0:
256,192,171511,1,8,0:0:0:0:
256,192,171597,1,8,0:0:0:0:
256,192,171683,1,0,0:0:0:0:
256,192,171856,1,8,0:0:0:0:
256,192,171899,1,8,0:0:0:0:
256,192,172028,1,8,0:0:0:0:
256,192,172071,1,0,0:0:0:0:
256,192,172200,1,0,0:0:0:0:
256,192,172244,1,0,0:0:0:0:
256,192,172373,1,0,0:0:0:0:
256,192,172416,1,0,0:0:0:0:
256,192,172545,1,0,0:0:0:0:
256,192,172588,1,0,0:0:0:0:
256,192,172718,1,8,0:0:0:0:
256,192,172761,1,8,0:0:0:0:
256,192,172890,1,8,0:0:0:0:
256,192,172933,1,0,0:0:0:0:
256,192,173063,1,0,0:0:0:0:
256,192,173106,1,0,0:0:0:0:
256,192,173235,1,8,0:0:0:0:
256,192,173278,1,8,0:0:0:0:
256,192,173407,1,8,0:0:0:0:
256,192,173450,1,0,0:0:0:0:
256,192,173580,1,8,0:0:0:0:
256,192,173666,1,8,0:0:0:0:
256,192,173752,1,0,0:0:0:0:
256,192,173838,1,8,0:0:0:0:
256,192,173925,1,0,0:0:0:0:
256,192,174269,1,8,0:0:0:0:
256,192,174356,1,8,0:0:0:0:
256,192,174442,1,0,0:0:0:0:
256,192,174614,1,8,0:0:0:0:
256,192,174657,1,8,0:0:0:0:
256,192,174787,1,8,0:0:0:0:
256,192,174830,1,0,0:0:0:0:
256,192,174959,1,0,0:0:0:0:
256,192,175002,1,0,0:0:0:0:
256,192,175132,1,0,0:0:0:0:
256,192,175175,1,0,0:0:0:0:
256,192,175304,1,0,0:0:0:0:
256,192,175347,1,0,0:0:0:0:
256,192,175476,1,0,0:0:0:0:
256,192,175519,1,8,0:0:0:0:
256,192,175649,1,0,0:0:0:0:
256,192,175692,1,0,0:0:0:0:
256,192,175821,1,0,0:0:0:0:
256,192,175864,1,0,0:0:0:0:
256,192,175994,1,0,0:0:0:0:
256,192,176037,1,8,0:0:0:0:
256,192,176166,1,0,0:0:0:0:
256,192,176209,1,8,0:0:0:0:
256,192,176338,1,8,0:0:0:0:
256,192,176425,1,0,0:0:0:0:
256,192,176511,1,0,0:0:0:0:
256,192,176597,1,8,0:0:0:0:
256,192,176683,1,0,0:0:0:0:
256,192,177028,1,8,0:0:0:0:
256,192,177114,1,8,0:0:0:0:
256,192,177200,1,0,0:0:0:0:
256,192,177373,1,8,0:0:0:0:
256,192,177416,1,8,0:0:0:0:
256,192,177545,1,8,0:0:0:0:
256,192,177588,1,0,0:0:0:0:
256,192,177718,1,0,0:0:0:0:
256,192,177761,1,0,0:0:0:0:
256,192,177890,1,0,0:0:0:0:
256,192,177933,1,0,0:0:0:0:
256,192,178063,1,0,0:0:0:0:
256,192,178106,1,0,0:0:0:0:
256,192,178235,1,8,0:0:0:0:
256,192,178278,1,8,0:0:0:0:
256,192,178407,1,8,0:0:0:0:
256,192,178450,1,0,0:0:0:0:
256,192,178580,1,0,0:0:0:0:
256,192,178623,1,0,0:0:0:0:
256,192,178752,1,8,0:0:0:0:
256,192,178795,1,8,0:0:0:0:
256,192,178925,1,8,0:0:0:0:
256,192,178968,1,0,0:0:0:0:
256,192,179097,1,8,0:0:0:0:
256,192,179183,1,8,0:0:0:0:
256,192,179269,1,0,0:0:0:0:
256,192,179356,1,8,0:0:0:0:
256,192,179442,1,0,0:0:0:0:
256,192,179787,1,8,0:0:0:0:
256,192,179873,1,8,0:0:0:0:
256,192,179959,1,0,0:0:0:0:
256,192,180132,1,8,0:0:0:0:
256,192,180175,1,8,0:0:0:0:
256,192,180304,1,8,0:0:0:0:
256,192,180347,1,0,0:0:0:0:
256,192,180476,1,0,0:0:0:0:
256,192,180519,1,0,0:0:0:0:
256,192,180649,1,0,0:0:0:0:
256,192,180692,1,0,0:0:0:0:
256,192,180821,1,8,0:0:0:0:
256,192,181080,1,0,0:0:0:0:
256,192,181166,1,8,0:0:0:0:
256,192,181338,1,0,0:0:0:0:
256,192,181683,1,8,0:0:0:0:
256,192,181856,1,8,0:0:0:0:
256,192,182200,1,4,0:0:0:0:
256,192,182373,1,0,0:0:0:0:
256,192,182545,1,8,0:0:0:0:
256,192,182632,1,8,0:0:0:0:
256,192,182718,1,8,0:0:0:0:
256,192,182890,1,0,0:0:0:0:
256,192,182976,1,0,0:0:0:0:
256,192,183063,1,0,0:0:0:0:
256,192,183235,1,0,0:0:0:0:
256,192,183278,1,0,0:0:0:0:
256,192,183407,1,0,0:0:0:0:
256,192,183450,1,0,0:0:0:0:
256,192,183580,1,0,0:0:0:0:
256,192,183623,1,0,0:0:0:0:
256,192,183752,1,8,0:0:0:0:
256,192,183795,1,8,0:0:0:0:
256,192,183925,1,8,0:0:0:0:
256,192,183968,1,0,0:0:0:0:
256,192,184097,1,0,0:0:0:0:
256,192,184140,1,0,0:0:0:0:
256,192,184269,1,8,0:0:0:0:
256,192,184313,1,8,0:0:0:0:
256,192,184442,1,8,0:0:0:0:
256,192,184485,1,0,0:0:0:0:
256,192,184614,1,8,0:0:0:0:
256,192,184700,1,8,0:0:0:0:
256,192,184787,1,0,0:0:0:0:
256,192,184873,1,8,0:0:0:0:
256,192,184959,1,0,0:0:0:0:
256,192,185132,1,0,0:0:0:0:
256,192,185304,1,8,0:0:0:0:
256,192,185390,1,8,0:0:0:0:
256,192,185476,1,8,0:0:0:0:
256,192,185649,1,0,0:0:0:0:
256,192,185692,1,0,0:0:0:0:
256,192,185821,1,0,0:0:0:0:
256,192,185864,1,0,0:0:0:0:
256,192,185994,1,0,0:0:0:0:
256,192,186037,1,0,0:0:0:0:
256,192,186166,1,0,0:0:0:0:
256,192,186209,1,0,0:0:0:0:
256,192,186338,1,0,0:0:0:0:
256,192,186382,1,0,0:0:0:0:
256,192,186511,1,0,0:0:0:0:
256,192,186554,1,8,0:0:0:0:
256,192,186683,1,0,0:0:0:0:
256,192,186726,1,0,0:0:0:0:
256,192,186856,1,0,0:0:0:0:
256,192,186899,1,0,0:0:0:0:
256,192,187028,1,0,0:0:0:0:
256,192,187071,1,8,0:0:0:0:
256,192,187200,1,0,0:0:0:0:
256,192,187244,1,8,0:0:0:0:
256,192,187373,1,8,0:0:0:0:
256,192,187459,1,0,0:0:0:0:
256,192,187545,1,0,0:0:0:0:
256,192,187632,1,8,0:0:0:0:
256,192,187718,1,0,0:0:0:0:
256,192,187890,1,0,0:0:0:0:
256,192,188063,1,8,0:0:0:0:
256,192,188149,1,8,0:0:0:0:
256,192,188235,1,8,0:0:0:0:
256,192,188407,1,0,0:0:0:0:
256,192,188494,1,0,0:0:0:0:
256,192,188580,1,0,0:0:0:0:
256,192,188752,1,0,0:0:0:0:
256,192,188795,1,0,0:0:0:0:
256,192,188925,1,0,0:0:0:0:
256,192,188968,1,0,0:0:0:0:
256,192,189097,1,0,0:0:0:0:
256,192,189140,1,0,0:0:0:0:
256,192,189269,1,8,0:0:0:0:
256,192,189313,1,8,0:0:0:0:
256,192,189442,1,8,0:0:0:0:
256,192,189485,1,0,0:0:0:0:
256,192,189614,1,0,0:0:0:0:
256,192,189657,1,0,0:0:0:0:
256,192,189787,1,8,0:0:0:0:
256,192,189830,1,8,0:0:0:0:
256,192,189959,1,8,0:0:0:0:
256,192,190002,1,0,0:0:0:0:
256,192,190132,1,8,0:0:0:0:
256,192,190218,1,8,0:0:0:0:
256,192,190304,1,0,0:0:0:0:
256,192,190390,1,8,0:0:0:0:
256,192,190476,1,0,0:0:0:0:
256,192,190649,1,0,0:0:0:0:
256,192,190821,1,8,0:0:0:0:
256,192,190907,1,8,0:0:0:0:
256,192,190994,1,8,0:0:0:0:
256,192,191166,1,0,0:0:0:0:
256,192,191209,1,0,0:0:0:0:
256,192,191338,1,0,0:0:0:0:
256,192,191382,1,0,0:0:0:0:
256,192,191511,1,0,0:0:0:0:
256,192,191554,1,0,0:0:0:0:
256,192,191683,1,0,0:0:0:0:
256,192,191726,1,0,0:0:0:0:
256,192,191856,1,8,0:0:0:0:
256,192,192200,1,8,0:0:0:0:
256,192,192373,1,0,0:0:0:0:
256,192,192545,1,8,0:0:0:0:
256,192,192775,1,8,0:0:0:0:
256,192,193005,1,8,0:0:0:0:
256,192,193235,1,4,0:0:0:0:
256,192,193407,1,0,0:0:0:0:
256,192,193580,1,8,0:0:0:0:
256,192,193666,1,8,0:0:0:0:
256,192,193752,1,8,0:0:0:0:
256,192,193925,1,8,0:0:0:0:
256,192,193968,1,0,0:0:0:0:
256,192,194097,1,8,0:0:0:0:
256,192,194140,1,8,0:0:0:0:
256,192,194269,1,0,0:0:0:0:
256,192,194313,1,0,0:0:0:0:
256,192,194442,1,0,0:0:0:0:
256,192,194485,1,0,0:0:0:0:
256,192,194614,1,0,0:0:0:0:
256,192,194657,1,0,0:0:0:0:
256,192,194787,1,8,0:0:0:0:
256,192,194830,1,0,0:0:0:0:
256,192,194959,1,8,0:0:0:0:
256,192,195002,1,8,0:0:0:0:
256,192,195132,1,0,0:0:0:0:
256,192,195175,1,0,0:0:0:0:
256,192,195304,1,0,0:0:0:0:
256,192,195347,1,0,0:0:0:0:
256,192,195476,1,8,0:0:0:0:
256,192,195519,1,0,0:0:0:0:
256,192,195649,1,8,0:0:0:0:
256,192,195735,1,8,0:0:0:0:
256,192,195821,1,0,0:0:0:0:
256,192,195907,1,8,0:0:0:0:
256,192,195994,1,0,0:0:0:0:
256,192,196166,1,0,0:0:0:0:
256,192,196338,1,8,0:0:0:0:
256,192,196425,1,8,0:0:0:0:
256,192,196511,1,8,0:0:0:0:
256,192,196683,1,8,0:0:0:0:
256,192,196726,1,0,0:0:0:0:
256,192,196856,1,8,0:0:0:0:
256,192,196899,1,8,0:0:0:0:
256,192,197028,1,0,0:0:0:0:
256,192,197071,1,0,0:0:0:0:
256,192,197200,1,0,0:0:0:0:
256,192,197244,1,0,0:0:0:0:
256,192,197373,1,0,0:0:0:0:
256,192,197416,1,0,0:0:0:0:
256,192,197545,1,8,0:0:0:0:
256,192,197588,1,0,0:0:0:0:
256,192,197718,1,8,0:0:0:0:
256,192,197761,1,8,0:0:0:0:
256,192,197890,1,0,0:0:0:0:
256,192,197933,1,0,0:0:0:0:
256,192,198063,1,8,0:0:0:0:
256,192,198120,1,0,0:0:0:0:
256,192,198177,1,0,0:0:0:0:
256,192,198235,1,8,0:0:0:0:
256,192,198407,1,8,0:0:0:0:
256,192,198494,1,0,0:0:0:0:
256,192,198580,1,8,0:0:0:0:
256,192,198666,1,8,0:0:0:0:
256,192,198752,1,0,0:0:0:0:
256,192,198925,1,0,0:0:0:0:
256,192,199097,1,8,0:0:0:0:
256,192,199183,1,8,0:0:0:0:
256,192,199269,1,8,0:0:0:0:
256,192,199442,1,8,0:0:0:0:
256,192,199485,1,0,0:0:0:0:
256,192,199614,1,8,0:0:0:0:
256,192,199657,1,8,0:0:0:0:
256,192,199787,1,0,0:0:0:0:
256,192,199830,1,0,0:0:0:0:
256,192,199959,1,0,0:0:0:0:
256,192,200002,1,0,0:0:0:0:
256,192,200132,1,0,0:0:0:0:
256,192,200175,1,0,0:0:0:0:
256,192,200304,1,8,0:0:0:0:
256,192,200347,1,0,0:0:0:0:
256,192,200476,1,8,0:0:0:0:
256,192,200519,1,8,0:0:0:0:
256,192,200649,1,0,0:0:0:0:
256,192,200692,1,0,0:0:0:0:
256,192,200821,1,0,0:0:0:0:
256,192,200864,1,0,0:0:0:0:
256,192,200994,1,8,0:0:0:0:
256,192,201037,1,0,0:0:0:0:
256,192,201166,1,8,0:0:0:0:
256,192,201252,1,0,0:0:0:0:
256,192,201338,1,0,0:0:0:0:
256,192,201425,1,8,0:0:0:0:
256,192,201511,1,0,0:0:0:0:
256,192,201856,1,8,0:0:0:0:
256,192,202373,1,0,0:0:0:0:
256,192,202545,1,8,0:0:0:0:
256,192,202890,1,8,0:0:0:0:
256,192,202976,1,8,0:0:0:0:
256,192,203063,1,0,0:0:0:0:
256,192,203149,1,0,0:0:0:0:
256,192,203235,1,8,0:0:0:0:
256,192,203321,1,0,0:0:0:0:
256,192,203407,1,8,0:0:0:0:
256,192,203494,1,8,0:0:0:0:
256,192,203580,1,0,0:0:0:0:
256,192,203666,1,0,0:0:0:0:
256,192,203752,1,0,0:0:0:0:
256,192,203838,1,0,0:0:0:0:
256,192,203925,1,8,0:0:0:0:
256,192,204269,1,4,0:0:0:0:
256,192,204614,1,0,0:0:0:0:
256,192,204700,1,0,0:0:0:0:
256,192,204959,1,8,0:0:0:0:
256,192,205002,1,8,0:0:0:0:
256,192,205132,1,8,0:0:0:0:
256,192,205175,1,8,0:0:0:0:
256,192,205304,1,8,0:0:0:0:
256,192,205347,1,8,0:0:0:0:
256,192,205476,1,8,0:0:0:0:
256,192,205519,1,8,0:0:0:0:
256,192,205649,1,8,0:0:0:0:
256,192,205692,1,8,0:0:0:0:
256,192,205821,1,8,0:0:0:0:
256,192,205864,1,8,0:0:0:0:
256,192,205994,1,8,0:0:0:0:
256,192,206037,1,8,0:0:0:0:
256,192,206166,1,8,0:0:0:0:
256,192,206209,1,8,0:0:0:0:
256,192,206338,1,8,0:0:0:0:
256,192,206382,1,8,0:0:0:0:
256,192,206511,1,8,0:0:0:0:
256,192,206554,1,8,0:0:0:0:
256,192,206683,1,4,0:0:0:0:
256,192,207028,1,4,0:0:0:0:
256,192,207373,1,0,0:0:0:0:
256,192,207459,1,0,0:0:0:0:
256,192,207718,1,8,0:0:0:0:
256,192,207761,1,8,0:0:0:0:
256,192,207890,1,8,0:0:0:0:
256,192,207933,1,8,0:0:0:0:
256,192,208063,1,8,0:0:0:0:
256,192,208106,1,8,0:0:0:0:
256,192,208235,1,8,0:0:0:0:
256,192,208278,1,8,0:0:0:0:
256,192,208407,1,8,0:0:0:0:
256,192,208450,1,8,0:0:0:0:
256,192,208580,1,8,0:0:0:0:
256,192,208623,1,8,0:0:0:0:
256,192,208752,1,8,0:0:0:0:
256,192,208795,1,8,0:0:0:0:
256,192,208925,1,8,0:0:0:0:
256,192,208968,1,8,0:0:0:0:
256,192,209097,1,8,0:0:0:0:
256,192,209269,1,0,0:0:0:0:
256,192,209442,1,4,0:0:0:0:
256,192,209787,1,12,0:0:0:0:
256,192,210132,1,0,0:0:0:0:
256,192,210218,1,0,0:0:0:0:
256,192,210476,1,8,0:0:0:0:
256,192,210519,1,8,0:0:0:0:
256,192,210649,1,8,0:0:0:0:
256,192,210692,1,8,0:0:0:0:
256,192,210821,1,8,0:0:0:0:
256,192,210864,1,8,0:0:0:0:
256,192,210994,1,8,0:0:0:0:
256,192,211037,1,8,0:0:0:0:
256,192,211166,1,8,0:0:0:0:
256,192,211209,1,8,0:0:0:0:
256,192,211338,1,8,0:0:0:0:
256,192,211382,1,8,0:0:0:0:
256,192,211511,1,8,0:0:0:0:
256,192,211554,1,8,0:0:0:0:
256,192,211683,1,8,0:0:0:0:
256,192,211726,1,8,0:0:0:0:
256,192,211856,1,8,0:0:0:0:
256,192,211899,1,8,0:0:0:0:
256,192,212028,1,8,0:0:0:0:
256,192,212071,1,8,0:0:0:0:
256,192,212200,1,12,0:0:0:0:
256,192,212545,1,4,0:0:0:0:
256,192,212890,1,0,0:0:0:0:
256,192,212976,1,0,0:0:0:0:
256,192,213235,1,8,0:0:0:0:
256,192,213278,1,8,0:0:0:0:
256,192,213407,1,8,0:0:0:0:
256,192,213450,1,8,0:0:0:0:
256,192,213580,1,8,0:0:0:0:
256,192,213623,1,8,0:0:0:0:
256,192,213752,1,8,0:0:0:0:
256,192,213795,1,8,0:0:0:0:
256,192,213925,1,0,0:0:0:0:
256,192,214269,1,0,0:0:0:0:
256,192,214614,1,8,0:0:0:0:
256,192,214959,1,8,0:0:0:0:
256,192,215132,1,8,0:0:0:0:
256,192,215218,1,8,0:0:0:0:
256,192,215304,1,0,0:0:0:0:
256,192,215649,1,0,0:0:0:0:
256,192,215735,1,0,0:0:0:0:
256,192,215994,1,8,0:0:0:0:
256,192,216037,1,8,0:0:0:0:
256,192,216166,1,8,0:0:0:0:
256,192,216209,1,8,0:0:0:0:
256,192,216338,1,8,0:0:0:0:
256,192,216382,1,8,0:0:0:0:
256,192,216511,1,8,0:0:0:0:
256,192,216554,1,8,0:0:0:0:
256,192,216683,1,8,0:0:0:0:
256,192,216726,1,8,0:0:0:0:
256,192,216856,1,8,0:0:0:0:
256,192,216899,1,8,0:0:0:0:
256,192,217028,1,8,0:0:0:0:
256,192,217071,1,8,0:0:0:0:
256,192,217200,1,8,0:0:0:0:
256,192,217244,1,8,0:0:0:0:
256,192,217373,1,8,0:0:0:0:
256,192,217416,1,8,0:0:0:0:
256,192,217545,1,8,0:0:0:0:
256,192,217588,1,8,0:0:0:0:
256,192,217718,1,4,0:0:0:0:
256,192,218063,1,4,0:0:0:0:
256,192,218407,1,0,0:0:0:0:
256,192,218494,1,0,0:0:0:0:
256,192,218752,1,8,0:0:0:0:
256,192,218795,1,8,0:0:0:0:
256,192,218925,1,8,0:0:0:0:
256,192,218968,1,8,0:0:0:0:
256,192,219097,1,8,0:0:0:0:
256,192,219140,1,8,0:0:0:0:
256,192,219269,1,8,0:0:0:0:
256,192,219313,1,8,0:0:0:0:
256,192,219442,1,8,0:0:0:0:
256,192,219485,1,8,0:0:0:0:
256,192,219614,1,8,0:0:0:0:
256,192,219657,1,8,0:0:0:0:
256,192,219787,1,8,0:0:0:0:
256,192,219830,1,8,0:0:0:0:
256,192,219959,1,8,0:0:0:0:
256,192,220002,1,8,0:0:0:0:
256,192,220132,1,8,0:0:0:0:
256,192,220304,1,0,0:0:0:0:
256,192,220476,1,4,0:0:0:0:
256,192,220821,1,12,0:0:0:0:
256,192,221166,1,0,0:0:0:0:
256,192,221252,1,0,0:0:0:0:
256,192,221511,1,8,0:0:0:0:
256,192,221554,1,8,0:0:0:0:
256,192,221683,1,8,0:0:0:0:
256,192,221726,1,8,0:0:0:0:
256,192,221856,1,8,0:0:0:0:
256,192,221899,1,8,0:0:0:0:
256,192,222028,1,8,0:0:0:0:
256,192,222071,1,8,0:0:0:0:
256,192,222200,1,8,0:0:0:0:
256,192,222244,1,8,0:0:0:0:
256,192,222373,1,8,0:0:0:0:
256,192,222416,1,8,0:0:0:0:
256,192,222545,1,8,0:0:0:0:
256,192,222588,1,8,0:0:0:0:
256,192,222718,1,8,0:0:0:0:
256,192,222761,1,8,0:0:0:0:
256,192,222890,1,8,0:0:0:0:
256,192,222933,1,8,0:0:0:0:
256,192,223063,1,8,0:0:0:0:
256,192,223106,1,8,0:0:0:0:
256,192,223235,1,12,0:0:0:0:
256,192,223580,1,0,0:0:0:0:
256,192,223623,1,0,0:0:0:0:
256,192,223666,1,8,0:0:0:0:
256,192,224097,1,0,0:0:0:0:
256,192,224140,1,0,0:0:0:0:
256,192,224183,1,8,0:0:0:0:
256,192,224269,1,8,0:0:0:0:
256,192,224614,1,0,0:0:0:0:
256,192,224657,1,0,0:0:0:0:
256,192,224700,1,8,0:0:0:0:
256,192,224787,1,8,0:0:0:0:
256,192,224873,1,0,0:0:0:0:
256,192,224959,1,0,0:0:0:0:
256,192,225304,1,0,0:0:0:0:
256,192,225649,1,8,0:0:0:0:
256,192,225994,1,8,0:0:0:0:
256,192,226338,12,0,234614,0:0:0:0:
