osu file format v14

[General]
AudioFilename: audio.mp3
AudioLeadIn: 0
PreviewTime: 59183
Countdown: 0
SampleSet: Normal
StackLeniency: 0.7
Mode: 1
LetterboxInBreaks: 0
WidescreenStoryboard: 0

[Editor]
DistanceSpacing: 0.8
BeatDivisor: 4
GridSize: 32
TimelineZoom: 2

[Metadata]
Title:Holdin On (Skrillex and Nero Remix)
TitleUnicode:Holdin On (Skrillex and Nero Remix)
Artist:I SEE MONSTAS
ArtistUnicode:I SEE MONSTAS
Creator:Surono
Version:Futsuu
Source:
Tags:drum n bass dnb dubstep asphalt 8 airborne yales
BeatmapID:1703385
BeatmapSetID:811930

[Difficulty]
HPDrainRate:6
CircleSize:2
OverallDifficulty:4
ApproachRate:10
SliderMultiplier:1.4
SliderTickRate:1

[Events]
//Background and Video events
0,0,"find me background please.jpg",0,-135
//Break Periods
//Storyboard Layer 0 (Background)
//Storyboard Layer 1 (Fail)
//Storyboard Layer 2 (Pass)
//Storyboard Layer 3 (Foreground)
//Storyboard Sound Samples

[TimingPoints]
132,344.827586206897,4,1,0,75,1,0
22028,-100,4,1,0,80,0,0
44614,-100,4,1,0,40,0,0
49442,-100,4,1,0,60,0,0
52373,-100,4,1,0,80,0,0
54528,-100,4,1,0,90,0,0
55304,-100,4,1,0,25,0,0
60821,-100,4,1,0,95,0,1
104959,-100,4,1,0,25,0,0
115994,-100,4,1,0,50,0,0
125304,-100,4,1,0,80,0,0
149269,-100,4,1,0,40,0,0
154614,-100,4,1,0,60,0,0
157373,-100,4,1,0,80,0,0
159442,-100,4,1,0,90,0,0
160132,-100,4,1,0,95,0,1
204269,-100,4,1,0,95,0,0
226166,-100,4,1,0,25,0,0

[HitObjects]
256,192,132,5,8,0:0:0:0:
256,192,476,1,8,0:0:0:0:
256,192,821,1,0,0:0:0:0:
256,192,1511,1,8,0:0:0:0:
256,192,2890,1,8,0:0:0:0:
256,192,3235,1,8,0:0:0:0:
256,192,3580,1,0,0:0:0:0:
256,192,4959,1,8,0:0:0:0:
256,192,5649,1,8,0:0:0:0:
256,192,5994,1,8,0:0:0:0:
256,192,6338,1,0,0:0:0:0:
256,192,7028,1,8,0:0:0:0:
256,192,8407,1,8,0:0:0:0:
256,192,9097,1,0,0:0:0:0:
256,192,9442,1,0,0:0:0:0:
256,192,9787,1,8,0:0:0:0:
256,192,10476,1,8,0:0:0:0:
256,192,11166,1,4,0:0:0:0:
256,192,11511,1,8,0:0:0:0:
256,192,11856,1,0,0:0:0:0:
256,192,12545,1,8,0:0:0:0:
256,192,13925,1,8,0:0:0:0:
256,192,14269,1,8,0:0:0:0:
256,192,14614,1,0,0:0:0:0:
256,192,15994,1,8,0:0:0:0:
256,192,16683,1,8,0:0:0:0:
256,192,17028,1,8,0:0:0:0:
256,192,17373,1,0,0:0:0:0:
256,192,18063,1,8,0:0:0:0:
256,192,19442,1,8,0:0:0:0:
256,192,20132,1,0,0:0:0:0:
256,192,20476,1,0,0:0:0:0:
256,192,20821,1,8,0:0:0:0:
256,192,21511,1,8,0:0:0:0:
256,192,21856,1,0,0:0:0:0:
256,192,22200,1,4,0:0:0:0:
256,192,22890,1,8,0:0:0:0:
256,192,23925,1,0,0:0:0:0:
256,192,24269,1,8,0:0:0:0:
256,192,24959,1,4,0:0:0:0:
256,192,25649,1,8,0:0:0:0:
256,192,26683,1,0,0:0:0:0:
256,192,27028,1,8,0:0:0:0:
256,192,27718,1,4,0:0:0:0:
256,192,28407,1,8,0:0:0:0:
256,192,29442,1,0,0:0:0:0:
256,192,29787,1,8,0:0:0:0:
256,192,30476,1,4,0:0:0:0:
256,192,31166,1,8,0:0:0:0:
256,192,31856,1,8,0:0:0:0:
256,192,32200,1,0,0:0:0:0:
256,192,32545,1,8,0:0:0:0:
256,192,33063,1,8,0:0:0:0:
256,192,33235,1,4,0:0:0:0:
256,192,33925,1,8,0:0:0:0:
256,192,34959,1,0,0:0:0:0:
256,192,35304,1,8,0:0:0:0:
256,192,35994,1,4,0:0:0:0:
256,192,36683,1,8,0:0:0:0:
256,192,37718,1,0,0:0:0:0:
256,192,38063,1,8,0:0:0:0:
256,192,38752,1,4,0:0:0:0:
256,192,39442,1,8,0:0:0:0:
256,192,40476,1,0,0:0:0:0:
256,192,40821,1,8,0:0:0:0:
256,192,41511,1,4,0:0:0:0:
256,192,42200,1,8,0:0:0:0:
256,192,42890,1,8,0:0:0:0:
256,192,43235,1,0,0:0:0:0:
256,192,43580,1,8,0:0:0:0:
256,192,43752,1,0,0:0:0:0:
256,192,44269,1,4,0:0:0:0:
256,192,45649,1,8,0:0:0:0:
256,192,47028,1,8,0:0:0:0:
256,192,48407,1,8,0:0:0:0:
256,192,49787,1,0,0:0:0:0:
256,192,50476,1,0,0:0:0:0:
256,192,51166,1,0,0:0:0:0:
256,192,51856,1,0,0:0:0:0:
256,192,52545,1,0,0:0:0:0:
256,192,52890,1,0,0:0:0:0:
256,192,53235,1,0,0:0:0:0:
256,192,53580,1,0,0:0:0:0:
256,192,53925,1,0,0:0:0:0:
256,192,54614,1,0,0:0:0:0:
256,192,54787,1,0,0:0:0:0:
256,192,54959,1,0,0:0:0:0:
256,192,55304,12,0,59442,0:0:0:0:
256,192,60821,5,4,0:0:0:0:
256,192,61511,1,8,0:0:0:0:
256,192,61856,1,0,0:0:0:0:
256,192,62200,1,0,0:0:0:0:
256,192,62545,1,8,0:0:0:0:
256,192,62890,1,0,0:0:0:0:
256,192,63063,1,0,0:0:0:0:
256,192,63235,1,8,0:0:0:0:
256,192,63580,1,0,0:0:0:0:
256,192,64269,1,8,0:0:0:0:
256,192,64614,1,0,0:0:0:0:
256,192,64959,1,0,0:0:0:0:
256,192,65132,1,8,0:0:0:0:
256,192,65649,1,8,0:0:0:0:
256,192,65821,1,8,0:0:0:0:
256,192,65994,1,0,0:0:0:0:
256,192,66338,1,0,0:0:0:0:
256,192,67028,1,8,0:0:0:0:
256,192,67373,1,0,0:0:0:0:
256,192,67718,1,0,0:0:0:0:
256,192,68063,1,8,0:0:0:0:
256,192,68407,1,0,0:0:0:0:
256,192,68580,1,0,0:0:0:0:
256,192,68752,1,8,0:0:0:0:
256,192,69097,1,0,0:0:0:0:
256,192,69787,1,8,0:0:0:0:
256,192,70132,1,0,0:0:0:0:
256,192,70476,1,12,0:0:0:0:
256,192,70994,1,12,0:0:0:0:
256,192,71511,1,12,0:0:0:0:
256,192,71856,1,12,0:0:0:0:
256,192,72545,1,8,0:0:0:0:
256,192,72890,1,0,0:0:0:0:
256,192,73235,1,0,0:0:0:0:
256,192,73580,1,8,0:0:0:0:
256,192,73925,1,0,0:0:0:0:
256,192,74097,1,0,0:0:0:0:
256,192,74269,1,8,0:0:0:0:
256,192,74614,1,0,0:0:0:0:
256,192,75304,1,8,0:0:0:0:
256,192,75649,1,0,0:0:0:0:
256,192,75994,1,0,0:0:0:0:
256,192,76166,1,8,0:0:0:0:
256,192,76683,1,8,0:0:0:0:
256,192,76856,1,8,0:0:0:0:
256,192,77028,1,0,0:0:0:0:
256,192,77373,1,0,0:0:0:0:
256,192,78063,1,8,0:0:0:0:
256,192,78407,1,0,0:0:0:0:
256,192,78752,1,0,0:0:0:0:
256,192,79097,1,8,0:0:0:0:
256,192,79442,1,0,0:0:0:0:
256,192,79614,1,0,0:0:0:0:
256,192,79787,1,8,0:0:0:0:
256,192,80132,1,0,0:0:0:0:
256,192,80821,1,8,0:0:0:0:
256,192,81166,1,0,0:0:0:0:
256,192,81511,1,8,0:0:0:0:
256,192,81856,1,8,0:0:0:0:
256,192,82373,1,8,0:0:0:0:
256,192,82545,1,8,0:0:0:0:
256,192,82890,1,4,0:0:0:0:
256,192,83580,1,0,0:0:0:0:
256,192,83752,1,0,0:0:0:0:
256,192,83925,1,0,0:0:0:0:
256,192,84269,1,0,0:0:0:0:
256,192,84614,1,8,0:0:0:0:
256,192,84959,1,0,0:0:0:0:
256,192,85304,1,8,0:0:0:0:
256,192,85476,1,0,0:0:0:0:
256,192,85649,1,0,0:0:0:0:
256,192,86338,1,0,0:0:0:0:
256,192,86683,1,0,0:0:0:0:
256,192,87028,1,0,0:0:0:0:
256,192,87200,1,8,0:0:0:0:
256,192,87718,1,8,0:0:0:0:
256,192,87890,1,8,0:0:0:0:
256,192,88063,1,0,0:0:0:0:
256,192,88407,1,0,0:0:0:0:
256,192,89097,1,0,0:0:0:0:
256,192,89269,1,0,0:0:0:0:
256,192,89442,1,0,0:0:0:0:
256,192,89787,1,0,0:0:0:0:
256,192,90132,1,8,0:0:0:0:
256,192,90476,1,8,0:0:0:0:
256,192,90821,1,8,0:0:0:0:
256,192,90994,1,0,0:0:0:0:
256,192,91166,1,0,0:0:0:0:
256,192,91856,1,0,0:0:0:0:
256,192,92028,1,0,0:0:0:0:
256,192,92200,1,0,0:0:0:0:
256,192,92545,1,8,0:0:0:0:
256,192,92890,1,8,0:0:0:0:
256,192,93235,1,8,0:0:0:0:
256,192,93925,1,4,0:0:0:0:
256,192,94614,1,8,0:0:0:0:
256,192,94787,1,8,0:0:0:0:
256,192,94959,1,0,0:0:0:0:
256,192,95304,1,0,0:0:0:0:
256,192,95649,1,8,0:0:0:0:
256,192,95994,1,0,0:0:0:0:
256,192,96166,1,8,0:0:0:0:
256,192,96338,1,8,0:0:0:0:
256,192,96683,1,0,0:0:0:0:
256,192,97373,1,8,0:0:0:0:
256,192,97545,1,8,0:0:0:0:
256,192,97718,1,0,0:0:0:0:
256,192,98063,1,0,0:0:0:0:
256,192,98407,1,8,0:0:0:0:
256,192,98752,1,0,0:0:0:0:
256,192,98925,1,8,0:0:0:0:
256,192,99097,1,8,0:0:0:0:
256,192,99269,1,8,0:0:0:0:
256,192,99442,1,0,0:0:0:0:
256,192,100132,1,8,0:0:0:0:
256,192,100304,1,8,0:0:0:0:
256,192,100476,1,0,0:0:0:0:
256,192,100821,1,0,0:0:0:0:
256,192,101166,1,8,0:0:0:0:
256,192,101511,1,0,0:0:0:0:
256,192,101683,1,8,0:0:0:0:
256,192,101856,1,8,0:0:0:0:
256,192,102200,1,0,0:0:0:0:
256,192,102545,1,8,0:0:0:0:
256,192,103235,1,8,0:0:0:0:
256,192,103580,1,8,0:0:0:0:
256,192,103752,1,8,0:0:0:0:
256,192,104097,1,8,0:0:0:0:
256,192,104269,1,8,0:0:0:0:
256,192,104614,1,8,0:0:0:0:
256,192,104959,12,0,112890,0:0:0:0:
256,192,113235,5,8,0:0:0:0:
256,192,114614,1,8,0:0:0:0:
256,192,115304,1,8,0:0:0:0:
256,192,115994,1,8,0:0:0:0:
256,192,117373,1,0,0:0:0:0:
256,192,118063,1,0,0:0:0:0:
256,192,118752,1,8,0:0:0:0:
256,192,120132,1,0,0:0:0:0:
256,192,120821,1,8,0:0:0:0:
256,192,121511,1,8,0:0:0:0:
256,192,122890,1,0,0:0:0:0:
256,192,123580,1,0,0:0:0:0:
256,192,124269,1,8,0:0:0:0:
256,192,125649,1,8,0:0:0:0:
256,192,126166,1,0,0:0:0:0:
256,192,126338,1,8,0:0:0:0:
256,192,126683,1,8,0:0:0:0:
256,192,127028,1,4,0:0:0:0:
256,192,127718,1,8,0:0:0:0:
256,192,127890,1,0,0:0:0:0:
256,192,129097,1,8,0:0:0:0:
256,192,129442,1,8,0:0:0:0:
256,192,129787,1,4,0:0:0:0:
256,192,130476,1,8,0:0:0:0:
256,192,130821,1,8,0:0:0:0:
256,192,131856,1,8,0:0:0:0:
256,192,132200,1,0,0:0:0:0:
256,192,132545,1,4,0:0:0:0:
256,192,133235,1,8,0:0:0:0:
256,192,133407,1,0,0:0:0:0:
256,192,134614,1,8,0:0:0:0:
256,192,135304,1,4,0:0:0:0:
256,192,135994,1,8,0:0:0:0:
256,192,136338,1,0,0:0:0:0:
256,192,136683,1,8,0:0:0:0:
256,192,137028,1,8,0:0:0:0:
256,192,137373,1,8,0:0:0:0:
256,192,137718,1,0,0:0:0:0:
256,192,138063,1,4,0:0:0:0:
256,192,138752,1,8,0:0:0:0:
256,192,138925,1,0,0:0:0:0:
256,192,140132,1,8,0:0:0:0:
256,192,140476,1,8,0:0:0:0:
256,192,140821,1,4,0:0:0:0:
256,192,141511,1,8,0:0:0:0:
256,192,141856,1,8,0:0:0:0:
256,192,142890,1,8,0:0:0:0:
256,192,143235,1,0,0:0:0:0:
256,192,143580,1,4,0:0:0:0:
256,192,144269,1,8,0:0:0:0:
256,192,144442,1,0,0:0:0:0:
256,192,145649,1,8,0:0:0:0:
256,192,146338,1,4,0:0:0:0:
256,192,147028,1,8,0:0:0:0:
256,192,147373,1,8,0:0:0:0:
256,192,147718,1,8,0:0:0:0:
256,192,148235,1,0,0:0:0:0:
256,192,148407,1,8,0:0:0:0:
256,192,149097,1,4,0:0:0:0:
256,192,149614,1,0,0:0:0:0:
256,192,150476,1,8,0:0:0:0:
256,192,150994,1,0,0:0:0:0:
256,192,151856,1,8,0:0:0:0:
256,192,152373,1,0,0:0:0:0:
256,192,153235,1,8,0:0:0:0:
256,192,154614,1,0,0:0:0:0:
256,192,154959,1,0,0:0:0:0:
256,192,155304,1,0,0:0:0:0:
256,192,155994,1,0,0:0:0:0:
256,192,156338,1,0,0:0:0:0:
256,192,156683,1,0,0:0:0:0:
256,192,157373,1,0,0:0:0:0:
256,192,157718,1,8,0:0:0:0:
256,192,158063,1,0,0:0:0:0:
256,192,158407,1,0,0:0:0:0:
256,192,158752,1,8,0:0:0:0:
256,192,159442,1,0,0:0:0:0:
256,192,159787,1,8,0:0:0:0:
256,192,159959,1,8,0:0:0:0:
256,192,160132,5,4,0:0:0:0:
256,192,160822,1,8,0:0:0:0:
256,192,161167,1,0,0:0:0:0:
256,192,161511,1,0,0:0:0:0:
256,192,161856,1,8,0:0:0:0:
256,192,162201,1,0,0:0:0:0:
256,192,162374,1,0,0:0:0:0:
256,192,162546,1,8,0:0:0:0:
256,192,162891,1,0,0:0:0:0:
256,192,163580,1,8,0:0:0:0:
256,192,163925,1,0,0:0:0:0:
256,192,164270,1,0,0:0:0:0:
256,192,164443,1,8,0:0:0:0:
256,192,164960,1,8,0:0:0:0:
256,192,165132,1,8,0:0:0:0:
256,192,165305,1,0,0:0:0:0:
256,192,165649,1,0,0:0:0:0:
256,192,166339,1,8,0:0:0:0:
256,192,166684,1,0,0:0:0:0:
256,192,167029,1,0,0:0:0:0:
256,192,167374,1,8,0:0:0:0:
256,192,167718,1,0,0:0:0:0:
256,192,167891,1,0,0:0:0:0:
256,192,168063,1,8,0:0:0:0:
256,192,168408,1,0,0:0:0:0:
256,192,169098,1,8,0:0:0:0:
256,192,169443,1,0,0:0:0:0:
256,192,169787,1,12,0:0:0:0:
256,192,170305,1,12,0:0:0:0:
256,192,170822,1,12,0:0:0:0:
256,192,171167,1,12,0:0:0:0:
256,192,171856,1,8,0:0:0:0:
256,192,172201,1,0,0:0:0:0:
256,192,172546,1,0,0:0:0:0:
256,192,172891,1,8,0:0:0:0:
256,192,173236,1,0,0:0:0:0:
256,192,173408,1,0,0:0:0:0:
256,192,173580,1,8,0:0:0:0:
256,192,173925,1,0,0:0:0:0:
256,192,174615,1,8,0:0:0:0:
256,192,174960,1,0,0:0:0:0:
256,192,175305,1,0,0:0:0:0:
256,192,175477,1,8,0:0:0:0:
256,192,175994,1,8,0:0:0:0:
256,192,176167,1,8,0:0:0:0:
256,192,176339,1,0,0:0:0:0:
256,192,176684,1,0,0:0:0:0:
256,192,177374,1,8,0:0:0:0:
256,192,177718,1,0,0:0:0:0:
256,192,178063,1,0,0:0:0:0:
256,192,178408,1,8,0:0:0:0:
256,192,178753,1,0,0:0:0:0:
256,192,178925,1,0,0:0:0:0:
256,192,179098,1,8,0:0:0:0:
256,192,179443,1,0,0:0:0:0:
256,192,180132,1,8,0:0:0:0:
256,192,180477,1,0,0:0:0:0:
256,192,180822,1,8,0:0:0:0:
256,192,181167,1,8,0:0:0:0:
256,192,181684,1,8,0:0:0:0:
256,192,181856,1,8,0:0:0:0:
256,192,182201,1,4,0:0:0:0:
256,192,182891,1,0,0:0:0:0:
256,192,183063,1,0,0:0:0:0:
256,192,183236,1,0,0:0:0:0:
256,192,183580,1,0,0:0:0:0:
256,192,183925,1,8,0:0:0:0:
256,192,184270,1,0,0:0:0:0:
256,192,184615,1,8,0:0:0:0:
256,192,184787,1,0,0:0:0:0:
256,192,184960,1,0,0:0:0:0:
256,192,185649,1,0,0:0:0:0:
256,192,185994,1,0,0:0:0:0:
256,192,186339,1,0,0:0:0:0:
256,192,186511,1,8,0:0:0:0:
256,192,187029,1,8,0:0:0:0:
256,192,187201,1,8,0:0:0:0:
256,192,187374,1,0,0:0:0:0:
256,192,187718,1,0,0:0:0:0:
256,192,188408,1,0,0:0:0:0:
256,192,188580,1,0,0:0:0:0:
256,192,188753,1,0,0:0:0:0:
256,192,189098,1,0,0:0:0:0:
256,192,189443,1,8,0:0:0:0:
256,192,189787,1,8,0:0:0:0:
256,192,190132,1,8,0:0:0:0:
256,192,190305,1,0,0:0:0:0:
256,192,190477,1,0,0:0:0:0:
256,192,191167,1,0,0:0:0:0:
256,192,191339,1,0,0:0:0:0:
256,192,191511,1,0,0:0:0:0:
256,192,191856,1,8,0:0:0:0:
256,192,192201,1,8,0:0:0:0:
256,192,192546,1,8,0:0:0:0:
256,192,193236,1,4,0:0:0:0:
256,192,193925,1,8,0:0:0:0:
256,192,194098,1,8,0:0:0:0:
256,192,194270,1,0,0:0:0:0:
256,192,194615,1,0,0:0:0:0:
256,192,194960,1,8,0:0:0:0:
256,192,195305,1,0,0:0:0:0:
256,192,195477,1,8,0:0:0:0:
256,192,195649,1,8,0:0:0:0:
256,192,195994,1,0,0:0:0:0:
256,192,196684,1,8,0:0:0:0:
256,192,196856,1,8,0:0:0:0:
256,192,197029,1,0,0:0:0:0:
256,192,197374,1,0,0:0:0:0:
256,192,197718,1,8,0:0:0:0:
256,192,198063,1,0,0:0:0:0:
256,192,198236,1,8,0:0:0:0:
256,192,198408,1,8,0:0:0:0:
256,192,198580,1,8,0:0:0:0:
256,192,198753,1,0,0:0:0:0:
256,192,199443,1,8,0:0:0:0:
256,192,199615,1,8,0:0:0:0:
256,192,199787,1,0,0:0:0:0:
256,192,200132,1,0,0:0:0:0:
256,192,200477,1,8,0:0:0:0:
256,192,200822,1,0,0:0:0:0:
256,192,200994,1,8,0:0:0:0:
256,192,201167,1,8,0:0:0:0:
256,192,201511,1,0,0:0:0:0:
256,192,201856,1,8,0:0:0:0:
256,192,202546,1,8,0:0:0:0:
256,192,202891,1,8,0:0:0:0:
256,192,203063,1,8,0:0:0:0:
256,192,203408,1,8,0:0:0:0:
256,192,203580,1,8,0:0:0:0:
256,192,203925,1,8,0:0:0:0:
256,192,204269,5,4,0:0:0:0:
256,192,204959,1,8,0:0:0:0:
256,192,205132,1,8,0:0:0:0:
256,192,205304,1,8,0:0:0:0:
256,192,205649,1,8,0:0:0:0:
256,192,206338,1,8,0:0:0:0:
256,192,206683,1,4,0:0:0:0:
256,192,207028,1,4,0:0:0:0:
256,192,207718,1,8,0:0:0:0:
256,192,207890,1,8,0:0:0:0:
256,192,208063,1,8,0:0:0:0:
256,192,208407,1,8,0:0:0:0:
256,192,209097,1,8,0:0:0:0:
256,192,209442,1,4,0:0:0:0:
256,192,209787,1,12,0:0:0:0:
256,192,210476,1,8,0:0:0:0:
256,192,210649,1,8,0:0:0:0:
256,192,210821,1,8,0:0:0:0:
256,192,211166,1,8,0:0:0:0:
256,192,211856,1,8,0:0:0:0:
256,192,212200,1,12,0:0:0:0:
256,192,212545,1,4,0:0:0:0:
256,192,213235,1,8,0:0:0:0:
256,192,213407,1,8,0:0:0:0:
256,192,213580,1,8,0:0:0:0:
256,192,213925,1,0,0:0:0:0:
256,192,214614,1,8,0:0:0:0:
256,192,215304,1,0,0:0:0:0:
256,192,215994,1,8,0:0:0:0:
256,192,216166,1,8,0:0:0:0:
256,192,216338,1,8,0:0:0:0:
256,192,216683,1,8,0:0:0:0:
256,192,217373,1,8,0:0:0:0:
256,192,217718,1,4,0:0:0:0:
256,192,218063,1,4,0:0:0:0:
256,192,218752,1,8,0:0:0:0:
256,192,218925,1,8,0:0:0:0:
256,192,219097,1,8,0:0:0:0:
256,192,219442,1,8,0:0:0:0:
256,192,220132,1,8,0:0:0:0:
256,192,220476,1,4,0:0:0:0:
256,192,220821,1,12,0:0:0:0:
256,192,221511,1,8,0:0:0:0:
256,192,221683,1,8,0:0:0:0:
256,192,221856,1,8,0:0:0:0:
256,192,222200,1,8,0:0:0:0:
256,192,222890,1,8,0:0:0:0:
256,192,223235,1,12,0:0:0:0:
256,192,223580,1,0,0:0:0:0:
256,192,224097,1,0,0:0:0:0:
256,192,224614,1,0,0:0:0:0:
256,192,224787,1,8,0:0:0:0:
256,192,224959,1,0,0:0:0:0:
256,192,225649,1,8,0:0:0:0:
256,192,226338,12,0,234614,0:0:0:0:
